<?xml version="1.0" standalone="no"?>
<!DOCTYPE svg PUBLIC "-//W3C//DTD SVG 1.1//EN" "http://www.w3.org/Graphics/SVG/1.1/DTD/svg11.dtd" >
<svg xmlns="http://www.w3.org/2000/svg" xmlns:xlink="http://www.w3.org/1999/xlink" version="1.1">
<metadata></metadata>
<defs>
<font id="rulukoregular" horiz-adv-x="1126" >
<font-face units-per-em="2048" ascent="1638" descent="-410" />
<missing-glyph horiz-adv-x="430" />
<glyph horiz-adv-x="0" />
<glyph unicode="&#xd;" horiz-adv-x="681" />
<glyph unicode=" "  horiz-adv-x="430" />
<glyph unicode="&#x09;" horiz-adv-x="430" />
<glyph unicode="&#xa0;" horiz-adv-x="430" />
<glyph unicode="!" horiz-adv-x="483" d="M164 72.5q0 97.5 90 97.5q98 0 98 -100q0 -94 -94 -94.5t-94 97t90 97.5q98 0 98 -100q0 -95 -94 -95t-94 97.5zM195 375l2 983q0 92 10 131t37 39q4 0 116 -27l-57 -1126h-108z" />
<glyph unicode="&#x22;" horiz-adv-x="458" d="M63.5 1357.5q-0.5 53.5 16.5 69.5q12 10 31 11l88 -13l-45 -405l-76 8q-14 276 -14.5 329.5zM262 1357.5q0 53.5 17 69.5q12 10 30 11l88 -13l-45 -405l-76 8q-14 276 -14 329.5z" />
<glyph unicode="#" horiz-adv-x="1228" d="M125 422v92h967v-92h-967zM137 872v93h967v-93h-967zM358 0l62 1374q61 0 102 -10l-61 -1364h-103zM723 0l61 1374q49 0 103 -10l-62 -1364h-102z" />
<glyph unicode="$" horiz-adv-x="1167" d="M182 117l33 102q158 -104 330 -104l22 520q-213 96 -268 172q-68 96 -68 226t105.5 223.5t261.5 103.5l8 166q51 0 82 -10l-8 -156q137 -6 256 -53l-31 -107q-121 37 -229 39l-21 -479q70 -31 101.5 -46.5t89 -53t84.5 -72.5q72 -94 71.5 -235.5t-105.5 -241t-275 -117.5 l-7 -164h-82l7 160q-197 4 -357 127zM389 1032q0 -145 184 -233l21 434q-90 -16 -147.5 -69.5t-57.5 -131.5zM627 121q100 18 160.5 80.5t60.5 153.5t-51.5 144.5t-149.5 100.5z" />
<glyph unicode="%" horiz-adv-x="1775" d="M164 992q0 171 66.5 274.5t210 103.5t210 -94t66.5 -254t-75 -270.5t-219 -110.5t-201.5 90t-57.5 261zM283 995q0 -80 7 -130t41 -91t97 -41q170 0 170 289q0 121 -31.5 188.5t-126.5 67.5q-158 0 -157 -283zM403 -25l889 1442q45 -14 70 -43l-889 -1442q-45 14 -70 43z M1059 366q0 171 66.5 274t210 103t210 -94t66.5 -253.5t-75 -270.5t-219 -111t-201.5 90.5t-57.5 261.5zM1178 369q0 -80 7 -130.5t41 -91.5t97 -41q170 0 170 289q0 121 -31.5 188.5t-126.5 67.5q-158 0 -157 -282z" />
<glyph unicode="&#x26;" horiz-adv-x="1443" d="M119 502q0 248 137 422t371 174q121 0 204.5 -59.5t83.5 -170.5q0 -37 -16 -53l8 -10q63 57 112.5 162.5t63.5 193.5l91 -24q0 -125 -74 -263.5t-178 -226.5q-211 -176 -639 -178q0 -358 317 -358q139 0 245.5 82.5t158 206.5t51.5 264l317 26l-12 -110l-176 -25 q-49 -250 -209 -414t-392.5 -164t-348 138.5t-115.5 386.5zM287 584q493 5 493 247q0 63 -44 98.5t-118 35.5q-276 0 -331 -381z" />
<glyph unicode="'" horiz-adv-x="262" d="M63 1362q0 76 50 76l88 -13l-35 -397l-76 -8q-27 295 -27 342z" />
<glyph unicode="(" horiz-adv-x="626" d="M143 579.5q0 571.5 336 946.5l66 -53q-244 -362 -244 -895t244 -891l-66 -54q-336 375 -336 946.5z" />
<glyph unicode=")" horiz-adv-x="626" d="M82 -313q244 358 244 890.5t-244 895.5l65 53q336 -375 336 -946.5t-336 -946.5z" />
<glyph unicode="*" horiz-adv-x="614" d="M31 1452v10l18 39h2l180 -47l70 178l80 -14v-191l197 -4l14 -71l-197 -68l45 -174h-2q-39 -20 -47 -20q-33 0 -57 47l-51 96l-174 -105l-41 41l104 174l-96 52q-23 12 -34 29.5t-11 27.5z" />
<glyph unicode="+" horiz-adv-x="837" d="M104 526v138l629 -9l-12 -120zM350 266v658h137v-658h-137z" />
<glyph unicode="," horiz-adv-x="425" d="M119 -190l39 190q8 41 8 72.5t-12 66.5l118 15q45 -16 45 -64.5t-26 -112.5l-84 -198z" />
<glyph unicode="-" horiz-adv-x="645" d="M104 475v137l469 -8l-12 -121z" />
<glyph unicode="." horiz-adv-x="425" d="M123 66q0 96 94 96q86 0 86 -93.5t-90 -93t-90 90.5z" />
<glyph unicode="/" horiz-adv-x="759" d="M0 -121l659 1657q70 -6 99 -31l-660 -1657q-70 6 -98 31z" />
<glyph unicode="0" d="M102 664q0 295 99 491q53 104 150.5 161.5t229.5 57.5t223 -50t140 -144q92 -176 92 -463t-104 -500q-53 -111 -148.5 -176.5t-226.5 -65.5t-224 53.5t-143 151.5q-88 178 -88 484zM260 664q0 -408 143 -514q63 -47 155.5 -47.5t159 58t99.5 154.5q61 180 62 402 q0 219 -50 360q-59 170 -247 170q-94 0 -162 -52t-101 -142q-59 -164 -59 -389z" />
<glyph unicode="1" d="M205 1096l356 278l144 -24v-1223h243v-127h-651v127h252l6 1059l-283 -182z" />
<glyph unicode="2" d="M133 0v55q115 115 242 261.5t160.5 192.5t87 126t77.5 135q68 147 68 256t-77 163t-209 54t-257 -41l-30 113q154 59 329.5 59t288.5 -91t113 -269q0 -338 -541 -889l569 6l9 -131h-830z" />
<glyph unicode="3" d="M139 115l33 106q137 -119 295 -119t243 77t85 212t-82 199.5t-224 64.5h-131v113q104 12 170 12t115 -6q127 94 127 248q0 106 -76 163.5t-197.5 57.5t-242.5 -41l-31 113q154 59 320 59t275.5 -93t109.5 -259t-154 -289q178 -90 178 -338q0 -188 -123.5 -304 t-312.5 -116q-104 0 -207.5 36t-169.5 104z" />
<glyph unicode="4" d="M141 399v56l324 919l139 -24l-285 -824h398v437h151v-437h156l-18 -127h-138v-399h-151v399h-576z" />
<glyph unicode="5" d="M160 117l33 104q143 -119 311 -119q332 0 332 318q0 141 -81 215t-209 74t-298 -23l45 664h629l-19 -127h-477l-27 -400q104 12 193 13q188 0 294.5 -112t106.5 -309.5t-125 -318.5t-323 -121q-250 0 -385 142z" />
<glyph unicode="6" d="M145.5 702.5q-0.5 157.5 58 314.5t186.5 257t310 100q131 0 242 -37l-31 -110q-96 20 -192 20q-190 0 -291.5 -119.5t-120.5 -332.5q158 41 287 41q203 0 312.5 -109t109.5 -305.5t-119 -321.5t-307 -125q-211 0 -316 136q-96 121 -118 340q-10 94 -10.5 251.5zM303 680 q0 -328 70 -455q29 -51 84 -87t133 -36q131 0 200.5 86t69.5 228q0 293 -287 293q-129 0 -270 -29z" />
<glyph unicode="7" d="M162 1350h809v-56l-226 -518h218l-19 -127h-254l-287 -663l-143 24l275 639h-279v127h334l192 447h-612z" />
<glyph unicode="8" d="M129 352q0 113 67.5 212.5t176.5 158.5q-172 104 -172 299q0 152 104.5 252t257 100t259 -91t106.5 -241q0 -203 -193 -329q125 -55 194.5 -133t69.5 -218q0 -182 -123.5 -284.5t-313 -102.5t-311.5 99.5t-122 277.5zM272 354q0 -117 83 -185.5t207 -68.5t209 68t85 186 q0 80 -34 118t-53 55.5t-64.5 40t-67.5 32.5q-88 41 -164 68q-201 -128 -201 -314zM340 1031q0 -97 66.5 -151.5t220.5 -119.5q155 116 155 270q0 102 -60 160.5t-158.5 58.5t-161 -60.5t-62.5 -157.5z" />
<glyph unicode="9" d="M111 927.5q0 196.5 118.5 321.5t307.5 125q211 0 315 -135q96 -121 119 -338q10 -96 10 -254t-58.5 -314.5t-186.5 -257t-310 -100.5q-131 0 -242 37l31 111q99 -21 193 -21q190 0 291.5 120t119.5 333q-158 -41 -287 -41q-203 0 -312 108.5t-109 305zM266 934 q0 -293 287 -293q129 0 270 29q0 328 -69 452q-29 53 -84 89t-133 36q-131 0 -201 -86t-70 -227z" />
<glyph unicode=":" horiz-adv-x="425" d="M123 66q0 96 94 96q86 0 86 -93.5t-90 -93t-90 90.5zM123 645q0 96 94 96q86 0 86 -93t-90 -93t-90 90z" />
<glyph unicode=";" horiz-adv-x="425" d="M119 -190l39 190q8 41 8 72.5t-12 66.5l118 15q45 -16 45 -64.5t-26 -112.5l-84 -198zM123 645q0 96 94 96q86 0 86 -93t-90 -93t-90 90z" />
<glyph unicode="&#x3c;" horiz-adv-x="886" d="M104 653l607 351l71 -109l-553 -305l553 -305l-71 -109l-600 350z" />
<glyph unicode="=" horiz-adv-x="880" d="M104 373v137l672 -8l-12 -121zM104 627v137l672 -8l-12 -121z" />
<glyph unicode="&#x3e;" horiz-adv-x="886" d="M104 285l553 305l-553 305l72 109l606 -351l-6 -127l-600 -350z" />
<glyph unicode="?" horiz-adv-x="737" d="M133 1460q80 41 162 41q176 0 273.5 -122t97.5 -314.5t-83 -311t-251 -118.5l-35 2l12 -221l-98 -25q-35 6 -45 42t-12 126l-2 197q59 -15 147 -15q209 0 209 316.5t-242 316.5q-55 0 -114 -12zM156 70q0 100 98 100q90 0 90 -97.5t-94 -97.5t-94 95q0 100 98 100 q90 0 90 -97.5t-94 -97t-94 94.5z" />
<glyph unicode="@" horiz-adv-x="1910" d="M143 490.5q0 353.5 237.5 602t587 248.5t574.5 -199.5t225 -557.5q0 -254 -95 -420t-279 -166q-111 0 -156 74q-35 55 -35 103t4 75h-12q-33 -119 -108.5 -189.5t-188.5 -70.5q-174 0 -253 118.5t-79 340t113 373t330 151.5q78 0 153.5 -15.5t151.5 -46.5v-505 q0 -162 22.5 -233t87.5 -71q201 0 201 482q0 315 -183.5 482t-474 167t-485 -216t-194.5 -526.5t200.5 -526.5t487.5 -216q123 0 239 41l25 -90q-127 -57 -264 -57q-346 0 -589 247.5t-243 601zM715 424q0 -324 196 -324q82 0 139.5 56.5t84.5 154.5q47 172 47 381v146 q-59 29 -174 28q-293 0 -293 -442z" />
<glyph unicode="A" horiz-adv-x="1165" d="M45 0l459 1413l153 19l461 -1432h-157l-125 399h-510l-123 -399h-158zM367 532h428l-185 617q-12 45 -17 81t-3 36h-12q-2 -55 -21 -117z" />
<glyph unicode="B" horiz-adv-x="1222" d="M225 23l6 1374q144 25 336 25h8q197 0 314 -87.5t117 -249.5q0 -113 -58.5 -189.5t-167.5 -104.5v-13q135 -16 217 -118.5t82 -241.5q0 -207 -146.5 -325t-373.5 -118t-334 48zM385 119q58 -10 158 -10q172 0 272 73.5t100 230t-86 217t-264 60.5l-180 -8v-563zM385 809 l147 6q141 6 227.5 66.5t86.5 183.5t-72 173t-209 50l-180 -8v-471z" />
<glyph unicode="C" horiz-adv-x="1073" d="M143 699q-1 313 151 517q152 206 423 205q131 0 252 -41l-31 -114q-104 20 -203 20q-428 0 -428 -594q0 -424 185 -536q76 -45 186 -45q178 0 321 118l33 -104q-135 -150 -385 -150q-291 0 -401 213q-103 196 -103 511z" />
<glyph unicode="D" horiz-adv-x="1282" d="M225 23l6 1374q168 24 383 24q528 0 529 -706q0 -313 -139 -520q-68 -102 -181.5 -161t-259.5 -59q-231 0 -338 48zM385 119q58 -10 158 -10q227 0 331.5 171t104.5 441q0 567 -414 567l-180 -8v-1161z" />
<glyph unicode="E" horiz-adv-x="1026" d="M225 0l6 1413h709l-6 -133h-551q4 -59 4 -182l-2 -269h492v-133h-492v-381q0 -109 -12 -182h567l-6 -133h-709z" />
<glyph unicode="F" horiz-adv-x="966" d="M225 0v1413h682v-133h-530q6 -111 6 -182l-4 -269h471v-133h-471v-696h-154z" />
<glyph unicode="G" horiz-adv-x="1212" d="M143 694q0 319 155 522q155 205 439 205q139 0 264 -41l-30 -114q-113 20 -215 20q-449 0 -449 -594q0 -426 193 -536q78 -45 185.5 -45t193.5 30v459h-174v135h327v-661q-135 -98 -368 -99q-295 0 -414 209q-107 189 -107 510z" />
<glyph unicode="H" horiz-adv-x="1384" d="M225 0l6 1413h154v-584h616v584h152l6 -1413h-158v696h-616v-696h-160z" />
<glyph unicode="I" horiz-adv-x="610" d="M225 0l6 1413h154v-1413h-160z" />
<glyph unicode="J" horiz-adv-x="628" d="M4 -215q92 0 156 47q41 29 69 127q21 62 21 285v1169l153 25v-1221q0 -139 -13 -229t-50 -170q-74 -154 -315 -154z" />
<glyph unicode="K" horiz-adv-x="1153" d="M225 0v1413h154v-631l201 6l352 650l155 -25l-387 -684l232 -455q53 -100 95 -141t101 -41l5 -98q-12 -10 -60 -10q-94 0 -150.5 52t-113.5 167l-231 452l-199 -6v-649h-154z" />
<glyph unicode="L" horiz-adv-x="1009" d="M225 0l6 1413l154 25v-1123q0 -109 -12 -182h534l-6 -133h-676z" />
<glyph unicode="M" horiz-adv-x="1695" d="M190 0l123 1413h224l286 -926q16 -53 21 -116h12q2 55 21 116l288 926h221l115 -1413h-153q-88 1147 -88 1187t8 73h-13l-327 -1053l-154 -19l-330 1072h-12q8 -8 8 -58.5t-2 -89.5l-94 -1112h-154z" />
<glyph unicode="N" horiz-adv-x="1392" d="M225 0l6 1413h207l539 -1145l45 -104l10 2q-18 43 -18 166v1081h153l-6 -1413h-207l-538 1145l-45 104l-11 -2q18 -43 19 -166v-1081h-154z" />
<glyph unicode="O" horiz-adv-x="1406" d="M143 694q0 440 252 639q133 104 326 105q293 0 418 -180.5t125 -512.5q0 -399 -197 -614q-141 -156 -395 -156q-135 0 -244 51.5t-170 149.5q-115 186 -115 518zM307 694q0 -590 383 -590q115 0 198 54.5t128 148.5q88 180 88 441q0 313 -117 448q-90 106 -266 107 q-111 0 -194 -51.5t-130 -139.5q-90 -174 -90 -418z" />
<glyph unicode="P" horiz-adv-x="1071" d="M225 0l6 1397q127 24 383 24q186 0 301 -95t115 -271q0 -401 -522 -408l-123 -2v-645h-160zM385 772l127 2q354 6 354 272q0 242 -280 242q-156 0 -201 -8v-508z" />
<glyph unicode="Q" horiz-adv-x="1443" d="M143 694q0 440 252 639q133 104 326 105q293 0 418 -180.5t125 -512.5q0 -242 -80 -433t-240 -277l10 -12q98 -137 220 -138h25.5t62.5 21l38 -105q-90 -57 -176 -57q-166 0 -274 162l-53 80q-56 -11 -107 -11q-307 0 -432 201q-115 186 -115 518zM307 694 q0 -590 383 -590q115 0 198 54.5t128 148.5q88 180 88 441q0 313 -117 448q-90 106 -266 107q-111 0 -194 -51.5t-130 -139.5q-90 -174 -90 -418z" />
<glyph unicode="R" horiz-adv-x="1169" d="M225 0l6 1397q178 25 368 25h8q194 0 308.5 -96.5t114.5 -270.5q0 -297 -301 -379l205 -404q49 -100 91 -140t101 -40l7 -98q-8 -8 -81 -8t-130.5 52t-112.5 163l-229 450q-31 -6 -72 -6h-127v-645h-156zM381 774h131q354 0 354 273q0 239 -280 239h-2q-115 0 -203 -12 v-500z" />
<glyph unicode="S" horiz-adv-x="983" d="M76 111l33 108q161 -111 311 -111h1q150 0 235 70t85 193q0 100 -61 157q-66 63 -205 127q-41 20 -57 29q-139 66 -216 152t-77 243.5t117.5 258t283.5 100.5t303 -60l-30 -112q-123 41 -240 41t-196.5 -60.5t-79.5 -159t55 -157.5q63 -66 225 -139q147 -70 201 -117 q74 -68 92 -109q39 -98 39 -186q0 -186 -128 -295t-327.5 -109t-363.5 136z" />
<glyph unicode="T" horiz-adv-x="921" d="M20 1280l7 133h880l-16 -133h-350v-1280h-164l6 1280h-363z" />
<glyph unicode="U" horiz-adv-x="1331" d="M203 461l6 952l147 25l-6 -973v-8q0 -158 79 -252q81 -96 235.5 -96t232.5 82.5t78 240.5v981h149l4 -973v-7q0 -218 -118 -337q-120 -121 -346 -121t-344 126q-117 124 -117 352v8z" />
<glyph unicode="V" horiz-adv-x="1116" d="M29 1413h164l321 -1132q14 -48 14 -101v-16h13v37.5t14 79.5l344 1132h164l-457 -1413l-143 -18z" />
<glyph unicode="W" horiz-adv-x="1726" d="M82 1413h164l280 -1132l19 -117h12q0 76 18 137l248 780l-80 332h156l266 -1132l19 -117h12v56t14 102l295 1091h164l-405 -1413l-170 -18l-207 866h-13q3 -8 3 -30q0 -24 -27 -111l-221 -707l-168 -18z" />
<glyph unicode="X" horiz-adv-x="1161" d="M61 0l416 748l-354 665l164 19l303 -592l311 573h174l-389 -665l410 -748h-174l-340 645l-346 -645h-175z" />
<glyph unicode="Y" horiz-adv-x="1001" d="M25 1413l153 19l322 -658l313 639h164l-408 -778v-635h-153v635z" />
<glyph unicode="Z" horiz-adv-x="1019" d="M41 0v55l674 1221v16q-61 -6 -633 -20l-8 141h860v-55l-674 -1221v-16q63 6 647 20v-141h-866z" />
<glyph unicode="[" horiz-adv-x="497" d="M123 -342v1843h366l-6 -127h-219q12 -59 12 -182v-1225q0 -109 -12 -182h219l6 -127h-366z" />
<glyph unicode="\" horiz-adv-x="759" d="M0 1505q28 25 98 31l660 -1657q-29 -25 -99 -31z" />
<glyph unicode="]" horiz-adv-x="497" d="M8 -342l6 127h219q-12 59 -12 182v1225q0 109 12 182h-219l-6 127h367v-1843h-367z" />
<glyph unicode="^" horiz-adv-x="1011" d="M61 877l385 624l127 -6l377 -621l-108 -71l-336 573l-336 -573z" />
<glyph unicode="_" horiz-adv-x="1087" d="M104 -25v138l879 -9l-12 -120z" />
<glyph unicode="`" horiz-adv-x="540" d="M168 1327l61 72q11 6 25 6q43 0 119 -109l121 -170l-62 -41z" />
<glyph unicode="a" horiz-adv-x="1087" d="M113 447.5q0 226.5 115.5 383t340.5 156.5q80 0 159 -16.5t157 -46.5v-521q0 -209 37 -264q35 -55 116 -55l4 -92q-33 -8 -81 -8q-109 0 -156 75q-35 55 -35 131q0 25 4 54h-12q-35 -123 -111.5 -196t-195.5 -73q-178 0 -260 123t-82 349.5zM266 422q0 -334 203 -334 q86 0 144.5 58.5t86.5 158.5q48 174 48 393v150q-59 31 -179 31q-303 0 -303 -457z" />
<glyph unicode="b" horiz-adv-x="1075" d="M184 39v1464l142 23v-584q0 -109 -17 -182h13q45 117 118.5 172t194.5 55q178 0 249.5 -115.5t71.5 -347t-113.5 -390.5t-342.5 -159q-80 0 -159 16.5t-157 47.5zM322 115q59 -31 178 -31q303 0 303 479q0 307 -193 307q-109 0 -177 -92t-89.5 -205.5t-21.5 -246.5v-211z " />
<glyph unicode="c" horiz-adv-x="843" d="M111 446q0 233 113.5 387t324.5 154q121 0 215 -41l-23 -106q-81 28 -170 28h-6q-301 0 -301 -426q0 -346 254 -346q129 0 242 72l22 -80q-51 -51 -131.5 -82t-156.5 -31q-383 0 -383 471z" />
<glyph unicode="d" horiz-adv-x="1087" d="M113 447.5q0 226.5 115.5 383t340.5 156.5q88 0 179 -37v551l137 25v-1123q0 -182 26.5 -250.5t118.5 -68.5l4 -92q-27 -8 -82 -8q-102 0 -142 61t-40 141q0 20 2 45h-12q-82 -256 -305 -256q-178 0 -260 123t-82 349.5zM266 422q0 -334 203 -334q80 0 138.5 52.5 t86.5 138.5q54 161 54 358v211q-59 31 -179 31q-303 0 -303 -457z" />
<glyph unicode="e" horiz-adv-x="886" d="M115 467q0 225 113.5 372.5t320.5 147.5q127 0 201.5 -60.5t74.5 -166t-50 -172t-136 -101.5q-160 -65 -369 -65h-6q0 -326 260 -326q131 0 248 72l23 -80q-51 -51 -134 -82t-161 -31q-385 0 -385 492zM268 526q408 1 408 226q0 59 -37 89.5t-98 30.5q-123 0 -192.5 -101 t-80.5 -245z" />
<glyph unicode="f" horiz-adv-x="638" d="M82 854v88l164 21v139q0 424 311 424q68 0 121 -27l-21 -90q-29 8 -86 8t-95 -25.5t-54 -74.5q-29 -78 -29 -219v-135h264v-109h-264l-2 -1044q0 -86 -10 -124t-47 -44l-115 24q31 37 31 172l-4 1016h-164z" />
<glyph unicode="g" horiz-adv-x="1087" d="M115 450.5q0 223.5 115.5 380t340.5 156.5q84 0 167 -17.5t163 -51.5l2 -857q0 -260 -95 -406.5t-321 -146.5q-82 0 -168 30t-137 83l23 80q119 -78 277.5 -78t219 111.5t60.5 326.5q0 96 14 183h-12q-78 -268 -307 -269q-174 0 -258 126t-84 349.5zM268 422 q0 -141 47 -237.5t156 -96.5q293 0 293 754q-66 37 -193 37q-303 0 -303 -457z" />
<glyph unicode="h" horiz-adv-x="1116" d="M184 0v1501l146 25v-584q0 -109 -17 -182h13q84 227 313 227q162 0 223.5 -81t61.5 -242q0 -6 -3 -209t-3 -258.5t13 -82t87 -26.5l4 -92q-29 -12 -84 -12q-98 0 -134 45t-36 143q0 4 4 221t4 225q0 119 -30.5 185.5t-135 66.5t-173 -92t-90 -205.5t-21.5 -246.5v-326 h-142z" />
<glyph unicode="i" horiz-adv-x="540" d="M174 1284q0 96 94 96q86 0 86 -93t-90 -93t-90 90zM188 176v787h148v-703q0 -109 16.5 -140.5t93.5 -31.5l5 -90q-48 -14 -95 -14q-94 0 -131 45t-37 147z" />
<glyph unicode="j" horiz-adv-x="516" d="M-100 -465l20 90q29 -8 75 -8t75.5 9t48 21.5t32 39t19.5 47t10 61.5t4 66v1102h148v-1026q0 -219 -63.5 -324t-248.5 -105q-68 0 -120 27zM166 1284q0 96 94 96q86 0 86 -93t-90 -93t-90 90z" />
<glyph unicode="k" horiz-adv-x="989" d="M184 0v1501l140 25l2 -563q0 -109 -17 -203h13q35 104 118.5 165.5t196.5 61.5t185.5 -61.5t72.5 -173t-88 -186t-219 -103.5l119 -207q55 -94 100 -132t106 -38l5 -92q-12 -10 -62 -10q-98 0 -157.5 50t-114.5 156l-160 306v36q129 0 223 57.5t94 164.5q0 57 -37.5 87.5 t-97.5 30.5q-96 0 -164 -71q-119 -129 -118 -379v-422h-140z" />
<glyph unicode="l" horiz-adv-x="540" d="M188 176v1325l148 25v-1266q0 -109 16.5 -140.5t93.5 -31.5l5 -90q-33 -14 -111 -14t-115 45t-37 147z" />
<glyph unicode="m" horiz-adv-x="1615" d="M184 0v963l146 18v-59q0 -109 -17 -183h13q31 117 102.5 182.5t177.5 65.5q252 0 252 -248h12q63 248 283 248q164 0 217 -76.5t53 -242.5q0 -8 -3 -206t-3 -259.5t13.5 -88t87.5 -26.5l4 -92q-29 -12 -84 -12q-98 0 -134 45t-36 143q0 4 4 226.5t4 240.5 q0 115 -24.5 173t-116.5 58q-258 0 -258 -569v-301h-142v602q0 182 -30 221q-41 47 -117 47q-262 0 -262 -585v-285h-142z" />
<glyph unicode="n" horiz-adv-x="1116" d="M184 0v963l146 18v-59q0 -109 -17 -183h13q29 115 111.5 181.5t201.5 66.5q162 0 223.5 -81t61.5 -242q0 -6 -3 -209t-3 -258.5t13 -82t87 -26.5l4 -92q-29 -12 -84 -12q-98 0 -134 45t-36 143q0 4 4 221t4 225q0 119 -30.5 185.5t-122 66.5t-151.5 -57t-91 -149 q-55 -178 -55 -379v-285h-142z" />
<glyph unicode="o" horiz-adv-x="1064" d="M115 462.5q0 239.5 104.5 382t315 142.5t313 -128t102.5 -353t-113.5 -378t-327.5 -153t-304 124t-90 363.5zM262 467q0 -383 254 -383q102 0 168 63.5t89.5 153.5t23.5 207q0 366 -259 366h-1q-96 0 -160 -61q-115 -109 -115 -346z" />
<glyph unicode="p" horiz-adv-x="1079" d="M166 967l125 14q41 -16 41 -95t-15 -155h13q70 256 309 256q178 0 250 -115.5t72 -347t-114 -390.5t-343 -159q-88 0 -178 37v-479h-138v1129q0 207 -22 305zM326 115q59 -31 178 -31q303 0 303 479q0 307 -193 307q-80 0 -139 -52t-90 -138q-59 -164 -59 -354v-211z" />
<glyph unicode="q" horiz-adv-x="1069" d="M113 447.5q0 226.5 115.5 383t340.5 156.5q80 0 159 -16.5t157 -46.5v-1391h-142v487q0 109 17 183h-12q-82 -227 -293 -228q-178 0 -260 123t-82 349.5zM266 422q0 -334 203 -334q84 0 142.5 56.5t84.5 152.5q52 174 52 381v170q-59 31 -179 31q-303 0 -303 -457z" />
<glyph unicode="r" horiz-adv-x="745" d="M166 967l125 14q41 -16 41 -105.5t-15 -164.5h13q45 145 104.5 210.5t186.5 65.5l63 -8l-18 -141q-27 6 -66 6q-80 0 -136 -52.5t-83 -140.5q-51 -158 -51 -354v-297h-142v662q0 207 -22 305z" />
<glyph unicode="s" horiz-adv-x="776" d="M82 78l22 82q117 -72 256 -72q90 0 151.5 42t61.5 120q0 82 -77 129q-39 23 -94.5 46.5t-67.5 29.5q-102 45 -158.5 106.5t-56.5 175t92 182t217 68.5t225 -49l-22 -92q-100 29 -178 29q-1 -1 -3 -1q-79 0 -136.5 -35.5t-57.5 -99t39 -99.5t81 -54.5t90 -38t62.5 -27.5 t53.5 -29.5t54 -40t36 -49.5q39 -51 39 -145q0 -135 -100.5 -208t-255 -73t-273.5 103z" />
<glyph unicode="t" horiz-adv-x="733" d="M78 854v88l164 21v213l147 24v-237h264v-109h-264v-492q0 -190 33 -231q41 -47 110.5 -47t120.5 18l21 -90q-76 -37 -182 -37q-152 0 -201 82t-49 260v537h-164z" />
<glyph unicode="u" horiz-adv-x="1091" d="M160 967l116 20q35 -8 44.5 -41t9.5 -67q0 -25 -8.5 -282t-8.5 -285.5t3 -64.5t20 -75q29 -80 139 -80q82 0 140.5 58.5t84.5 154.5q51 174 52 381v277h137v-560q0 -182 26.5 -250.5t118.5 -68.5l4 -92q-33 -8 -82 -8q-102 0 -142 60t-40 140q0 23 2 47h-12 q-33 -125 -120 -190.5t-227.5 -65.5t-195.5 86t-55 236q0 18 9 264t9 260q0 98 -24 146z" />
<glyph unicode="v" horiz-adv-x="913" d="M61 963l107 20q31 0 50.5 -30.5t47.5 -123.5l197 -651h12q-6 16 -6 44t18 71q145 338 165 405.5t20 145.5t-19 129l125 14q43 -25 43 -116t-28.5 -184t-116.5 -292l-174 -395h-129l-201 672q-61 205 -111 291z" />
<glyph unicode="w" horiz-adv-x="1376" d="M61 963l107 20q33 0 52.5 -28.5t45.5 -118.5l187 -658h12q-2 10 -2 35t24 80l70 162q86 201 86 397q0 63 -18 115l114 14q43 -35 43 -116t-8 -148l154 -539h12q-2 10 -2 35t25 80l69 162q107 247 107 397q0 70 -19 121l115 14q43 -31 43 -112.5t-4 -124.5 q-16 -133 -123 -355l-184 -395h-129l-111 395q-14 50 -14 100q0 20 2 40h-13q-10 -49 -47 -140l-163 -395h-130l-190 678q-57 209 -98 264z" />
<glyph unicode="x" horiz-adv-x="915" d="M53 0l324 500l-150 280q-31 59 -62.5 96t-64.5 54l78 57q80 0 121 -61q23 -35 172 -316l203 353h164l-293 -463l123 -224q51 -94 92 -140t96 -46l6 -92q-12 -14 -77.5 -14t-117 47t-110.5 159l-106 203l-234 -393h-164z" />
<glyph unicode="y" horiz-adv-x="1081" d="M162 967l117 20q35 -8 44 -41t9 -67q0 -25 -8.5 -279t-8.5 -268q0 -109 31 -174.5t117 -65.5t141 57.5t88 149.5q66 188 66 408v256h137l2 -902q0 -260 -95 -406.5t-321 -146.5q-82 0 -168 30t-137 83l23 80q119 -78 277.5 -78t219 111.5t60.5 326.5q0 119 14 183h-12 q-76 -268 -326 -269q-158 0 -211 80t-53 232q0 16 9 268t9 266q0 98 -24 146z" />
<glyph unicode="z" horiz-adv-x="823" d="M61 0v37l506 807v12q-41 -6 -179 -6t-273 -23l-19 125q35 20 109 21l561 -10v-37l-496 -813h170q215 0 301 22l19 -125q-26 -22 -128 -22h-9q-53 0 -562 12z" />
<glyph unicode="{" horiz-adv-x="628" d="M123 567l12 58q117 43 117 204q0 8 -6 177.5t-6 210t6 92t33 106.5q49 111 217 111q70 0 125 -25l-19 -84q-27 6 -72 6t-75 -18q-57 -39 -58 -186q0 -23 6.5 -190t6.5 -181q0 -100 -26 -158.5t-103 -99.5q78 -41 103.5 -99.5t25.5 -158.5q0 -16 -7.5 -194.5t-7.5 -202 t3 -56.5t16 -67q23 -76 121 -76l67 6l19 -86q-51 -23 -130 -23t-135 27q-117 61 -116 293q0 16 6 206.5t6 200.5q0 76 -26.5 129.5t-102.5 77.5z" />
<glyph unicode="|" horiz-adv-x="360" d="M129 -346v1847h102v-1847h-102z" />
<glyph unicode="}" horiz-adv-x="628" d="M8 -344l19 86q27 -6 71.5 -6t75.5 20q59 39 59 181q-14 379 -14 436q0 150 129 217q-78 41 -103.5 99.5t-25.5 158.5q0 18 6 184t6 190.5t-2 54.5t-14 69q-25 78 -121 77l-67 -6l-19 84q55 25 132 25t130 -27q119 -61 119 -293q0 -20 -6 -194t-6 -183q0 -162 117 -204 l12 -58q-76 -25 -102.5 -78t-26.5 -129q0 -6 6 -191t6 -226t-6 -92.5t-31 -106.5q-53 -111 -219 -111q-74 0 -125 23z" />
<glyph unicode="~" horiz-adv-x="1208" d="M164 483q37 66 99.5 100.5t131.5 34.5q78 0 196 -34.5t152.5 -39.5t77.5 -5q111 0 162 47l61 -33q-92 -137 -247 -137q-57 0 -216 41t-192 41q-94 0 -164 -47z" />
<glyph unicode="&#xa1;" horiz-adv-x="485" d="M164 -467l57 1055h109l-2 -912q0 -92 -10 -131t-37 -39q-4 0 -117 27zM184 893q0 94 94.5 94t94.5 -97t-90 -97q-98 0 -99 100q0 94 94.5 94t94.5 -97t-90 -97q-98 0 -99 100z" />
<glyph unicode="&#xa2;" horiz-adv-x="843" d="M111 590q0 213 96 362.5t276 173.5l13 248q51 0 82 -10l-13 -234q111 -4 199 -40l-23 -107q-84 29 -180 29l-35 -772q129 4 234 71l22 -80q-94 -98 -262 -112l-10 -240h-82l10 242q-327 31 -327 469zM264 586q0 -295 180 -338l35 753q-215 -57 -215 -415z" />
<glyph unicode="&#xa3;" horiz-adv-x="1167" d="M227 639v127h140q-16 141 -17 178q0 201 104.5 315.5t299.5 114.5q121 0 215 -41l-23 -106q-84 29 -176 28q-141 0 -204.5 -74.5t-63.5 -224.5q0 -39 18 -190h385l-18 -127h-352q35 -264 34.5 -315.5t-28 -115t-80.5 -83.5l551 6l8 -131h-764v55q158 90 158 297 q0 33 -31 287h-156z" />
<glyph unicode="&#xa4;" horiz-adv-x="946" d="M123 334l92 92q-47 72 -47 167t51 171l-90 94l86 86l92 -92q78 47 168 47t162 -47l94 92l86 -84l-92 -92q55 -78 55 -172t-49 -170l92 -90l-96 -96l-92 92q-74 -45 -163 -45t-163 45l-90 -92zM266 592q0 -84 61.5 -145.5t145.5 -61.5t146.5 61.5t62.5 145.5t-62.5 147.5 t-145.5 63.5t-145.5 -63.5t-62.5 -147.5z" />
<glyph unicode="&#xa5;" horiz-adv-x="1167" d="M117 1350l153 18l322 -637l313 619h164l-393 -729l340 14v-30.5t-15 -55.5l-339 -12v-117l344 14v-30.5t-15 -55.5l-329 -12v-336h-154v330l-354 -13l4 82l350 15v116l-344 -12l4 82l328 12z" />
<glyph unicode="&#xa6;" horiz-adv-x="360" d="M129 -346l6 801h92l4 -801h-102zM129 1501h102l-4 -801h-90z" />
<glyph unicode="&#xa7;" horiz-adv-x="1705" d="M506 649q0 72 42 138.5t107 101.5q-102 98 -102 241.5t104.5 225.5t257 82t281.5 -62l-29 -102q-129 43 -232.5 43t-171 -46t-67.5 -124t46 -129t116 -83t152 -74t151.5 -84t115.5 -115.5t46 -158.5t-44 -152.5t-112 -102.5q88 -94 88 -225q0 -170 -111.5 -259.5 t-293.5 -89.5q-86 0 -178 30t-152 81l31 98q147 -82 280.5 -82t207 55.5t73.5 159.5t-121 177q-53 33 -117.5 61.5t-129 63t-117.5 75.5q-121 92 -121 256zM653 666q0 -95 69 -150t194.5 -110.5t181.5 -96.5q78 68 78 174q0 63 -46.5 114.5t-104.5 80.5t-149.5 72.5 t-144.5 78.5q-78 -68 -78 -163z" />
<glyph unicode="&#xa8;" horiz-adv-x="1091" d="M297 1231q0 90 88 90q37 0 58.5 -23.5t21.5 -63.5t-22.5 -63.5t-61.5 -23.5t-61.5 22.5t-22.5 61.5zM625 1231q0 90 88 90q37 0 58.5 -23.5t21.5 -63.5t-22.5 -63.5t-61.5 -23.5t-61.5 22.5t-22.5 61.5z" />
<glyph unicode="&#xa9;" horiz-adv-x="1658" d="M98 697q0 304 213 518.5t516 214.5t518.5 -215.5t215.5 -518.5t-214 -516t-518.5 -213t-517.5 213t-213 517zM184 697.5q0 -267.5 188.5 -458t455 -190.5t457 190.5t190.5 458t-190.5 459t-457 191.5t-455 -191.5t-188.5 -459zM485 693q0 214 102.5 346t293.5 132 q96 0 174 -30l-29 -107q-72 16 -131 17q-145 0 -204.5 -91.5t-59.5 -259.5t47 -258t173 -90t220 70l29 -82q-100 -106 -279.5 -106.5t-257.5 122.5t-78 337z" />
<glyph unicode="&#xaa;" horiz-adv-x="839" d="M127 1055q0 166 82 268t235 102q115 0 215 -45v-323q0 -74 3.5 -108t27 -64.5t72.5 -30.5l4 -84q-23 -8 -53 -8q-78 0 -109 39t-31 75.5t5 57.5h-11q-20 -82 -76.5 -129t-136.5 -47q-227 0 -227 297zM252 1053q0 -203 123 -203q176 0 176 375v90q-45 18 -109 18 q-190 0 -190 -280z" />
<glyph unicode="&#xab;" horiz-adv-x="1056" d="M123 455q0 37 22 63l396 348q14 0 37.5 -41t23.5 -57l-313 -305l313 -305q0 -16 -23.5 -57.5t-37.5 -41.5l-396 351q-23 20 -22 45zM455 455q0 37 22 63l395 348q14 0 38 -41t24 -57l-313 -305l313 -305q0 -16 -23.5 -57.5t-38.5 -41.5l-395 351q-23 20 -22 45z" />
<glyph unicode="&#xac;" horiz-adv-x="1087" d="M104 446v123l879 -2v-334l-102 7v219q-59 -12 -183 -13h-594z" />
<glyph unicode="&#xad;" horiz-adv-x="645" d="M104 475v137l469 -8l-12 -121z" />
<glyph unicode="&#xae;" horiz-adv-x="1146" d="M98 1025q0 198 138.5 337t336 139t337 -139t139.5 -337t-139.5 -336t-337 -138t-336 138t-138.5 336zM176 1025q0 -165 116 -281.5t280.5 -116.5t281.5 116.5t117 281.5t-117 282.5t-281.5 117.5t-280.5 -117.5t-116 -282.5zM393 752l2 557q92 10 174 10q186 0 187 -145 q0 -125 -121 -166l72 -136q33 -63 88 -63l2 -57q-18 -6 -47 -7q-76 0 -125 99l-76 153h-60v-245h-96zM489 1071h33q66 0 100.5 21.5t34.5 76.5q0 76 -98 76q-45 0 -70 -4v-170z" />
<glyph unicode="&#xb0;" horiz-adv-x="718" d="M115 1192q0 102 70.5 174t173 72t174 -72t71.5 -174t-71.5 -173t-173 -71t-173 71t-71.5 173zM207 1192.5q0 -62.5 45 -107.5t107.5 -45t107.5 45t45 107.5t-45 109t-107.5 46.5t-107.5 -46.5t-45 -109z" />
<glyph unicode="&#xb1;" horiz-adv-x="837" d="M104 37v137l629 -8l-12 -121zM104 567v138l629 -9l-12 -121zM350 307v658h137v-658h-137z" />
<glyph unicode="&#xb2;" horiz-adv-x="681" d="M74 770v49q352 305 352 494q0 113 -139 112q-74 0 -154 -26l-24 90q90 37 190 37q252 0 252 -209q0 -104 -90 -236.5t-197 -222.5h299l4 -88h-493z" />
<glyph unicode="&#xb3;" horiz-adv-x="706" d="M86 827l27 84q88 -61 190 -61q152 0 152 137q0 131 -164 131h-88v84q59 8 110.5 8t77.5 -6q49 49 49 129q0 92 -129 92q-80 0 -155 -26l-23 90q90 37 199.5 37t171 -42t61.5 -141.5t-86 -166.5q100 -49 101 -177q0 -242 -258 -241q-143 0 -236 69z" />
<glyph unicode="&#xb4;" horiz-adv-x="540" d="M168 1126l121 170q76 109 119 109l24 -6l62 -72l-265 -242z" />
<glyph unicode="&#xb5;" horiz-adv-x="1128" d="M188 -442l33 1235q0 121 -24 174l116 20q35 -10 44.5 -46t9.5 -73q0 -27 -8.5 -277.5t-8.5 -279t3 -64.5t20 -75q29 -80 139 -80q82 0 140.5 58.5t84.5 154.5q51 174 51 381v277h138v-560q0 -182 26.5 -250.5t118.5 -68.5l4 -92q-33 -8 -82 -8q-102 0 -142 60t-40 140 q0 23 2 47h-12q-70 -256 -320 -256q-117 0 -155 82l-11 -2q10 -41 11 -151v-371z" />
<glyph unicode="&#xb6;" horiz-adv-x="1290" d="M123 1044.5q0 180.5 108.5 278.5t286.5 98q143 0 270 -24l7 -1397h-129v666l-123 2q-197 4 -308.5 100t-111.5 276.5zM911 0v1397h154v-1397h-154z" />
<glyph unicode="&#xb7;" horiz-adv-x="425" d="M123 444q0 96 94 97q86 0 86 -93.5t-90 -93.5t-90 90z" />
<glyph unicode="&#xb8;" horiz-adv-x="843" d="M319 -379l19 62q31 -13 76 -13q88 0 88 86q0 80 -117 111l57 213l84 -23l-37 -135q137 -43 138 -164q0 -76 -55.5 -123t-133.5 -47q-74 0 -119 33z" />
<glyph unicode="&#xb9;" horiz-adv-x="634" d="M74 1362l209 164l123 -21v-647h131v-88h-396v88h138l4 522l-158 -86z" />
<glyph unicode="&#xba;" horiz-adv-x="813" d="M119 1079.5q0 159.5 72.5 252.5t216 93t215 -84t71.5 -234.5t-78.5 -249.5t-223 -99t-209 81t-64.5 240.5zM240 1081.5q0 -108.5 33.5 -170t123.5 -61.5q172 0 172 258q0 109 -34.5 167t-125 58t-130 -71.5t-39.5 -180z" />
<glyph unicode="&#xbb;" horiz-adv-x="1056" d="M123 158l313 305l-313 305q0 16 23.5 57t37.5 41l396 -348q23 -23 22 -47q0 -35 -22 -61l-396 -351q-14 0 -37.5 41t-23.5 58zM455 158l313 305l-313 305q0 16 23.5 57t37.5 41l395 -348q23 -23 23 -47q0 -35 -23 -61l-395 -351q-14 0 -37.5 41t-23.5 58z" />
<glyph unicode="&#xbc;" horiz-adv-x="1843" d="M264 1210l209 164l123 -20v-647h131v-89h-395v89h137l4 522l-158 -86zM440 -25l889 1442q45 -14 70 -43l-889 -1442q-45 14 -70 43zM1110 209v49l178 498l115 -23l-158 -436h199v238h121v-238h86l-11 -88h-75v-209h-121v209h-334z" />
<glyph unicode="&#xbd;" horiz-adv-x="1843" d="M264 1210l209 164l123 -20v-647h131v-89h-395v89h137l4 522l-158 -86zM440 -25l889 1442q45 -14 70 -43l-889 -1442q-45 14 -70 43zM1087 14v49q352 305 353 494q0 113 -140 113q-74 0 -153 -27l-25 90q90 37 191 37q252 0 252 -209q0 -104 -90.5 -236t-196.5 -223h299 l4 -88h-494z" />
<glyph unicode="&#xbe;" horiz-adv-x="1843" d="M229 676l27 84q88 -62 190 -62q152 0 152 138q0 131 -164 131h-88v84q59 8 110.5 8t78.5 -6q49 49 49 129q0 92 -129 92q-80 0 -156 -27l-23 90q90 37 200 37t171.5 -42t61.5 -141t-86 -167q100 -49 100 -176q0 -242 -258 -242q-143 0 -236 70zM440 -25l889 1442 q45 -14 70 -43l-889 -1442q-45 14 -70 43zM1110 209v49l178 498l115 -23l-158 -436h199v238h121v-238h86l-11 -88h-75v-209h-121v209h-334z" />
<glyph unicode="&#xbf;" horiz-adv-x="696" d="M72 -74q0 408 334 408l34 -2l-12 221l98 25q35 -6 45.5 -42t12.5 -126l2 -197q-59 14 -148 14q-121 0 -165 -76.5t-44 -225t54.5 -219.5t187.5 -71q55 0 115 13l18 -99q-80 -41 -162 -41q-186 0 -278 109t-92 309zM393 890q0 97 94.5 97t94.5 -94q0 -100 -99 -100 q-90 0 -90 97t94.5 97t94.5 -94q-1 -100 -99 -100q-90 0 -90 97z" />
<glyph unicode="&#xc0;" horiz-adv-x="1165" d="M45 0l459 1413l153 19l461 -1432h-157l-125 399h-510l-123 -399h-158zM367 532h428l-185 617q-12 45 -17 81t-3 36h-12q-2 -55 -21 -117zM369 1628l34 88q12 16 45 16.5t123 -69.5l168 -125l-45 -57z" />
<glyph unicode="&#xc1;" horiz-adv-x="1165" d="M45 0l459 1413l153 19l461 -1432h-157l-125 399h-510l-123 -399h-158zM367 532h428l-185 617q-12 45 -17 81t-3 36h-12q-2 -55 -21 -117zM430 1536l168 125q90 70 121 69.5t47 -16.5l35 -88l-326 -147z" />
<glyph unicode="&#xc2;" horiz-adv-x="1165" d="M45 0l459 1413l153 19l461 -1432h-157l-125 399h-510l-123 -399h-158zM346 1540l141 166l146 18q31 -14 63 -53l113 -131l-45 -57l-186 139l-187 -139zM367 532h428l-185 617q-12 45 -17 81t-3 36h-12q-2 -55 -21 -117z" />
<glyph unicode="&#xc3;" horiz-adv-x="1165" d="M45 0l459 1413l153 19l461 -1432h-157l-125 399h-510l-123 -399h-158zM274 1577q19 76 63 117t99 41q57 0 146 -35q117 -47 141 -47q57 0 104 67l62 -32q-18 -78 -62.5 -118t-95.5 -40t-159.5 41t-127.5 41q-59 0 -108 -68zM367 532h428l-185 617q-12 45 -17 81t-3 36 h-12q-2 -55 -21 -117z" />
<glyph unicode="&#xc4;" horiz-adv-x="1165" d="M45 0l459 1413l153 19l461 -1432h-157l-125 399h-510l-123 -399h-158zM344 1610q0 90 88 90q37 0 58.5 -23.5t21.5 -63.5t-22.5 -63.5t-61.5 -23.5t-61.5 22.5t-22.5 61.5zM367 532h428l-185 617q-12 45 -17 81t-3 36h-12q-2 -55 -21 -117zM672 1610q0 90 88 90 q37 0 58.5 -23.5t21.5 -63.5t-22.5 -63.5t-61.5 -23.5t-61.5 22.5t-22.5 61.5z" />
<glyph unicode="&#xc5;" horiz-adv-x="1165" d="M45 0l459 1413l153 19l461 -1432h-157l-125 399h-510l-123 -399h-158zM367 532h428l-185 617q-12 45 -17 81t-3 36h-12q-2 -55 -21 -117zM393 1686.5q0 87.5 52.5 136.5t144.5 49t142 -50t50 -135t-51 -135.5t-142 -50.5t-143.5 49t-52.5 136.5zM498 1683q0 -90 90 -90 t90 93.5t-86 93.5q-94 -1 -94 -97z" />
<glyph unicode="&#xc6;" horiz-adv-x="1478" d="M-16 0l571 1413l772 19v-136l-534 -12q14 -84 34 -461l471 15l9 -136l-471 -14q32 -440 32 -486t-4 -81l549 16v-137l-688 -18l-27 417h-397l-154 -399h-163zM352 532l336 3l-47 751h-12q-6 -57 -29 -117z" />
<glyph unicode="&#xc7;" horiz-adv-x="1067" d="M143 707.5q0 302.5 151.5 508t422.5 205.5q131 0 252 -41l-31 -114q-104 20 -203 20q-428 0 -428 -594q0 -424 185 -536q76 -45 186 -45q178 0 321 118l33 -104q-135 -150 -385 -150h-2l-14 -53q137 -43 137 -164q0 -76 -55.5 -123t-132.5 -47q-74 0 -119 33l18 62 q31 -13 76 -13q88 0 88 86q0 80 -117 111l31 115q-236 33 -330 239q-84 184 -84 486.5z" />
<glyph unicode="&#xc8;" horiz-adv-x="1040" d="M246 0l6 1413h709l-7 -133h-551q6 -59 7 -182l-4 -269h491v-133h-491v-381q0 -109 -13 -182h568l-7 -133h-708zM350 1628l35 88q12 16 45 16.5t123 -69.5l168 -125l-45 -57z" />
<glyph unicode="&#xc9;" horiz-adv-x="1040" d="M246 0l6 1413h709l-7 -133h-551q6 -59 7 -182l-4 -269h491v-133h-491v-381q0 -109 -13 -182h568l-7 -133h-708zM469 1538l168 125q90 70 121 69.5t47 -16.5l35 -88l-326 -147z" />
<glyph unicode="&#xca;" horiz-adv-x="1040" d="M246 0l6 1413h709l-7 -133h-551q6 -59 7 -182l-4 -269h491v-133h-491v-381q0 -109 -13 -182h568l-7 -133h-708zM371 1542l141 166l145 18q31 -14 64 -53l113 -131l-46 -57l-186 139l-186 -139z" />
<glyph unicode="&#xcb;" horiz-adv-x="1040" d="M246 0l6 1413h709l-7 -133h-551q6 -59 7 -182l-4 -269h491v-133h-491v-381q0 -109 -13 -182h568l-7 -133h-708zM344 1610q0 90 88 90q37 0 58.5 -23.5t21.5 -63.5t-22.5 -63.5t-61.5 -23.5t-61.5 22.5t-22.5 61.5zM672 1610q0 90 88 90q37 0 58.5 -23.5t21.5 -63.5 t-22.5 -63.5t-61.5 -23.5t-61.5 22.5t-22.5 61.5z" />
<glyph unicode="&#xcc;" horiz-adv-x="661" d="M115 1628l35 88q12 16 44.5 16.5t122.5 -69.5l168 -125l-45 -57zM250 0l6 1413h154v-1413h-160z" />
<glyph unicode="&#xcd;" horiz-adv-x="661" d="M178 1538l168 125q90 70 121 69.5t47 -16.5l35 -88l-326 -147zM250 0l6 1413h154v-1413h-160z" />
<glyph unicode="&#xce;" horiz-adv-x="661" d="M100 1540l142 166l145 18q31 -14 64 -53l112 -131l-45 -57l-186 139l-187 -139zM250 0l6 1413h154v-1413h-160z" />
<glyph unicode="&#xcf;" horiz-adv-x="661" d="M117 1610q0 90 88 90q37 0 58.5 -23.5t21.5 -63.5t-22.5 -63.5t-61.5 -23.5t-61.5 22.5t-22.5 61.5zM250 0l6 1413h154v-1413h-160zM383 1610q0 90 88 90q37 0 58.5 -23.5t21.5 -63.5t-22.5 -63.5t-61.5 -23.5t-61.5 22.5t-22.5 61.5z" />
<glyph unicode="&#xd0;" horiz-adv-x="1302" d="M92 662v126l158 -2l2 611q168 24 383 24q528 0 528 -706q0 -313 -139 -520q-68 -102 -181.5 -161t-258.5 -59q-231 0 -338 48l2 641zM406 119q57 -10 157 -10q227 0 331.5 171t104.5 441q0 567 -413 567l-180 -8v-496l299 -4l-13 -110l-286 -4v-547z" />
<glyph unicode="&#xd1;" horiz-adv-x="1433" d="M246 0l6 1413h207l538 -1145l45 -104l11 2q-19 43 -19 166v1081h154l-6 -1413h-207l-539 1145l-45 104l-10 -2q18 -43 18 -166v-1081h-153zM420 1559q18 75 62 116t100 41q57 0 143 -35q119 -47 143 -47q57 0 105 68l61 -33q-18 -78 -62 -118t-95.5 -40t-160 41 t-126.5 41q-59 0 -109 -67z" />
<glyph unicode="&#xd2;" horiz-adv-x="1419" d="M150 694q0 440 251 639q133 104 326 105q293 0 418 -180.5t125 -512.5q0 -399 -197 -614q-141 -156 -395 -156q-135 0 -243.5 51.5t-170.5 149.5q-115 186 -114 518zM313 694q0 -590 383 -590q115 0 198 54.5t130 148.5q86 180 86 441q0 313 -115 448q-92 106 -268 107 q-111 0 -193.5 -51.5t-127.5 -139.5q-92 -174 -93 -418zM481 1638l35 88q12 16 45 16.5t123 -69.5l168 -125l-45 -57z" />
<glyph unicode="&#xd3;" horiz-adv-x="1419" d="M150 694q0 440 251 639q133 104 326 105q293 0 418 -180.5t125 -512.5q0 -399 -197 -614q-141 -156 -395 -156q-135 0 -243.5 51.5t-170.5 149.5q-115 186 -114 518zM313 694q0 -590 383 -590q115 0 198 54.5t130 148.5q86 180 86 441q0 313 -115 448q-92 106 -268 107 q-111 0 -193.5 -51.5t-127.5 -139.5q-92 -174 -93 -418zM598 1548l168 125q90 70 121 69.5t47 -16.5l35 -88l-326 -147z" />
<glyph unicode="&#xd4;" horiz-adv-x="1419" d="M150 694q0 440 251 639q133 104 326 105q293 0 418 -180.5t125 -512.5q0 -399 -197 -614q-141 -156 -395 -156q-135 0 -243.5 51.5t-170.5 149.5q-115 186 -114 518zM313 694q0 -590 383 -590q115 0 198 54.5t130 148.5q86 180 86 441q0 313 -115 448q-92 106 -268 107 q-111 0 -193.5 -51.5t-127.5 -139.5q-92 -174 -93 -418zM477 1542l141 166l146 18q31 -14 63 -53l113 -131l-45 -57l-186 139l-187 -139z" />
<glyph unicode="&#xd5;" horiz-adv-x="1419" d="M150 694q0 440 251 639q133 104 326 105q293 0 418 -180.5t125 -512.5q0 -399 -197 -614q-141 -156 -395 -156q-135 0 -243.5 51.5t-170.5 149.5q-115 186 -114 518zM313 694q0 -590 383 -590q115 0 198 54.5t130 148.5q86 180 86 441q0 313 -115 448q-92 106 -268 107 q-111 0 -193.5 -51.5t-127.5 -139.5q-92 -174 -93 -418zM401 1583q19 76 63 117t99 41q57 0 146 -35q117 -47 141 -47q57 0 104 67l62 -32q-18 -78 -62.5 -118t-99.5 -40q-61 0 -195 55q-66 27 -88 27q-59 0 -108 -68z" />
<glyph unicode="&#xd6;" horiz-adv-x="1419" d="M150 694q0 440 251 639q133 104 326 105q293 0 418 -180.5t125 -512.5q0 -399 -197 -614q-141 -156 -395 -156q-135 0 -243.5 51.5t-170.5 149.5q-115 186 -114 518zM313 694q0 -590 383 -590q115 0 198 54.5t130 148.5q86 180 86 441q0 313 -115 448q-92 106 -268 107 q-111 0 -193.5 -51.5t-127.5 -139.5q-92 -174 -93 -418zM481 1612q0 90 88 90q37 0 58.5 -23.5t21.5 -63.5t-22.5 -63.5t-61.5 -23.5t-61.5 22.5t-22.5 61.5zM809 1612q0 90 88 90q37 0 58.5 -23.5t21.5 -63.5t-22.5 -63.5t-61.5 -23.5t-61.5 22.5t-22.5 61.5z" />
<glyph unicode="&#xd7;" horiz-adv-x="731" d="M72 403l495 486l86 -84l-485 -496zM78 803l86 86l495 -486l-96 -96z" />
<glyph unicode="&#xd8;" horiz-adv-x="1406" d="M143 694q0 440 252 639q133 104 326 105q119 0 207 -31l51 129q45 -4 76 -31l-54 -129q262 -141 263 -631q0 -399 -197 -614q-66 -72 -163 -114t-219 -42t-226 39l-66 -166q-45 4 -76 31l68 172q-242 151 -242 643zM307 694q0 -352 137 -495l430 1075q-68 29 -166 29 t-181 -51.5t-130 -139.5q-90 -174 -90 -418zM512 147q74 -43 183.5 -43t192.5 54.5t128 148.5q88 180 88 441q0 362 -158 485z" />
<glyph unicode="&#xd9;" horiz-adv-x="1335" d="M203 461l6 952l147 25l-6 -973q-2 -164 79 -260t235.5 -96t232.5 82.5t78 240.5v981h149l4 -973q2 -223 -118.5 -344t-346 -121t-344 126t-116.5 360zM424 1628l35 88q12 16 45 16.5t123 -69.5l168 -125l-45 -57z" />
<glyph unicode="&#xda;" horiz-adv-x="1335" d="M203 461l6 952l147 25l-6 -973q-2 -164 79 -260t235.5 -96t232.5 82.5t78 240.5v981h149l4 -973q2 -223 -118.5 -344t-346 -121t-344 126t-116.5 360zM561 1538l168 125q90 70 121 69.5t47 -16.5l35 -88l-326 -147z" />
<glyph unicode="&#xdb;" horiz-adv-x="1335" d="M203 461l6 952l147 25l-6 -973q-2 -164 79 -260t235.5 -96t232.5 82.5t78 240.5v981h149l4 -973q2 -223 -118.5 -344t-346 -121t-344 126t-116.5 360zM444 1542l142 166l145 18q31 -14 64 -53l112 -131l-45 -57l-186 139l-187 -139z" />
<glyph unicode="&#xdc;" horiz-adv-x="1335" d="M203 461l6 952l147 25l-6 -973q-2 -164 79 -260t235.5 -96t232.5 82.5t78 240.5v981h149l4 -973q2 -223 -118.5 -344t-346 -121t-344 126t-116.5 360zM420 1612q0 90 88 90q37 0 58.5 -23.5t21.5 -63.5t-22.5 -63.5t-61.5 -23.5t-61.5 22.5t-22.5 61.5zM748 1612 q0 90 88 90q37 0 58 -23.5t21 -63.5t-22.5 -63.5t-61 -23.5t-61 22.5t-22.5 61.5z" />
<glyph unicode="&#xdd;" horiz-adv-x="993" d="M20 1413l154 19l322 -658l313 639h164l-408 -778v-635h-153v635zM387 1538l168 125q90 70 121 69.5t47 -16.5l35 -88l-326 -147z" />
<glyph unicode="&#xde;" horiz-adv-x="1705" d="M246 0l6 1413h154v-192q119 8 229 8q186 0 301 -95.5t115 -271.5q0 -401 -523 -407l-122 -2v-453h-160zM406 580l126 2q354 6 355 270q0 244 -281 244q-156 0 -200 -9v-507z" />
<glyph unicode="&#xdf;" d="M82 854v88l164 21v170q0 186 91 289.5t257 103.5t268.5 -77t102.5 -214q0 -84 -55.5 -179t-111 -178t-55.5 -136.5t33 -96.5t79 -79t93 -74q113 -96 113 -230.5t-98.5 -210.5t-239.5 -76q-55 0 -118.5 18.5t-102.5 49.5l24 82q100 -37 191.5 -37t149 42t57.5 105.5 t-33 107.5t-79 81t-93 78q-113 98 -113 235q0 78 110.5 242t110.5 250t-60 134t-169 48t-157 -69.5t-48 -200.5l-2 -1331q0 -86 -10 -124t-47 -44l-115 24q31 37 31 172l-4 1016h-164z" />
<glyph unicode="&#xe0;" horiz-adv-x="1087" d="M113 446q0 227 115.5 384t340.5 157q178 0 316 -63v-521q0 -68 4 -144.5t33 -119.5q35 -55 116 -55l4 -92l-81 -8q-109 0 -156 75q-35 55 -35 131q0 25 4 54h-12q-35 -123 -112 -196t-195 -73q-342 0 -342 471zM266 422q0 -334 203 -334q86 0 144.5 58.5t86.5 158.5 q47 174 48 393v150q-70 31 -179 31q-303 0 -303 -457zM381 1327l61 72q11 6 25 6q43 0 119 -109l121 -170l-62 -41z" />
<glyph unicode="&#xe1;" horiz-adv-x="1087" d="M113 446q0 227 115.5 384t340.5 157q178 0 316 -63v-521q0 -68 4 -144.5t33 -119.5q35 -55 116 -55l4 -92l-81 -8q-109 0 -156 75q-35 55 -35 131q0 25 4 54h-12q-35 -123 -112 -196t-195 -73q-342 0 -342 471zM266 422q0 -334 203 -334q86 0 144.5 58.5t86.5 158.5 q47 174 48 393v150q-70 31 -179 31q-303 0 -303 -457zM444 1126l121 170q76 109 119 109l25 -6l61 -72l-264 -242z" />
<glyph unicode="&#xe2;" horiz-adv-x="1087" d="M113 446q0 227 115.5 384t340.5 157q178 0 316 -63v-521q0 -68 4 -144.5t33 -119.5q35 -55 116 -55l4 -92l-81 -8q-109 0 -156 75q-35 55 -35 131q0 25 4 54h-12q-35 -123 -112 -196t-195 -73q-342 0 -342 471zM266 422q0 -334 203 -334q86 0 144.5 58.5t86.5 158.5 q47 174 48 393v150q-70 31 -179 31q-303 0 -303 -457zM303 1126l150 205l143 19q43 -14 72 -60l114 -164l-61 -41l-178 162l-178 -162z" />
<glyph unicode="&#xe3;" horiz-adv-x="1087" d="M113 447.5q0 226.5 115.5 383t340.5 156.5q80 0 159 -16.5t157 -46.5v-521q0 -209 37 -264q35 -55 116 -55l4 -92q-33 -8 -81 -8q-109 0 -156 75q-35 55 -35 131q0 25 4 54h-12q-35 -123 -111.5 -196t-195.5 -73q-178 0 -260 123t-82 349.5zM238 1171q18 76 62 117t99 41 q57 0 146 -35q117 -47 141 -47q57 0 105 68l61 -33q-18 -78 -62.5 -118t-99.5 -40q-61 0 -194 56q-66 27 -88 26q-59 0 -109 -67zM266 422q0 -334 203 -334q86 0 144.5 58.5t86.5 158.5q48 174 48 393v150q-59 31 -179 31q-303 0 -303 -457z" />
<glyph unicode="&#xe4;" horiz-adv-x="1087" d="M113 446q0 227 115.5 384t340.5 157q178 0 316 -63v-521q0 -68 4 -144.5t33 -119.5q35 -55 116 -55l4 -92l-81 -8q-109 0 -156 75q-35 55 -35 131q0 25 4 54h-12q-35 -123 -112 -196t-195 -73q-342 0 -342 471zM266 422q0 -334 203 -334q86 0 144.5 58.5t86.5 158.5 q47 174 48 393v150q-70 31 -179 31q-303 0 -303 -457zM297 1231q0 90 88 90q37 0 58.5 -23.5t21.5 -63.5t-22.5 -63.5t-61.5 -23.5t-61.5 22.5t-22.5 61.5zM625 1231q0 90 88 90q37 0 58.5 -23.5t21.5 -63.5t-22.5 -63.5t-61.5 -23.5t-61.5 22.5t-22.5 61.5z" />
<glyph unicode="&#xe5;" horiz-adv-x="1087" d="M113 446q0 227 115.5 384t340.5 157q178 0 316 -63v-521q0 -68 4 -144.5t33 -119.5q35 -55 116 -55l4 -92l-81 -8q-109 0 -156 75q-35 55 -35 131q0 25 4 54h-12q-35 -123 -112 -196t-195 -73q-342 0 -342 471zM266 422q0 -334 203 -334q86 0 144.5 58.5t86.5 158.5 q47 174 48 393v150q-70 31 -179 31q-303 0 -303 -457zM354 1283q0 87 52.5 136t144.5 49t142 -50t50 -135t-51 -135t-142 -50t-143.5 49t-52.5 136zM459 1280q0 -90 90 -90t90 93t-86 93q-94 0 -94 -96z" />
<glyph unicode="&#xe6;" horiz-adv-x="1415" d="M113 447.5q0 226.5 115.5 383t340.5 156.5q158 0 273 -69q102 70 232 69.5t205 -61t75 -166t-50.5 -172t-136.5 -101.5q-162 -66 -374 -65q0 -326 260 -326q131 0 247 72l23 -80q-51 -51 -134 -82t-161 -31q-219 0 -313 156q-88 -156 -263.5 -156t-257 123t-81.5 349.5z M266 422q0 -334 203 -334q129 0 203 145q-29 94 -29 234q0 219 105 360v13q-81 39 -179 39q-303 0 -303 -457zM797 526q407 1 407 226q0 59 -37 89.5t-98 30.5q-123 0 -192.5 -101t-79.5 -245z" />
<glyph unicode="&#xe7;" horiz-adv-x="843" d="M111 446q0 233 113.5 387t324.5 154q121 0 215 -41l-23 -106q-84 29 -176 28q-301 0 -301 -426q0 -346 254 -346q129 0 242 72l22 -80q-98 -102 -268 -113l-14 -53q137 -43 137 -164q0 -76 -55.5 -123t-132.5 -47q-74 0 -119 33l18 62q31 -13 76 -13q88 0 88 86 q0 80 -117 111l31 113q-315 39 -315 466z" />
<glyph unicode="&#xe8;" horiz-adv-x="886" d="M115 467q0 225 113.5 372.5t320.5 147.5q127 0 201.5 -60.5t74.5 -166t-50 -172t-136 -101.5q-162 -66 -375 -65q0 -326 260 -326q131 0 248 72l23 -80q-51 -51 -134 -82t-161 -31q-385 0 -385 492zM268 526q408 1 408 226q0 59 -37 89.5t-98 30.5q-123 0 -192.5 -101 t-80.5 -245zM281 1327l61 72q11 6 25 6q43 0 118 -109l121 -170l-61 -41z" />
<glyph unicode="&#xe9;" horiz-adv-x="886" d="M115 467q0 225 113.5 372.5t320.5 147.5q127 0 201.5 -60.5t74.5 -166t-50 -172t-136 -101.5q-162 -66 -375 -65q0 -326 260 -326q131 0 248 72l23 -80q-51 -51 -134 -82t-161 -31q-385 0 -385 492zM268 526q408 1 408 226q0 59 -37 89.5t-98 30.5q-123 0 -192.5 -101 t-80.5 -245zM426 1126l121 170q76 109 119 109l24 -6l62 -72l-265 -242z" />
<glyph unicode="&#xea;" horiz-adv-x="886" d="M115 467q0 225 113.5 372.5t320.5 147.5q127 0 201.5 -60.5t74.5 -166t-50 -172t-136 -101.5q-162 -66 -375 -65q0 -326 260 -326q131 0 248 72l23 -80q-51 -51 -134 -82t-161 -31q-385 0 -385 492zM264 1126l150 205l143 19q43 -14 72 -60l114 -164l-61 -41l-178 162 l-178 -162zM268 526q408 1 408 226q0 59 -37 89.5t-98 30.5q-123 0 -192.5 -101t-80.5 -245z" />
<glyph unicode="&#xeb;" horiz-adv-x="886" d="M115 467q0 225 113.5 372.5t320.5 147.5q127 0 201.5 -60.5t74.5 -166t-50 -172t-136 -101.5q-162 -66 -375 -65q0 -326 260 -326q131 0 248 72l23 -80q-51 -51 -134 -82t-161 -31q-385 0 -385 492zM252 1231q0 90 88 90q37 0 58.5 -23.5t21.5 -63.5t-22.5 -63.5 t-61.5 -23.5t-61.5 22.5t-22.5 61.5zM268 526q408 1 408 226q0 59 -37 89.5t-98 30.5q-123 0 -192.5 -101t-80.5 -245zM580 1231q0 90 88 90q37 0 58.5 -23.5t21.5 -63.5t-23 -63.5t-61.5 -23.5t-61 22.5t-22.5 61.5z" />
<glyph unicode="&#xec;" horiz-adv-x="540" d="M41 1327l61 72q11 6 25 6q43 0 119 -109l121 -170l-62 -41zM188 172v791h148v-703q0 -109 16.5 -140.5t93.5 -31.5l5 -90q-41 -14 -82 -14q-100 0 -140.5 42t-40.5 146z" />
<glyph unicode="&#xed;" horiz-adv-x="540" d="M158 1126l121 170q76 109 118 109l25 -6l61 -72l-264 -242zM188 172v791h148v-703q0 -109 16.5 -140.5t93.5 -31.5l5 -90q-41 -14 -82 -14q-100 0 -140.5 42t-40.5 146z" />
<glyph unicode="&#xee;" horiz-adv-x="540" d="M29 1126l149 205l144 19q43 -14 71 -60l115 -164l-62 -41l-178 162l-178 -162zM188 172v791h148v-703q0 -109 16.5 -140.5t93.5 -31.5l5 -90q-41 -14 -82 -14q-100 0 -140.5 42t-40.5 146z" />
<glyph unicode="&#xef;" horiz-adv-x="540" d="M39 1231q0 90 88 90q37 0 58.5 -23.5t21.5 -63.5t-22.5 -63.5t-61.5 -23.5t-61.5 22.5t-22.5 61.5zM188 172v791h148v-703q0 -109 16.5 -140.5t93.5 -31.5l5 -90q-41 -14 -82 -14q-100 0 -140.5 42t-40.5 146zM334 1231q0 90 88 90q37 0 58.5 -23.5t21.5 -63.5 t-22.5 -63.5t-61.5 -23.5t-61.5 22.5t-22.5 61.5z" />
<glyph unicode="&#xf0;" horiz-adv-x="1052" d="M109 434.5q0 194.5 99 318.5t286 124q109 0 229 -33q-53 154 -141 297l-279 -107l-41 119l250 88q-94 129 -197 225l109 66q125 -102 227 -240l275 105l24 -127l-227 -78q213 -332 213 -661t-178 -476q-98 -80 -244 -80q-180 0 -292.5 132.5t-112.5 327zM264 428 q0 -139 63.5 -232.5t186.5 -93.5q205 0 252 279q12 74 12 155.5t-20 184.5q-126 29 -232 29q-262 0 -262 -322z" />
<glyph unicode="&#xf1;" horiz-adv-x="1116" d="M184 0v963l146 18v-59q0 -109 -17 -183h13q29 115 111.5 181.5t201.5 66.5q162 0 223.5 -81t61.5 -242q0 -6 -3 -209t-3 -258.5t13 -82t87 -26.5l4 -92q-29 -12 -84 -12q-98 0 -134 45t-36 143q0 4 4 221t4 225q0 119 -30.5 185.5t-122 66.5t-151.5 -57t-91 -149 q-55 -178 -55 -379v-285h-142zM246 1169q18 80 63 121t107.5 41t171 -42t135.5 -42q59 0 106 70l64 -33q-18 -80 -63.5 -121t-106.5 -41t-170 42t-133 42q-63 0 -111 -69z" />
<glyph unicode="&#xf2;" horiz-adv-x="1064" d="M115 462.5q0 239.5 104.5 382t315 142.5t313 -128t102.5 -353t-113.5 -378t-327.5 -153t-304 124t-90 363.5zM262 467q0 -383 254 -383q102 0 168 63.5t89.5 153.5t23.5 207q0 367 -260 366q-96 0 -160 -61q-115 -109 -115 -346zM307 1327l62 72q10 6 24 6q43 0 119 -109 l121 -170l-62 -41z" />
<glyph unicode="&#xf3;" horiz-adv-x="1064" d="M115 462.5q0 239.5 104.5 382t315 142.5t313 -128t102.5 -353t-113.5 -378t-327.5 -153t-304 124t-90 363.5zM262 467q0 -383 254 -383q102 0 168 63.5t89.5 153.5t23.5 207q0 367 -260 366q-96 0 -160 -61q-115 -109 -115 -346zM432 1126l121 170q76 109 119 109l24 -6 l62 -72l-264 -242z" />
<glyph unicode="&#xf4;" horiz-adv-x="1064" d="M115 462.5q0 239.5 104.5 382t315 142.5t313 -128t102.5 -353t-113.5 -378t-327.5 -153t-304 124t-90 363.5zM262 467q0 -383 254 -383q102 0 168 63.5t89.5 153.5t23.5 207q0 367 -260 366q-96 0 -160 -61q-115 -109 -115 -346zM291 1126l149 205l144 19q43 -14 71 -60 l115 -164l-61 -41l-179 162l-178 -162z" />
<glyph unicode="&#xf5;" horiz-adv-x="1064" d="M115 462.5q0 239.5 104.5 382t315 142.5t313 -128t102.5 -353t-113.5 -378t-327.5 -153t-304 124t-90 363.5zM225 1171q19 76 63 117t99 41q57 0 143 -35q119 -47 144 -47q57 0 104 68l62 -33q-18 -78 -62.5 -118t-95.5 -40t-159.5 41t-127.5 41q-59 0 -108 -67zM262 467 q0 -383 254 -383q102 0 168 63.5t89.5 153.5t23.5 207q0 367 -260 366q-96 0 -160 -61q-115 -109 -115 -346z" />
<glyph unicode="&#xf6;" horiz-adv-x="1064" d="M115 462.5q0 239.5 104.5 382t315 142.5t313 -128t102.5 -353t-113.5 -378t-327.5 -153t-304 124t-90 363.5zM262 467q0 -383 254 -383q102 0 168 63.5t89.5 153.5t23.5 207q0 367 -260 366q-96 0 -160 -61q-115 -109 -115 -346zM285 1231q0 90 88 90q37 0 58.5 -23.5 t21.5 -63.5t-22.5 -63.5t-61.5 -23.5t-61.5 22.5t-22.5 61.5zM612 1231q0 90 88 90q37 0 58.5 -23.5t21.5 -63.5t-22.5 -63.5t-61.5 -23.5t-61.5 22.5t-22.5 61.5z" />
<glyph unicode="&#xf7;" horiz-adv-x="821" d="M104 526v138l629 -9l-12 -120zM336 291q0 84 84 84q78 0 78 -84t-81 -84t-81 84zM336 889q0 84 84 84q78 0 78 -84t-81 -84t-81 84z" />
<glyph unicode="&#xf8;" horiz-adv-x="1064" d="M115 467q0 236 104.5 378t317.5 142q70 0 141 -20l53 131q45 -4 76 -31l-53 -131q197 -106 196 -428q0 -227 -113.5 -380t-320.5 -153q-86 0 -149 19l-60 -146q-45 4 -76 31l60 146q-176 98 -176 442zM262 474q0 -230 82 -320l289 704q-43 16 -96 16q-96 0 -160 -61 q-115 -109 -115 -339zM412 102q43 -18 104 -18q102 0 168 63.5t89.5 153.5t23.5 207q0 223 -92 309z" />
<glyph unicode="&#xf9;" horiz-adv-x="1091" d="M160 967l116 20q35 -8 44.5 -41t9.5 -67q0 -25 -8.5 -282t-8.5 -285.5t3 -64.5t20 -75q29 -80 139 -80q82 0 140.5 58.5t84.5 154.5q51 174 52 381v277h137v-560q0 -182 26.5 -250.5t118.5 -68.5l4 -92q-33 -8 -82 -8q-102 0 -142 60t-40 140q0 23 2 47h-12 q-33 -125 -120 -190.5t-227.5 -65.5t-195.5 86t-55 236q0 18 9 264t9 260q0 98 -24 146zM322 1327l61 72q11 6 25 6q43 0 118 -109l121 -170l-61 -41z" />
<glyph unicode="&#xfa;" horiz-adv-x="1091" d="M160 967l116 20q35 -8 44.5 -41t9.5 -67q0 -25 -8.5 -282t-8.5 -285.5t3 -64.5t20 -75q29 -80 139 -80q82 0 140.5 58.5t84.5 154.5q51 174 52 381v277h137v-560q0 -182 26.5 -250.5t118.5 -68.5l4 -92q-33 -8 -82 -8q-102 0 -142 60t-40 140q0 23 2 47h-12 q-33 -125 -120 -190.5t-227.5 -65.5t-195.5 86t-55 236q0 18 9 264t9 260q0 98 -24 146zM451 1126l120 170q76 109 119 109l25 -6l61 -72l-264 -242z" />
<glyph unicode="&#xfb;" horiz-adv-x="1091" d="M160 967l116 20q35 -8 44.5 -41t9.5 -67q0 -25 -8.5 -282t-8.5 -285.5t3 -64.5t20 -75q29 -80 139 -80q82 0 140.5 58.5t84.5 154.5q51 174 52 381v277h137v-560q0 -182 26.5 -250.5t118.5 -68.5l4 -92q-33 -8 -82 -8q-102 0 -142 60t-40 140q0 23 2 47h-12 q-33 -125 -120 -190.5t-227.5 -65.5t-195.5 86t-55 236q0 18 9 264t9 260q0 98 -24 146zM305 1126l150 205l143 19q43 -14 72 -60l114 -164l-61 -41l-178 162l-178 -162z" />
<glyph unicode="&#xfc;" horiz-adv-x="1091" d="M160 967l116 20q35 -8 44.5 -41t9.5 -67q0 -25 -8.5 -282t-8.5 -285.5t3 -64.5t20 -75q29 -80 139 -80q82 0 140.5 58.5t84.5 154.5q51 174 52 381v277h137v-560q0 -182 26.5 -250.5t118.5 -68.5l4 -92q-33 -8 -82 -8q-102 0 -142 60t-40 140q0 23 2 47h-12 q-33 -125 -120 -190.5t-227.5 -65.5t-195.5 86t-55 236q0 18 9 264t9 260q0 98 -24 146zM297 1231q0 90 88 90q37 0 58.5 -23.5t21.5 -63.5t-22.5 -63.5t-61.5 -23.5t-61.5 22.5t-22.5 61.5zM625 1231q0 90 88 90q37 0 58.5 -23.5t21.5 -63.5t-22.5 -63.5t-61.5 -23.5 t-61.5 22.5t-22.5 61.5z" />
<glyph unicode="&#xfd;" horiz-adv-x="1081" d="M162 967l117 20q35 -8 44 -41t9 -67q0 -25 -8.5 -279t-8.5 -268q0 -109 31 -174.5t117 -65.5t141 57.5t88 149.5q66 188 66 408v256h137l2 -902q0 -260 -95 -406.5t-321 -146.5q-82 0 -168 30t-137 83l23 80q119 -78 277.5 -78t219 111.5t60.5 326.5q0 119 14 183h-12 q-76 -268 -326 -269q-158 0 -211 80t-53 232q0 16 9 268t9 266q0 98 -24 146zM461 1126l121 170q76 109 118 109l25 -6l61 -72l-264 -242z" />
<glyph unicode="&#xfe;" horiz-adv-x="1075" d="M184 -467v1970l142 23v-584q0 -109 -17 -182h13q45 117 118.5 172t194.5 55q178 0 249.5 -115.5t71.5 -347t-113.5 -390.5t-342.5 -159q-88 0 -178 37v-479h-138zM322 115q59 -31 178 -31q303 0 303 479q0 307 -193 307q-109 0 -177 -92t-89.5 -205.5t-21.5 -246.5v-211z " />
<glyph unicode="&#xff;" horiz-adv-x="1081" d="M162 967l117 20q35 -8 44 -41t9 -67q0 -25 -8.5 -279t-8.5 -268q0 -109 31 -174.5t117 -65.5t141 57.5t88 149.5q66 188 66 408v256h137l2 -902q0 -260 -95 -406.5t-321 -146.5q-82 0 -168 30t-137 83l23 80q119 -78 277.5 -78t219 111.5t60.5 326.5q0 119 14 183h-12 q-76 -268 -326 -269q-158 0 -211 80t-53 232q0 16 9 268t9 266q0 98 -24 146zM297 1231q0 90 88 90q37 0 58.5 -23.5t21.5 -63.5t-22.5 -63.5t-61.5 -23.5t-61.5 22.5t-22.5 61.5zM625 1231q0 90 88 90q37 0 58.5 -23.5t21.5 -63.5t-22.5 -63.5t-61.5 -23.5t-61.5 22.5 t-22.5 61.5z" />
<glyph unicode="&#x152;" horiz-adv-x="1705" d="M143 694q0 440 252 639q133 104 326 105q102 0 190 -25h709l-6 -133h-551q6 -59 6 -182l-4 -269h491v-133h-491v-381q0 -109 -12 -182h567l-6 -133h-709q-78 -25 -207 -25q-299 0 -427 188.5t-128 530.5zM307 694q0 -248 80 -407q92 -182 311 -183q123 0 207 37l4 1131 q-78 31 -188.5 31t-193.5 -51.5t-130 -139.5q-90 -174 -90 -418z" />
<glyph unicode="&#x153;" horiz-adv-x="1554" d="M115 462.5q0 239.5 104.5 382t327.5 142.5t332 -201q51 92 141 146.5t206.5 54.5t191.5 -60.5t75 -166t-50 -172t-136 -101.5q-162 -66 -375 -65q0 -326 260 -326q131 0 248 72l22 -80q-51 -51 -134 -82t-176 -31t-177 50.5t-127 146.5q-47 -92 -136 -144.5t-196 -52.5 q-221 0 -311 124t-90 363.5zM262 467q0 -176 55.5 -279.5t198.5 -103.5t212 117.5t69 306.5q0 367 -260 366q-96 0 -160 -61q-115 -109 -115 -346zM936 526q407 1 407 226q0 59 -36.5 89.5t-98.5 30.5q-123 0 -192.5 -101t-79.5 -245z" />
<glyph unicode="&#x178;" horiz-adv-x="993" d="M20 1413l154 19l322 -658l313 639h164l-408 -778v-635h-153v635zM258 1612q0 90 88 90q37 0 58.5 -23.5t21.5 -63.5t-22.5 -63.5t-61.5 -23.5t-61.5 22.5t-22.5 61.5zM586 1612q0 90 88 90q37 0 58.5 -23.5t21.5 -63.5t-22.5 -63.5t-61.5 -23.5t-61.5 22.5t-22.5 61.5z " />
<glyph unicode="&#x2c6;" horiz-adv-x="540" d="M25 1126l149 205l143 19q43 -14 72 -60l115 -164l-62 -41l-178 162l-178 -162z" />
<glyph unicode="&#x2dc;" horiz-adv-x="1116" d="M262 1171q19 76 63 117t99 41q57 0 145 -35q117 -47 142 -47q57 0 104 68l62 -33q-18 -78 -62.5 -118t-95.5 -40t-159.5 41t-127.5 41q-59 0 -108 -67z" />
<glyph unicode="&#x2000;" horiz-adv-x="936" />
<glyph unicode="&#x2001;" horiz-adv-x="1872" />
<glyph unicode="&#x2002;" horiz-adv-x="936" />
<glyph unicode="&#x2003;" horiz-adv-x="1872" />
<glyph unicode="&#x2004;" horiz-adv-x="624" />
<glyph unicode="&#x2005;" horiz-adv-x="468" />
<glyph unicode="&#x2006;" horiz-adv-x="312" />
<glyph unicode="&#x2007;" horiz-adv-x="312" />
<glyph unicode="&#x2008;" horiz-adv-x="234" />
<glyph unicode="&#x2009;" horiz-adv-x="374" />
<glyph unicode="&#x200a;" horiz-adv-x="104" />
<glyph unicode="&#x2010;" horiz-adv-x="645" d="M104 475v137l469 -8l-12 -121z" />
<glyph unicode="&#x2011;" horiz-adv-x="645" d="M104 475v137l469 -8l-12 -121z" />
<glyph unicode="&#x2012;" horiz-adv-x="645" d="M104 475v137l469 -8l-12 -121z" />
<glyph unicode="&#x2013;" horiz-adv-x="870" d="M104 475v137l695 -8l-13 -121z" />
<glyph unicode="&#x2014;" horiz-adv-x="1054" d="M104 475v137l879 -8l-12 -121z" />
<glyph unicode="&#x2018;" horiz-adv-x="313" d="M61 1081q0 31 93 357l98 -19q-37 -270 -37 -310t23 -73q-84 -18 -103.5 -18t-46.5 16.5t-27 46.5z" />
<glyph unicode="&#x2019;" horiz-adv-x="313" d="M61 1036q37 270 37.5 310t-22.5 73q84 18 103.5 18.5t46 -16t26.5 -45.5q0 -33 -92 -358z" />
<glyph unicode="&#x201a;" horiz-adv-x="313" d="M61 -127q37 270 37.5 310t-22.5 73q84 18 103.5 18t46 -16t26.5 -45q0 -33 -92 -358z" />
<glyph unicode="&#x201c;" horiz-adv-x="544" d="M61 1081q0 31 93 357l98 -19q-37 -270 -37 -310t23 -73q-84 -18 -103.5 -18t-46.5 16.5t-27 46.5zM293 1081q0 31 92 357l98 -19q-37 -270 -37 -310t23 -73q-84 -18 -103.5 -18t-46 16.5t-26.5 46.5z" />
<glyph unicode="&#x201d;" horiz-adv-x="544" d="M61 1028q37 270 37.5 310t-22.5 73q84 18 103.5 18.5t46 -16t26.5 -45.5q0 -33 -92 -358zM293 1028q37 270 37 310t-23 73q84 18 103.5 18.5t46 -16t26.5 -45.5q0 -33 -92 -358z" />
<glyph unicode="&#x201e;" horiz-adv-x="544" d="M61 -123q37 270 37.5 310t-22.5 73q84 18 103.5 18.5t46 -16t26.5 -45.5q0 -33 -92 -358zM293 -123q37 270 37 310t-23 73q84 18 103.5 18.5t46 -16t26.5 -45.5q0 -33 -92 -358z" />
<glyph unicode="&#x2022;" horiz-adv-x="487" d="M123 442q0 129 127 129q115 0 115 -124.5t-121 -124.5q-57 0 -89 31.5t-32 88.5z" />
<glyph unicode="&#x2026;" horiz-adv-x="1277" d="M150 66q0 96 94 96q86 0 86 -93.5t-90 -93t-90 90.5zM549 66q0 96 94 96q86 0 86 -93.5t-90 -93t-90 90.5zM948 66q0 96 94 96q86 0 86 -93.5t-90 -93t-90 90.5z" />
<glyph unicode="&#x202f;" horiz-adv-x="374" />
<glyph unicode="&#x2039;" horiz-adv-x="724" d="M123 455q0 37 22 63l396 348q14 0 37.5 -41t23.5 -57l-313 -305l313 -305q0 -16 -23.5 -57.5t-37.5 -41.5l-396 351q-23 20 -22 45z" />
<glyph unicode="&#x203a;" horiz-adv-x="724" d="M123 158l313 305l-313 305q0 16 23.5 57t37.5 41l396 -348q23 -23 22 -47q0 -35 -22 -61l-396 -351q-14 0 -37.5 41t-23.5 58z" />
<glyph unicode="&#x205f;" horiz-adv-x="468" />
<glyph unicode="&#x20ac;" horiz-adv-x="1198" d="M143 522l4 82l142 6v117l-135 -4l4 82l135 6q25 268 171 415.5t410 147.5q131 0 252 -41l-30 -114q-104 20 -203 20q-217 0 -317.5 -104.5t-118.5 -317.5l637 27v-30.5t-15 -55.5l-626 -25v-117l630 27v-30.5t-14 -55.5l-612 -22q16 -199 84 -304q76 -121 258 -120.5 t325 118.5l33 -104q-135 -150 -382 -150t-354.5 142.5t-127.5 410.5z" />
<glyph unicode="&#x25fc;" horiz-adv-x="983" d="M0 0v983h983v-983h-983z" />
</font>
</defs>
</svg>
