<?xml version="1.0" standalone="no"?>
<!DOCTYPE svg PUBLIC "-//W3C//DTD SVG 1.1//EN" "http://www.w3.org/Graphics/SVG/1.1/DTD/svg11.dtd" >
<svg xmlns="http://www.w3.org/2000/svg" xmlns:xlink="http://www.w3.org/1999/xlink" version="1.1">
<metadata></metadata>
<defs>
<font id="playfair_display_scregular" horiz-adv-x="694" >
<font-face units-per-em="2048" ascent="1638" descent="-410" />
<missing-glyph horiz-adv-x="509" />
<glyph unicode="&#xfb01;" horiz-adv-x="1267" d="M53 1012v41h164q0 276 148 415q63 59 159.5 96.5t223.5 37.5q83 0 156 -16.5t118 -45.5q70 -43 70 -113q0 -55 -39 -94t-92 -39t-92.5 39t-39.5 92q0 37 18.5 68t49.5 47q-47 31 -149 31q-203 0 -291 -158q-31 -53 -43.5 -134t-12.5 -226h330q129 0 202 5t138 19v-887 q0 -84 35 -115.5t121 -31.5v-43q-188 8 -248 8q-59 0 -248 -8v43q86 0 121 31.5t35 115.5v641q0 94 -35 137.5t-121 43.5h-330v-822q0 -84 44 -115.5t133 -31.5v-43l-46 2q-178 6 -223 6q-59 0 -248 -8v43q86 0 121 31.5t35 115.5v822h-164z" />
<glyph unicode="&#xfb02;" horiz-adv-x="1271" d="M53 1012v41h164q0 174 25.5 279.5t105.5 174.5q55 47 127 71t150 24q37 0 118 -13q86 -12 144 -12q100 0 184 29v-1416q0 -84 35 -115.5t121 -31.5v-43q-188 8 -248 8q-59 0 -248 -8v43q86 0 121 31.5t35 115.5v1141q0 63 -13.5 102.5t-42.5 67.5q-37 37 -91 53.5 t-105 16.5q-102 0 -162 -64q-43 -43 -57.5 -106.5t-14.5 -155.5v-192h261v-41h-261v-822q0 -84 44 -115.5t133 -31.5v-43l-46 2q-178 6 -223 6q-59 0 -248 -8v43q86 0 121 31.5t35 115.5v822h-164z" />
<glyph horiz-adv-x="0" />
<glyph unicode="&#xd;" horiz-adv-x="509" />
<glyph horiz-adv-x="0" />
<glyph horiz-adv-x="0" />
<glyph unicode=" "  horiz-adv-x="509" />
<glyph unicode="&#x09;" horiz-adv-x="509" />
<glyph unicode="&#xa0;" horiz-adv-x="509" />
<glyph unicode="!" horiz-adv-x="581" d="M160 102q0 53 39 92t92 39t92 -38.5t39 -92.5q0 -53 -39 -92t-92 -39t-92 39t-39 92zM197 1159q0 59 25.5 87t68.5 28q41 0 67.5 -28.5t26.5 -86.5q0 -74 -31 -332q-35 -279 -45 -426h-37q-10 147 -45 426q-31 258 -30 332z" />
<glyph unicode="&#x22;" horiz-adv-x="610" d="M121 1399q0 43 20.5 68.5t53.5 27.5q30 0 51.5 -25.5t21.5 -68.5q0 -74 -12 -149.5t-14 -92.5q-14 -74 -33 -201h-29q-14 100 -30 185q-12 70 -20.5 133t-8.5 123zM344 1399q0 43 20.5 68.5t53.5 27.5q30 0 51.5 -25.5t21.5 -68.5q0 -74 -12 -149.5t-14 -92.5 q-14 -74 -33 -201h-29q-14 100 -30 185q-12 70 -20.5 133t-8.5 123z" />
<glyph unicode="#" horiz-adv-x="1304" d="M98 506l8 41h302l65 342h-299l6 41h301l60 303h41l-60 -303h342l60 303h41l-60 -303h301l-6 -41h-303l-66 -342h302l-9 -41h-301l-57 -299h-41l57 299h-342l-57 -299h-41l57 299h-301zM449 547h342l65 342h-342z" />
<glyph unicode="$" horiz-adv-x="1083" d="M121 -14q8 100 8 450h47q12 -158 74.5 -267.5t189.5 -143.5v553q-150 78 -229.5 162.5t-79.5 213.5q0 133 87 214t222 100v186h41v-182q12 2 35 2q61 0 96 -8v188h41v-199q49 -14 113 -57q45 -29 70 -29q18 0 28 21.5t17 69.5h47q-10 -106 -10 -377h-48q-10 115 -63 206 t-154 128v-521q164 -88 247 -172t83 -205q0 -145 -91 -233t-239 -109v-186h-41v182q-16 -2 -49 -2t-82 4v-184h-41v191q-80 16 -157 65q-45 29 -70 29q-18 0 -28.5 -21.5t-16.5 -68.5h-47zM285 1032q0 -69 40 -120.5t115 -96.5v406q-72 -20 -113.5 -70.5t-41.5 -118.5z M481 16q41 -4 68 -4q32 0 63 6v467q-23 12 -131 70v-539zM481 791q27 -16 50.5 -27.5t37.5 -20.5l39 -22l4 -2v508q-33 8 -77 8q-21 0 -54 -4v-440zM653 31q66 22 107 76.5t41 136.5q0 66 -37 117t-111 98v-428z" />
<glyph unicode="%" horiz-adv-x="1519" d="M72 1214q0 152 86 248.5t219 96.5q139 0 222 -89.5t83 -244.5q0 -154 -86 -249t-219 -95q-139 0 -222 89t-83 244zM154 -86l1198 1774l39 -27l-1198 -1774zM215 1217q0 -147 44 -223t122 -76q156 0 156 303q0 147 -43 224t-121 77q-158 0 -158 -305zM834 305 q0 152 86 248t219 96q139 0 222 -89t83 -245q0 -154 -86 -249t-219 -95q-139 0 -222 89.5t-83 244.5zM977 307q0 -147 44 -223t122 -76q156 0 155 303q0 147 -43 224t-120 77q-158 0 -158 -305z" />
<glyph unicode="&#x26;" horiz-adv-x="1636" d="M109 399q0 129 60 217.5t137 135.5t140 63q-100 33 -153 90.5t-53 132.5q0 100 92 168t256 68q131 0 211 -62q37 -31 56 -68.5t19 -72.5q0 -49 -34.5 -78.5t-79.5 -29.5t-76 26.5t-31 75.5q0 45 31 78t78 35q-10 27 -52 46t-100 19q-106 0 -173.5 -59.5t-67.5 -151.5 q0 -70 22.5 -117t81.5 -88q70 12 127 13q37 0 59.5 -13.5t22.5 -33.5q0 -39 -57 -39q-33 0 -68 12t-82 33q-225 -76 -225 -314q0 -115 68.5 -199.5t189.5 -129.5t272 -45q166 0 292 43t194.5 119.5t68.5 179.5q0 72 -42 141.5t-167 99.5l-211 -80q-92 -35 -145 -76.5 t-53 -105.5q0 -63 43 -101t102 -38q43 0 80 12t43 33q-41 8 -68.5 32.5t-27.5 71.5q0 49 31.5 78t80.5 29t79 -31t30 -80q0 -82 -77 -129t-165 -47q-90 0 -142 49t-52 142q0 209 282 309l74 26q240 80 344 134q86 43 121 84t35 90q0 66 -52.5 107.5t-129.5 41.5 q-20 0 -36 -6t-20 -14q27 -12 42.5 -40t15.5 -55q0 -41 -34 -70.5t-79 -29.5q-47 0 -79 26.5t-32 71.5q0 78 69 112t161 34q98 0 162.5 -58.5t64.5 -160.5q0 -92 -50 -155.5t-153 -106.5l-108 -43l-107 -41q115 -31 166 -107t51 -160q0 -129 -74.5 -236.5t-218 -171 t-339.5 -63.5q-174 0 -320.5 52.5t-233.5 149.5t-87 226z" />
<glyph unicode="'" horiz-adv-x="387" d="M121 1399q0 43 20.5 68.5t53.5 27.5q30 0 51.5 -25.5t21.5 -68.5q0 -74 -12 -149.5t-14 -92.5q-14 -74 -33 -201h-29q-14 100 -30 185q-12 70 -20.5 133t-8.5 123z" />
<glyph unicode="(" horiz-adv-x="598" d="M102 639q0 -207 108.5 -392.5t301.5 -316.5l23 27q-129 129 -195 304t-66 378t65.5 378t195.5 304l-23 27q-193 -131 -301.5 -316.5t-108.5 -392.5z" />
<glyph unicode=")" horiz-adv-x="600" d="M63 -43q129 129 195 304t66 378t-65.5 378t-195.5 304l23 27q193 -131 301.5 -316.5t108.5 -392.5t-108.5 -392.5t-301.5 -316.5z" />
<glyph unicode="*" horiz-adv-x="1007" d="M121 877q0 45 67 88q31 18 72 31.5t113 31.5q63 14 119 31q-92 27 -121 33q-55 16 -104.5 31.5t-80.5 31.5q-66 39 -65 88q0 18 10 35q18 33 57 33q31 0 74 -25q31 -18 70 -53t80 -78q37 -39 86 -86l-31 115q-20 74 -29.5 118t-9.5 80q0 57 22.5 84t53.5 27t52.5 -26.5 t21.5 -84.5q0 -35 -11.5 -86t-27.5 -110q-14 -45 -31 -115l82 82q43 43 83 80t70 55q39 23 72 23q47 0 64 -35q8 -14 8 -31q0 -49 -68 -88q-31 -18 -71.5 -31.5t-112.5 -31.5q-63 -14 -119 -31q94 -27 121 -33q55 -16 104.5 -31.5t79.5 -31.5q66 -39 66 -88q0 -18 -10 -35 q-18 -33 -58 -33q-31 0 -74 25q-31 18 -67.5 51t-75.5 74l-92 90q12 -53 31 -115q39 -141 41 -197q-2 -57 -24.5 -83.5t-55.5 -26.5q-31 0 -51.5 26.5t-20.5 83.5q0 35 11.5 86.5t27.5 110.5q14 45 31 115l-82 -82q-43 -43 -83 -80t-71 -55q-39 -23 -71 -23q-45 0 -64 35 q-8 14 -8 31z" />
<glyph unicode="+" horiz-adv-x="1202" d="M88 696v62h477v483h74v-483h475v-62h-475v-481h-74v481h-477z" />
<glyph unicode="," horiz-adv-x="534" d="M127 102q0 55 38 93t93 38q80 1 121 -65q35 -55 35 -135q0 -102 -52.5 -184t-158.5 -132l-19 37q63 27 109.5 84.5t46.5 116.5q0 25 -6 43q-33 -27 -76 -27q-55 0 -93 36t-38 95z" />
<glyph unicode="-" horiz-adv-x="1054" d="M158 565v119h739v-119h-739z" />
<glyph unicode="." horiz-adv-x="516" d="M127 102q0 53 39 92t92 39t92 -38.5t39 -92.5q0 -53 -39 -92t-92 -39t-92 39t-39 92z" />
<glyph unicode="/" horiz-adv-x="761" d="M70 -29l557 1508h67l-557 -1508h-67z" />
<glyph unicode="0" horiz-adv-x="1228" d="M106 512q0 162 65 292t182.5 204.5t271.5 74.5q143 0 255.5 -66.5t176 -189t63.5 -282.5q0 -164 -65.5 -294t-183 -205t-269.5 -75q-141 0 -253.5 66.5t-177.5 189.5t-65 285zM305 518q0 -260 88 -385t228 -125q88 0 156.5 63.5t106.5 183.5t38 284q0 258 -88.5 383 t-227.5 125q-88 0 -156.5 -62.5t-106.5 -182.5t-38 -284z" />
<glyph unicode="1" horiz-adv-x="757" d="M96 928v45q150 4 247 26.5t175 77.5v-866q0 -96 44 -132t153 -36v-43q-221 8 -283 8q-57 0 -266 -6l-49 -2v43q109 0 163 37t54 131v496q0 98 -20.5 144t-68.5 61.5t-149 15.5z" />
<glyph unicode="2" horiz-adv-x="980" d="M96 827q53 111 151.5 183.5t252.5 72.5q143 0 225 -67.5t82 -190.5q0 -84 -44 -162.5t-106.5 -144t-164.5 -158.5q-84 -78 -125 -117.5t-74 -84.5h416q55 0 82.5 9t38 30.5t16.5 64.5h35q0 -188 8 -272q-45 10 -305 10h-480v35q35 37 119 117q117 109 195 195.5t134 197 t56 235.5q0 221 -205 221q-168 0 -274 -192z" />
<glyph unicode="3" horiz-adv-x="923" d="M76 -272q145 4 274 60t209 161.5t80 251.5q0 121 -59.5 199.5t-157.5 86.5q-8 -4 -42 -17t-54 -13q-33 0 -33 26q0 18 15.5 28.5t37.5 10.5q12 0 33.5 -3t38.5 -5q80 61 118.5 137t38.5 158q0 94 -47 139t-131 45q-86 0 -155.5 -46t-116.5 -136l-35 16q119 256 375 256 q129 0 212 -63.5t83 -169.5q0 -113 -89 -203t-216 -135q158 -4 268.5 -84t110.5 -227t-114 -264t-289 -181.5t-355 -64.5v37z" />
<glyph unicode="4" horiz-adv-x="1011" d="M35 111v43l665 929h33v-835h25q55 0 82.5 9t38 30.5t16.5 64.5h35q0 -172 8 -252q-27 7 -205 11v-400h-164v400h-534zM156 248h413v586z" />
<glyph unicode="5" horiz-adv-x="849" d="M92 -266q125 2 234.5 55t178 157.5t68.5 252.5q0 129 -67.5 201.5t-190.5 72.5q-49 0 -83.5 -8t-84.5 -27l-20 13l39 610q41 -8 110 -8h232q55 0 82.5 9t38 30.5t16.5 64.5h39q0 -209 8 -299q-43 10 -284 10h-218l-24 -395q57 29 110.5 45.5t129.5 16.5q178 0 270 -87.5 t92 -228.5q0 -152 -99.5 -271.5t-256 -185t-320.5 -65.5v37z" />
<glyph unicode="6" horiz-adv-x="1058" d="M113 553q0 287 109.5 486.5t267 305t317.5 136.5l8 -41q-125 -41 -224 -110.5t-175 -215t-97 -383.5q47 86 129 126t164 40q99 0 183 -53t135 -154.5t51 -238.5q0 -150 -60.5 -258.5t-163 -165t-227.5 -56.5q-197 0 -307 154t-110 428zM311 557q0 -295 70 -420t170 -125 t165.5 104.5t65.5 319.5q0 209 -61.5 305.5t-159.5 96.5q-72 0 -142.5 -42t-105.5 -134q-2 -33 -2 -105z" />
<glyph unicode="7" horiz-adv-x="831" d="M55 1063q47 -10 305 -10h455v-43q-31 -72 -106 -219q-80 -154 -129.5 -265.5t-84 -256t-34.5 -306.5q0 -41 4 -98q4 -45 4 -64q0 -47 -26.5 -75.5t-69.5 -28.5q-45 0 -68.5 32.5t-23.5 82.5q0 158 48 311t116.5 283.5t179.5 312.5l96 162h-485q-55 0 -83 -9.5t-38.5 -31 t-16.5 -64.5h-35q0 203 -8 287z" />
<glyph unicode="8" horiz-adv-x="1064" d="M106 315q0 141 90.5 252t237.5 185q-125 102 -192.5 194t-67.5 213q0 94 49 167t135 113t191 40q145 0 241.5 -74t96.5 -207q0 -111 -67.5 -203t-192.5 -174q114 -84 177.5 -140t110 -136t46.5 -183q0 -115 -57.5 -203.5t-158 -138t-227.5 -49.5q-174 0 -293 89.5 t-119 254.5zM287 346q0 -145 59.5 -241.5t183.5 -96.5q109 0 182.5 72t73.5 196q0 96 -44 173t-104 132.5t-173 145.5q-178 -129 -178 -381zM334 1223q0 -117 66.5 -200t195.5 -179q127 121 127 327q0 123 -51 197t-146 74q-84 0 -138 -59.5t-54 -159.5z" />
<glyph unicode="9" horiz-adv-x="1042" d="M76 604q0 150 60.5 258.5t162.5 164.5t227 56q197 0 307.5 -142t110.5 -398q0 -260 -109.5 -442.5t-268 -279.5t-316.5 -124l-8 41q186 53 315 176t172 395q-47 -80 -127 -115.5t-158 -35.5q-98 0 -182 53t-135 154.5t-51 238.5zM274 618q0 -209 61.5 -305t160.5 -96 q69 0 137.5 39t103.5 125q8 66 8 158q0 272 -69.5 387.5t-169.5 115.5t-166 -104t-66 -320z" />
<glyph unicode=":" horiz-adv-x="544" d="M141 102q0 53 39 92t92 39t92 -38.5t39 -92.5q0 -53 -39 -92t-92 -39t-92 39t-39 92zM141 950q0 53 39 92t92 39t92 -38.5t39 -92.5q0 -53 -39 -92t-92 -39t-92 39t-39 92z" />
<glyph unicode=";" horiz-adv-x="583" d="M150 102q0 55 38 93t93 38q80 1 121 -65q35 -55 35 -135q0 -102 -52.5 -184t-158.5 -132l-19 37q63 27 109.5 84.5t46.5 116.5q0 25 -6 43q-33 -27 -76 -27q-55 0 -93 36t-38 95zM164 950q0 53 39 92t92 39t92 -38.5t39 -92.5q0 -53 -39 -92t-92 -39t-92 39t-39 92z" />
<glyph unicode="&#x3c;" horiz-adv-x="1245" d="M61 727l998 465l35 -74l-838 -391l838 -391l-35 -74z" />
<glyph unicode="=" horiz-adv-x="1325" d="M150 553v61h1026v-61h-1026zM150 840v61h1026v-61h-1026z" />
<glyph unicode="&#x3e;" horiz-adv-x="1245" d="M151 336l35 -74l998 465l-998 465l-35 -74l838 -391z" />
<glyph unicode="?" horiz-adv-x="880" d="M66 1057q0 51 38.5 101t116.5 83q88 33 197 33q176 0 283.5 -79t107.5 -218q0 -109 -77 -186.5t-184.5 -121.5t-211.5 -61l51 -190l-41 -10l-67 223q176 39 262 119.5t86 236.5q0 115 -57.5 183.5t-161.5 68.5q-84 0 -152 -25q-84 -31 -78 -75q33 -8 55.5 -34t22.5 -61 q0 -39 -26.5 -66.5t-67.5 -27.5q-43 0 -69.5 31t-26.5 76zM268 102q0 53 39 92t92 39q54 0 92.5 -38.5t38.5 -92.5q0 -53 -38.5 -92t-92.5 -39q-53 0 -92 39t-39 92z" />
<glyph unicode="@" horiz-adv-x="1789" d="M94 293q0 274 133.5 522t360.5 400.5t496 152.5q287 0 463 -139t176 -424q0 -219 -91.5 -390t-229.5 -266.5t-273 -95.5q-148 0 -148 131q0 51 14.5 99.5t16.5 56.5q-59 -147 -135 -217t-181 -70q-111 0 -160.5 67.5t-49.5 180.5q0 152 72.5 311.5t187 263t227.5 103.5 q125 0 147 -109l17 80q117 0 184 29l-172 -752q-12 -43 -12 -69q0 -29 14 -41.5t45 -12.5q86 0 202 86t200 247t84 370q0 268 -167 396t-429 128q-246 0 -466 -142t-352.5 -381t-132.5 -511q0 -301 167 -445.5t448 -144.5q238 0 422 111l14 -27q-80 -55 -192.5 -88 t-245.5 -33q-299 0 -476.5 155t-177.5 468zM660 313q0 -199 106 -198q78 0 158 116.5t131 317.5l53 258q-4 66 -35.5 95.5t-91.5 29.5q-86 0 -159.5 -93.5t-117.5 -237.5t-44 -288z" />
<glyph unicode="A" horiz-adv-x="1290" d="M-14 0v41q102 25 161 178l482 1241h33l499 -1288q50 -127 142 -131v-41q-82 6 -220 6q-176 0 -262 -6v41q78 4 112 19.5t34 56.5q0 35 -25 96l-125 336h-495l-84 -217q-41 -111 -41 -168q0 -63 44 -92t134 -31v-41q-117 6 -236 6q-92 0 -153 -6zM338 590h463l-230 612z " />
<glyph unicode="B" horiz-adv-x="1275" d="M86 0v41q74 4 107.5 16.5t46 47t12.5 112.5v1016q0 78 -12.5 112.5t-46 47t-107.5 16.5v41q86 -6 250 -6l221 2q39 2 88 2q209 0 320.5 -88t111.5 -234q0 -119 -74.5 -213t-236.5 -143v-4q225 -31 321.5 -130t96.5 -239q0 -117 -59.5 -207t-170 -140t-262.5 -50 q-55 0 -94 2q-131 4 -258 4q-168 0 -254 -6zM442 217q0 -74 12.5 -108.5t44 -48t97.5 -13.5q383 1 383 359q0 162 -87 245.5t-278 83.5h-172v-518zM442 770h138q168 0 234.5 91t66.5 243q0 154 -68 229.5t-219 75.5q-64 0 -95.5 -14.5t-44 -51t-12.5 -110.5v-463z" />
<glyph unicode="C" horiz-adv-x="1409" d="M109 713q0 225 82.5 399t231 270.5t337.5 96.5q123 0 209 -35t168 -98q23 -18 39 -19q41 0 53 123h47q-8 -133 -8 -471h-47q-23 133 -41.5 191.5t-61.5 111.5q-61 80 -156.5 120t-205.5 40q-133 0 -232.5 -88t-155 -251t-55.5 -382q0 -223 59.5 -383t165 -243t238.5 -83 q102 0 198.5 39t151.5 117q41 57 59.5 122.5t35.5 201.5h47q0 -352 8 -492h-47q-6 66 -17.5 93.5t-31.5 27.5q-16 0 -43 -17q-92 -66 -176 -99.5t-203 -33.5q-195 0 -341.5 88t-227 255t-80.5 399z" />
<glyph unicode="D" horiz-adv-x="1480" d="M86 0v41q74 4 107.5 16.5t46 47t12.5 112.5v1016q0 78 -12.5 112.5t-46 47t-107.5 16.5v41q72 -6 199 -6l174 2q139 4 186 4q363 0 543 -181.5t180 -527.5q0 -223 -88 -391t-255 -259t-398 -91l-119 2q-115 4 -168 4q-168 0 -254 -6zM442 213q0 -74 12.5 -110.5t44 -51 t97.5 -14.5q217 0 342 79t175 230.5t50 386.5q0 236 -55 384.5t-179 222t-335 73.5q-64 0 -95.5 -14.5t-44 -51t-12.5 -110.5v-1024z" />
<glyph unicode="E" horiz-adv-x="1247" d="M86 0v41q74 4 107.5 16.5t46 47t12.5 112.5v1016q0 78 -12.5 112.5t-46 47t-107.5 16.5v41q201 -6 594 -6q301 0 428 6q-14 -135 -14 -242q0 -80 6 -127h-47q-14 133 -37 197.5t-76 94.5t-162 30h-170q-74 0 -107.5 -11.5t-46 -46t-12.5 -112.5v-483h136q72 0 110.5 33.5 t52 79.5t21.5 116l6 41h47q-6 -86 -6 -193v-98q0 -104 12 -291h-47q-2 14 -12 99.5t-56.5 128.5t-127.5 43h-136v-492q0 -78 12.5 -112.5t46.5 -46t107 -11.5h150q127 0 193.5 34t97 108.5t45.5 220.5h47q-6 -55 -6 -148q0 -117 14 -262q-139 6 -469 6q-393 0 -594 -6z" />
<glyph unicode="F" horiz-adv-x="1165" d="M86 0v41q74 4 107.5 16.5t46 47t12.5 112.5v1016q0 78 -12.5 112.5t-46 47t-107.5 16.5v41q201 -6 594 -6q301 0 428 6q-14 -145 -14 -262q0 -102 6 -168h-47q-16 158 -41 234.5t-86.5 112.5t-188.5 36h-129q-74 0 -107.5 -11.5t-46 -46t-12.5 -112.5v-504h150 q72 0 110.5 34t52 80t21.5 115l6 41h47q-6 -86 -6 -192v-98q0 -104 13 -291h-48q-2 14 -12 99t-56 128t-128 43h-150v-471q0 -78 16.5 -112.5t57.5 -47t133 -16.5v-41q-106 6 -301 6q-176 0 -262 -6z" />
<glyph unicode="G" horiz-adv-x="1439" d="M111 700q0 233 85 410.5t234.5 273t339.5 95.5q121 0 199 -34t170 -99q27 -20 41 -21q39 0 51 125h47q-8 -133 -8 -471h-47q-18 109 -39 179.5t-64 123.5q-59 74 -154.5 117t-199.5 43q-135 0 -237.5 -88t-158 -251t-55.5 -380q0 -369 118 -540t370 -171q123 0 213 64 q37 25 48 48t11 64v197q0 86 -16.5 125t-57 53.5t-133.5 18.5v41q106 -6 289 -7q139 0 213 7v-41q-47 -4 -68.5 -16.5t-28.5 -47.5t-7 -112v-406h-41q-2 41 -16.5 79t-39.5 38q-12 0 -24 -6.5t-43 -28.5q-72 -55 -148.5 -83t-171.5 -28q-211 0 -361.5 87t-230 251t-79.5 391 z" />
<glyph unicode="H" horiz-adv-x="1550" d="M86 0v41q74 4 107.5 16.5t46 47t12.5 112.5v1016q0 78 -12.5 112.5t-46 47t-107.5 16.5v41q86 -6 262 -6q164 0 260 6v-41q-74 -4 -107.5 -16.5t-46 -47t-12.5 -112.5v-483h666v483q0 78 -12.5 112.5t-46 47t-107.5 16.5v41q94 -6 260 -6q176 0 262 6v-41 q-73 -4 -107 -16.5t-46.5 -47t-12.5 -112.5v-1016q0 -78 12.5 -112.5t46.5 -47t107 -16.5v-41q-86 6 -262 6q-166 0 -260 -6v41q74 4 107.5 16.5t46 47t12.5 112.5v492h-666v-492q0 -78 12.5 -112.5t46.5 -47t107 -16.5v-41q-94 6 -260 6q-176 0 -262 -6z" />
<glyph unicode="I" d="M86 0v41q74 4 107.5 16.5t46 47t12.5 112.5v1016q0 78 -12.5 112.5t-46 47t-107.5 16.5v41q86 -6 262 -6q164 0 260 6v-41q-74 -4 -107.5 -16.5t-46 -47t-12.5 -112.5v-1016q0 -78 12.5 -112.5t46.5 -47t107 -16.5v-41q-94 6 -260 6q-176 0 -262 -6z" />
<glyph unicode="J" horiz-adv-x="667" d="M-41 -346q143 4 212 106.5t69 345.5v1127q0 78 -12.5 112.5t-46.5 47t-107 16.5v41q86 -6 258 -6q168 0 264 6v-41q-74 -4 -107.5 -16.5t-46 -47t-12.5 -112.5v-750q0 -174 -6 -308t-29 -226q-37 -150 -150.5 -242t-285.5 -92v39z" />
<glyph unicode="K" horiz-adv-x="1341" d="M86 0v41q74 4 107.5 16.5t46 47t12.5 112.5v1016q0 78 -12.5 112.5t-46 47t-107.5 16.5v41q86 -6 262 -6q164 0 260 6v-41q-74 -4 -107.5 -16.5t-46 -47t-12.5 -112.5v-459q150 6 234 115l196 250q104 129 105 196q0 72 -127 74v41q117 -6 235 -6q113 0 175 6v-41 q-68 -10 -127.5 -44t-114.5 -105l-334 -429l475 -665q35 -51 77 -81t103 -44v-41q-98 6 -245 6q-111 0 -211 -6v41q49 2 71.5 12t22.5 31q0 20 -21 49l-299 451q-59 90 -100 117.5t-115 31.5v-516q0 -78 12.5 -112.5t46.5 -47t107 -16.5v-41q-94 6 -260 6q-176 0 -262 -6z " />
<glyph unicode="L" horiz-adv-x="1204" d="M86 0v41q74 4 107.5 16.5t46 47t12.5 112.5v1016q0 78 -12.5 112.5t-46 47t-107.5 16.5v41q86 -6 262 -6q164 0 260 6v-41q-74 -4 -107.5 -16.5t-46 -47t-12.5 -112.5v-1016q0 -78 12.5 -112.5t46.5 -46t107 -11.5h150q127 0 193.5 36t97 116t45.5 231h47q-6 -63 -6 -168 q0 -117 14 -262q-139 6 -469 6q-393 0 -594 -6z" />
<glyph unicode="M" horiz-adv-x="1783" d="M86 0v41q72 4 106.5 21.5t47 57.5t12.5 118v995q0 78 -12.5 112.5t-46 47t-107.5 16.5v41q68 -6 190 -6q106 0 175 6l450 -1186l440 1180h97q166 0 260 6v-41q-74 -4 -108 -16.5t-46 -47t-12 -112.5v-1016q0 -78 12 -112.5t46 -47t108 -16.5v-41q-94 6 -260 6 q-176 0 -262 -6v41q74 4 107.5 16.5t45.5 47t12 112.5v1098l-493 -1325h-33l-516 1329v-1081q0 -80 13.5 -119t52 -56.5t120.5 -21.5v-41q-74 6 -209 6q-123 0 -190 -6z" />
<glyph unicode="N" horiz-adv-x="1445" d="M86 0v41q72 4 106.5 21.5t47 57.5t12.5 118v995q0 78 -12.5 112.5t-46 47t-107.5 16.5v41q68 -6 190 -6q92 0 160 6l723 -1114v876q0 80 -13 119t-52 56.5t-121 21.5v41q74 -6 209 -6q123 0 190 6v-41q-72 -4 -106.5 -21.5t-47 -57.5t-12.5 -118v-1222h-47l-860 1329 v-1081q0 -80 13.5 -119t52 -56.5t120.5 -21.5v-41q-74 6 -209 6q-123 0 -190 -6z" />
<glyph unicode="O" horiz-adv-x="1517" d="M109 713q0 225 82.5 399t231 270.5t337.5 96.5q194 0 340.5 -88t227.5 -255t81 -399q0 -225 -83 -399t-231.5 -270.5t-336.5 -96.5q-195 0 -341.5 88t-227 255t-80.5 399zM313 721q0 -213 60.5 -375t163 -250t229.5 -88q131 0 230.5 91t153.5 255t54 375q0 213 -60.5 375 t-162.5 250t-229 88q-131 0 -230.5 -91t-154 -255t-54.5 -375z" />
<glyph unicode="P" horiz-adv-x="1198" d="M86 0v41q74 4 107.5 16.5t46 47t12.5 112.5v1016q0 78 -12.5 112.5t-46 47t-107.5 16.5v41q86 -6 250 -6l221 2q39 2 88 2q240 0 367 -109.5t127 -294.5q0 -113 -50.5 -216t-170 -172.5t-318.5 -69.5h-158v-369q0 -78 16.5 -112.5t57.5 -47t133 -16.5v-41q-106 6 -301 6 q-176 0 -262 -6zM442 627h138q201 0 277.5 107.5t76.5 287.5q0 199 -79 293t-261 94q-64 0 -95.5 -14.5t-44 -51t-12.5 -110.5v-606z" />
<glyph unicode="Q" horiz-adv-x="1517" d="M109 713q0 225 82.5 399t231 270.5t337.5 96.5q195 0 341 -88t227 -255t81 -399q0 -213 -73.5 -380t-207 -266t-305.5 -116v-2q-49 -6 -85 -17t-95 -36q-74 -33 -123 -47q227 -45 386 -71.5t263 -26.5q145 0 230.5 42t132.5 136l31 -12q-45 -156 -129 -234 q-100 -92 -277 -92q-94 0 -184 28.5t-228 90.5q-152 66 -247 98l-49 14q-85 -30 -165 -30h-5q-94 0 -95 41q0 43 111 43q72 0 154 -17q66 18 151 58q53 25 80 34q-174 16 -302 108.5t-198.5 253.5t-70.5 376zM313 721q0 -213 60.5 -375t163 -250t229.5 -88q131 0 230.5 91 t153.5 255t54 375q0 213 -60.5 375t-162.5 250t-229 88q-131 0 -230.5 -91t-154 -255t-54.5 -375z" />
<glyph unicode="R" horiz-adv-x="1327" d="M86 0v41q74 4 107.5 16.5t46 47t12.5 112.5v1016q0 78 -12.5 112.5t-46 47t-107.5 16.5v41q86 -6 250 -6l221 2q39 2 88 2q238 0 366 -99.5t128 -256.5q0 -80 -38 -161t-127 -145.5t-233 -87.5l25 -4q135 -23 196.5 -82t90.5 -188l51 -209q20 -94 42.5 -131t61.5 -37 q35 0 58.5 18.5t54.5 59.5l31 -23q-47 -70 -94.5 -100.5t-124.5 -30.5q-84 0 -138.5 49.5t-81.5 172.5l-45 204q-25 106 -46 163.5t-64 92.5t-121 35h-195v-471q0 -78 12.5 -112.5t46.5 -47t107 -16.5v-41q-94 6 -260 6q-176 0 -262 -6zM442 729h138q203 0 278.5 90 t75.5 250q0 168 -80 254t-260 86q-64 0 -95.5 -14.5t-44 -51t-12.5 -110.5v-504z" />
<glyph unicode="S" horiz-adv-x="1105" d="M129 -14q8 113 8 491h47q14 -207 102.5 -336t270.5 -129q111 0 188.5 69t77.5 204q0 115 -76.5 194.5t-242.5 179.5q-121 74 -196 131.5t-122 138.5t-47 189q0 172 110.5 263.5t274.5 91.5q90 0 142.5 -19.5t107.5 -56.5q45 -29 70 -29q18 0 28.5 21.5t16.5 68.5h47 q-10 -119 -10 -418h-47q-12 166 -95.5 280t-240.5 114q-111 0 -180.5 -67t-69.5 -171q0 -78 36 -135t91 -98t158 -105l59 -37q129 -80 203.5 -140t120 -138t45.5 -183q0 -186 -123 -287.5t-312 -101.5q-98 0 -160.5 20.5t-119.5 55.5q-45 29 -70 29q-18 0 -28.5 -21.5 t-16.5 -68.5h-47z" />
<glyph unicode="T" horiz-adv-x="1271" d="M59 1450q170 -6 578 -6q406 0 575 6q-14 -145 -14 -262q0 -102 6 -168h-47q-16 158 -40.5 234.5t-86 112.5t-188.5 36h-111v-1165q0 -86 16.5 -125t57.5 -53.5t133 -18.5v-41q-106 6 -301 6q-205 0 -303 -6v41q92 4 133 18.5t57.5 53.5t16.5 125v1165h-111 q-127 0 -188.5 -36t-86 -112.5t-40.5 -234.5h-47q6 66 6 168q0 117 -15 262z" />
<glyph unicode="U" horiz-adv-x="1396" d="M55 1409v41q86 -6 262 -6q166 0 261 6v-41q-74 -4 -108 -16.5t-46 -47t-12 -112.5v-678q0 -164 22.5 -272.5t93 -174t207.5 -65.5q217 0 305 139.5t88 390.5v639q0 111 -39.5 152t-146.5 45v41q74 -6 209 -6q123 0 190 6v-41q-72 -4 -106.5 -21.5t-46.5 -57.5t-12 -118 v-616q0 -147 -19.5 -252.5t-64.5 -181.5q-51 -88 -150.5 -139.5t-224.5 -51.5q-225 0 -344 111q-90 84 -121 190.5t-31 317.5v643q0 78 -12 112.5t-46 47t-108 16.5z" />
<glyph unicode="V" horiz-adv-x="1290" d="M-12 1409v41q82 -6 219 -6q176 0 262 6v-41q-78 -4 -111.5 -19.5t-33.5 -56.5q0 -35 24 -96l371 -985l334 866q41 111 41 168q0 63 -44 92t-135 31v41q117 -6 236 -6q93 0 154 6v-41q-102 -25 -162 -178l-481 -1241h-17h-16l-500 1288q-49 127 -141 131z" />
<glyph unicode="W" horiz-adv-x="1853" d="M-14 1409v41q84 -6 219 -6q147 0 221 6v-41q-55 -4 -77.5 -20.5t-22.5 -51.5q0 -33 22 -100l299 -913l250 792l-55 162q-41 127 -121 131v41q74 -6 199 -6q176 0 262 6v-41q-78 -4 -109 -17.5t-31 -56.5q0 -37 21 -98l295 -911l252 792q32 97 32 162q0 72 -40.5 99.5 t-133.5 29.5v41q117 -6 236 -6q93 0 154 6v-41q-115 -27 -162 -178l-387 -1241h-17h-16l-356 1054l-326 -1054h-16h-17l-434 1288q-43 127 -141 131z" />
<glyph unicode="X" horiz-adv-x="1298" d="M33 0v41q61 8 117.5 55t113.5 133l309 461l-401 615q-39 59 -65.5 79.5t-71.5 22.5v43q139 -8 176 -8q137 0 289 8v-43q-74 0 -106 -11.5t-32 -33.5q0 -12 19 -45l319 -488l201 301q88 129 88 197q0 43 -39 61.5t-119 20.5v41q117 -6 236 -6q113 0 174 6v-41 q-61 -8 -117.5 -55t-113.5 -133l-287 -428l424 -648q39 -59 65.5 -79.5t71.5 -22.5v-43q-139 8 -176 8q-68 0 -289 -8v43q80 0 113 7t33 26q0 16 -15 37l-350 536l-221 -330q-78 -117 -78 -180q0 -53 47 -74.5t135 -23.5v-41q-117 6 -276 6q-113 0 -174 -6z" />
<glyph unicode="Y" horiz-adv-x="1210" d="M-6 1407v43q80 -6 180 -6q199 0 287 6v-43q-143 0 -144 -78q0 -31 21 -72l340 -653l262 520q55 109 55 176q0 57 -45 82t-135 27v41q117 -6 236 -6q92 0 153 6v-41q-41 -10 -80 -52t-84 -130l-321 -637v-373q0 -78 12 -112.5t46 -47t108 -16.5v-41q-94 6 -260 6 q-176 0 -263 -6v41q74 4 108 16.5t46 47t12 112.5v307l-415 768q-37 68 -65 91.5t-54 23.5z" />
<glyph unicode="Z" horiz-adv-x="1216" d="M86 0v41l823 1362h-399q-127 0 -193.5 -36t-97.5 -116t-45 -231h-47q6 66 6 168q0 117 -14 262q152 -6 510 -6q348 0 497 6v-41l-817 -1362h402q127 0 193.5 36t97 116t45.5 231h47q-6 -63 -7 -168q0 -117 15 -262q-152 6 -510 6q-350 0 -506 -6z" />
<glyph unicode="[" horiz-adv-x="632" d="M203 -111v1467h350v-39h-166v-1389h166v-39h-350z" />
<glyph unicode="\" horiz-adv-x="761" d="M68 1479l557 -1508h67l-557 1508h-67z" />
<glyph unicode="]" horiz-adv-x="632" d="M80 -72v-39h350v1467h-350v-39h166v-1389h-166z" />
<glyph unicode="^" horiz-adv-x="1036" d="M117 880q131 63 232.5 169t150.5 225h37q49 -119 150.5 -224.5t232.5 -169.5l-16 -28q-123 45 -240 111.5t-186 134.5q-57 -68 -151.5 -134.5t-192.5 -111.5z" />
<glyph unicode="_" horiz-adv-x="1210" d="M157 -159h928v-82h-928v82z" />
<glyph unicode="`" horiz-adv-x="579" d="M102 1712q0 20 12 39q25 35 64 35q29 0 61 -21q49 -32 125 -104q14 -12 74.5 -66.5t144.5 -117.5l-14 -27q-111 55 -264 117q-104 39 -148 65q-55 35 -55 80z" />
<glyph unicode="a" horiz-adv-x="1261" d="M-6 0v41q55 14 94 62.5t74 127.5l452 1024h33l479 -1083q56 -127 142 -131v-41q-82 6 -219 6q-176 0 -263 -6v41q76 4 112 20.5t36 55.5q0 33 -29 96l-104 233h-498l-70 -153q-34 -78 -34 -128q0 -56 37.5 -86t121.5 -38v-41q-61 6 -186 6t-178 -6zM319 487h465l-231 521 z" />
<glyph unicode="b" horiz-adv-x="1234" d="M86 0v41q74 4 107.5 16.5t46 47t12.5 112.5v811q0 78 -12.5 113t-46 47t-107.5 16v41q86 -6 250 -6l209 2q35 2 80 2q199 0 305 -76.5t106 -203.5q0 -98 -69.5 -176t-221.5 -119v-4q213 -27 305.5 -116t92.5 -212q0 -98 -56.5 -174t-163 -119t-251.5 -43q-51 0 -88 2 q-127 4 -244 4q-168 0 -254 -6zM442 217q0 -74 10.5 -108.5t38 -48t84.5 -13.5q187 0 275 75t88 222q0 143 -82 216t-262 73h-152v-416zM442 668h117q158 0 219.5 71.5t61.5 200.5q0 133 -63.5 198.5t-203.5 65.5q-55 0 -82.5 -14t-38 -51t-10.5 -111v-360z" />
<glyph unicode="c" horiz-adv-x="1316" d="M111 610q0 197 77.5 347.5t217 233.5t315.5 83q100 0 170 -34t145 -99q23 -18 39 -19q41 0 53 123h48q-8 -123 -9 -430h-47q-20 106 -40.5 157.5t-61.5 104.5q-57 76 -137 116t-168 40q-121 0 -210 -74t-138.5 -213t-49.5 -328q0 -193 54.5 -328.5t147.5 -206.5t210 -71 q90 0 173 40t140 116q39 53 58.5 112.5t36.5 170.5h47q0 -322 8 -451h-47q-6 63 -18.5 93t-32.5 30q-16 0 -41 -19q-78 -66 -152 -99.5t-180 -33.5q-182 0 -319.5 75t-213 219.5t-75.5 344.5z" />
<glyph unicode="d" horiz-adv-x="1398" d="M86 0v41q74 4 107.5 16.5t46 47t12.5 112.5v811q0 78 -12.5 113t-46 47t-107.5 16v41q72 -6 199 -6l174 2q139 4 186 4q320 0 480.5 -154.5t160.5 -451.5q0 -193 -78 -337t-226 -223t-355 -79l-119 2q-115 4 -168 4q-168 0 -254 -6zM442 213q0 -74 12.5 -110.5t44 -51 t97.5 -14.5q186 0 292.5 66.5t149.5 195.5t43 332q0 299 -110.5 438t-376.5 139q-64 0 -95.5 -14t-44 -51t-12.5 -111v-819z" />
<glyph unicode="e" horiz-adv-x="1218" d="M86 0v41q74 4 107.5 16.5t46 47t12.5 112.5v811q0 78 -12.5 113t-46 47t-107.5 16v41q195 -6 573 -6q287 0 408 6q-14 -123 -14 -221q0 -80 6 -127h-47q-14 168 -70.5 234.5t-183.5 66.5h-150q-74 0 -107.5 -11t-46 -46t-12.5 -113v-381h170q66 0 101 34t47 74t22 101h47 q-6 -70 -6 -151v-78q0 -80 13 -230h-48q-12 98 -46.5 153.5t-129.5 55.5h-170v-389q0 -78 12.5 -112.5t46.5 -46t107 -11.5h150q102 0 161.5 33t90 105.5t43.5 203.5h47q-6 -55 -6 -147q0 -107 14 -242q-133 6 -449 6q-379 0 -573 -6z" />
<glyph unicode="f" horiz-adv-x="1128" d="M86 0v41q74 4 107.5 16.5t46 47t12.5 112.5v811q0 78 -12.5 113t-46 47t-107.5 16v41q195 -6 573 -6q287 0 408 6q-14 -123 -14 -221q0 -80 6 -127h-47q-14 168 -70.5 234.5t-183.5 66.5h-150q-74 0 -107.5 -11t-46 -46t-12.5 -113v-381h170q66 0 101 34t47 74t22 101h47 q-6 -70 -6 -151v-78q0 -80 13 -230h-48q-12 98 -46.5 153.5t-129.5 55.5h-170v-389q0 -78 16.5 -112.5t57.5 -47t133 -16.5v-41q-106 6 -301 6q-176 0 -262 -6z" />
<glyph unicode="g" horiz-adv-x="1353" d="M111 598q0 205 77.5 357.5t216 235.5t316.5 83q115 0 185.5 -33t150.5 -100q27 -20 41 -21q39 0 51 125h47q-8 -117 -8 -409h-47q-16 78 -40 137t-63 104q-68 78 -141.5 119t-179.5 41q-123 0 -213 -75t-139.5 -214t-49.5 -327q0 -313 115 -461t342 -148q88 0 158 17 q37 8 50 26.5t13 50.5v177q0 86 -16 124.5t-57 53t-134 18.5v41q111 -6 289 -6q139 0 213 6v-41q-47 -4 -67.5 -16t-28.5 -47t-8 -113v-303h-41q-4 49 -31 49q-12 0 -45 -14.5t-45 -18.5q-131 -45 -268 -45q-307 0 -475 165t-168 462z" />
<glyph unicode="h" horiz-adv-x="1509" d="M86 0v41q74 4 107.5 16.5t46 47t12.5 112.5v811q0 78 -12.5 113t-46 47t-107.5 16v41q86 -6 262 -6q164 0 260 6v-41q-74 -4 -107.5 -16t-46 -47t-12.5 -113v-362h625v362q0 78 -12.5 113t-46 47t-107.5 16v41q94 -6 260 -6q176 0 262 6v-41q-74 -4 -107.5 -16t-46 -47 t-12.5 -113v-811q0 -78 12.5 -112.5t46.5 -47t107 -16.5v-41q-86 6 -262 6q-164 0 -260 -6v41q74 4 107.5 16.5t46 47t12.5 112.5v408h-625v-408q0 -78 12.5 -112.5t46.5 -47t107 -16.5v-41q-94 6 -260 6q-176 0 -262 -6z" />
<glyph unicode="i" d="M86 0v41q74 4 107.5 16.5t46 47t12.5 112.5v811q0 78 -12.5 113t-46 47t-107.5 16v41q86 -6 262 -6q164 0 260 6v-41q-74 -4 -107.5 -16t-46 -47t-12.5 -113v-811q0 -78 12.5 -112.5t46.5 -47t107 -16.5v-41q-94 6 -260 6q-176 0 -262 -6z" />
<glyph unicode="j" horiz-adv-x="659" d="M-193 -250q0 41 29 69.5t70 28.5t70.5 -28.5t29.5 -69.5q0 -27 -15.5 -51.5t-37.5 -38.5q25 -4 55 -4q139 0 193 172q20 66 27.5 162t7.5 307v731q0 78 -12.5 113t-46.5 47t-107 16v41q86 -6 262 -6q164 0 260 6v-41q-74 -4 -107.5 -16t-46 -47t-12.5 -113v-545 q0 -379 -35 -534q-35 -150 -135 -240t-256 -90q-86 0 -137 33q-55 35 -56 98z" />
<glyph unicode="k" horiz-adv-x="1339" d="M86 0v41q74 4 107.5 16.5t46 47t12.5 112.5v811q0 78 -12.5 113t-46 47t-107.5 16v41q86 -6 262 -6q164 0 260 6v-41q-74 -4 -107.5 -16t-46 -47t-12.5 -113v-371q72 4 135.5 34t139.5 104l244 249q53 49 53 93q0 31 -31 49t-90 20v39q111 -6 242 -6q88 0 145 6v-39 q-74 -14 -123 -42.5t-127 -104.5l-321 -322l450 -571q72 -90 160 -125v-41q-98 6 -229 6q-139 0 -261 -6v41q66 2 94.5 11t28.5 28q0 20 -26 53l-273 379q-41 57 -86 83t-125 28v-406q0 -78 12.5 -112.5t46.5 -47t107 -16.5v-41q-94 6 -260 6q-176 0 -262 -6z" />
<glyph unicode="l" horiz-adv-x="1173" d="M86 0v41q74 4 107.5 16.5t46 47t12.5 112.5v811q0 78 -12.5 113t-46 47t-107.5 16v41q86 -6 262 -6q164 0 260 6v-41q-74 -4 -107.5 -16t-46 -47t-12.5 -113v-811q0 -78 12.5 -112.5t46.5 -46t107 -11.5h129q141 0 220 84t96 279h47q-6 -63 -6 -168q0 -106 14 -242 q-133 6 -449 6q-379 0 -573 -6z" />
<glyph unicode="m" horiz-adv-x="1742" d="M86 0v41q72 4 106.5 21.5t47 57.5t12.5 118v790q0 78 -12.5 113t-46 47t-107.5 16v41q68 -6 190 -6q98 0 175 6l411 -997l438 991h97q166 0 260 6v-41q-74 -4 -107.5 -16t-46 -47t-12.5 -113v-811q0 -78 12.5 -112.5t46 -47t107.5 -16.5v-41q-94 6 -260 6q-176 0 -262 -6 v41q74 4 107.5 16.5t45.5 47t12 112.5v899l-493 -1126h-33l-475 1124v-876q0 -80 13.5 -119t52 -56.5t120.5 -21.5v-41q-74 6 -209 6q-123 0 -190 -6z" />
<glyph unicode="n" horiz-adv-x="1402" d="M86 0v41q72 4 106.5 21.5t47 57.5t12.5 118v790q0 78 -12.5 113t-46 47t-107.5 16v41q68 -6 190 -6q111 0 189 6l653 -909v672q0 80 -13 118.5t-52 56t-121 21.5v41q74 -6 209 -6q123 0 190 6v-41q-72 -4 -106.5 -21.5t-47 -57.5t-12.5 -117v-1018h-47l-819 1134v-886 q0 -80 13.5 -119t52 -56.5t120.5 -21.5v-41q-74 6 -209 6q-123 0 -190 -6z" />
<glyph unicode="o" horiz-adv-x="1476" d="M109 610q0 197 80.5 347.5t224 233.5t325.5 83q189 0 331 -75t220 -219t78 -345q0 -197 -81 -347.5t-224 -233.5t-326 -83q-188 0 -330.5 75t-220 219.5t-77.5 344.5zM313 618q0 -182 57.5 -321t156 -214t218.5 -75q125 0 220.5 79t146.5 219t51 321q0 182 -57 321 t-155.5 214t-219.5 75q-125 0 -220 -79t-146.5 -219t-51.5 -321z" />
<glyph unicode="p" horiz-adv-x="1159" d="M86 0v41q74 4 107.5 16.5t46 47t12.5 112.5v811q0 78 -12.5 113t-46 47t-107.5 16v41q86 -6 250 -6l221 2q39 2 88 2q219 0 336 -93t117 -249q0 -98 -48.5 -188t-164 -149.5t-305.5 -59.5h-138v-287q0 -78 12.5 -112.5t46.5 -47t107 -16.5v-41q-94 6 -260 6 q-176 0 -262 -6zM442 545h117q188 0 261 90t73 244q0 166 -69.5 245.5t-229.5 79.5q-64 0 -95.5 -14t-44 -51t-12.5 -111v-483z" />
<glyph unicode="q" horiz-adv-x="1478" d="M111 610q0 197 80.5 347.5t224 233.5t325.5 83q188 0 330.5 -75t220.5 -219t78 -345q0 -184 -71.5 -328.5t-198.5 -231.5t-293 -102q-49 -6 -85 -17t-95 -36q-74 -33 -123 -47q244 -45 360 -63q215 -35 330 -35q162 0 256 43t147 135l31 -12q-43 -162 -147.5 -244 t-278.5 -82q-109 0 -218.5 34t-278.5 101q-193 76 -273 96q-85 -30 -165 -30h-5q-94 0 -94 41q0 43 111 43q72 0 153 -17q66 18 152 58q53 25 80 34q-254 23 -403.5 189t-149.5 446zM315 618q0 -182 57.5 -321t156 -214t219.5 -75q125 0 220 79t146 219t51 321 q0 182 -57 321t-155.5 214t-219.5 75q-125 0 -220 -79t-146.5 -219t-51.5 -321z" />
<glyph unicode="r" horiz-adv-x="1277" d="M86 0v41q74 4 107.5 16.5t46 47t12.5 112.5v811q0 78 -12.5 113t-46 47t-107.5 16v41q86 -6 250 -6l209 2q35 2 80 2q229 0 351 -86t122 -223q0 -119 -95.5 -217.5t-312.5 -124.5q41 -4 70 -8q109 -16 172 -65.5t90 -158.5l45 -186q16 -72 35.5 -101.5t50.5 -29.5 q51 0 113 70l28 -27q-39 -55 -89 -85t-120 -30q-172 0 -211 156l-63 256q-29 115 -85 153.5t-167 38.5h-117v-358q0 -78 12.5 -112.5t46.5 -47t107 -16.5v-41q-94 6 -260 6q-176 0 -262 -6zM442 616h138q180 0 246.5 77t66.5 218q0 147 -75 220t-245 73q-55 0 -82.5 -14 t-38 -51t-10.5 -111v-412z" />
<glyph unicode="s" horiz-adv-x="1095" d="M129 -14q8 100 8 450h47q14 -190 102.5 -307t270.5 -117q102 0 177 58.5t75 173.5q0 68 -39 120t-104.5 93t-182.5 102q-168 86 -256 172t-88 223q0 152 111.5 236t273.5 84q90 0 142.5 -19.5t107.5 -56.5q45 -29 70 -29q18 0 28.5 21.5t16.5 69.5h47q-10 -106 -10 -377 h-47q-12 147 -95.5 249.5t-240.5 102.5q-109 0 -179.5 -57.5t-70.5 -145.5q0 -63 31.5 -110.5t82 -81t142.5 -82.5l67 -37q127 -68 204 -121t124 -121.5t47 -159.5q0 -166 -119.5 -257t-300.5 -91q-98 0 -160.5 20.5t-119.5 55.5q-45 29 -70 29q-18 0 -28.5 -21.5 t-16.5 -68.5h-47z" />
<glyph unicode="t" horiz-adv-x="1292" d="M70 1245q170 -6 577 -6q406 0 576 6q-15 -135 -15 -241t6 -168h-47q-12 143 -38.5 218.5t-86 109.5t-170.5 34h-131v-960q0 -86 16.5 -125t57.5 -53.5t133 -18.5v-41q-106 6 -301 6q-205 0 -303 -6v41q92 4 133 18.5t57.5 53.5t16.5 125v960h-131q-111 0 -170.5 -34 t-86 -109.5t-38.5 -218.5h-47q6 66 6 168q0 106 -14 241z" />
<glyph unicode="u" horiz-adv-x="1347" d="M51 1204v41q86 -6 262 -6q164 0 260 6v-41q-74 -4 -107.5 -16t-45.5 -47t-12 -113v-514q0 -152 20.5 -251t87 -159.5t195.5 -60.5q205 0 288.5 129t83.5 360v476q0 111 -39.5 151.5t-146.5 44.5v41q74 -6 209 -6q123 0 190 6v-41q-72 -4 -106.5 -21.5t-47 -57.5 t-12.5 -117v-453q0 -141 -19 -240.5t-64 -173.5q-49 -78 -142.5 -124t-212.5 -46q-211 0 -323 90q-90 80 -121 182.5t-31 305.5v479q0 78 -12 113t-46 47t-108 16z" />
<glyph unicode="v" horiz-adv-x="1261" d="M-6 1204v41q84 -6 219 -6q176 0 262 6v-41q-76 -4 -111.5 -20.5t-35.5 -55.5q0 -33 28 -96l353 -794l305 680q51 111 51 174q0 57 -40 82.5t-122 29.5v41q61 -6 227 -6q87 0 138 6v-41q-57 -14 -92 -56t-80 -144l-449 -1014h-33l-479 1083q-55 127 -141 131z" />
<glyph unicode="w" horiz-adv-x="1785" d="M-12 1204v41q82 -6 219 -6q176 0 262 6v-41q-78 -4 -109.5 -19.5t-31.5 -54.5q0 -31 22 -98l291 -792l248 587l-98 246q-53 127 -142 131v41q84 -6 219 -6q176 0 262 6v-41q-78 -4 -110.5 -19.5t-32.5 -56.5q0 -35 25 -96l297 -778l219 641q39 115 39 180q0 68 -38 96.5 t-114 32.5v41q61 -6 187 -6q129 0 178 6v-41q-55 -12 -94 -58t-72 -145l-352 -1011h-33l-316 780l-333 -780h-33l-418 1083q-49 127 -141 131z" />
<glyph unicode="x" horiz-adv-x="1257" d="M33 0v41q43 4 99 44t95 93l316 412l-371 510q-45 61 -67.5 80.5t-59.5 21.5v43q92 -6 166 -6q123 0 289 6v-43q-68 0 -98.5 -8t-30.5 -27q0 -12 16 -34l299 -410l240 311q35 45 35 86q0 37 -33 60.5t-97 23.5v41q117 -6 232 -6q88 0 137 6v-41q-45 -4 -97 -41t-99 -98 l-293 -379l395 -541q39 -55 65.5 -75.5t61.5 -26.5v-43q-92 6 -166 6q-123 0 -289 -6v43q68 0 98.5 8t30.5 27q0 12 -16 35l-320 438l-258 -338q-34 -46 -34 -88q0 -39 30.5 -61.5t91.5 -22.5v-41q-117 6 -231 6q-23 0 -76 -4z" />
<glyph unicode="y" horiz-adv-x="1173" d="M-4 1202v43q131 -8 180 -8q141 0 287 8v-43q-70 0 -107 -11t-37 -50q0 -35 35 -97l310 -516l254 447q45 82 45 131q0 86 -142 96v43q76 -8 174 -8q117 0 158 8v-43q-35 -8 -63.5 -38.5t-67.5 -100.5l-322 -576v-270q0 -78 12.5 -112.5t46.5 -47t107 -16.5v-41 q-94 6 -260 6q-176 0 -262 -6v41q74 4 107.5 16.5t46 47t12.5 112.5v213l-395 657q-39 66 -64.5 87.5t-54.5 27.5z" />
<glyph unicode="z" horiz-adv-x="1177" d="M106 0v41l723 1157h-430q-106 0 -161.5 -77t-71.5 -265h-47q6 66 6 168q0 98 -14 221q145 -6 489 -6q313 0 457 6v-41l-723 -1157h450q106 0 161.5 77t72.5 265h47q-6 -63 -6 -168q0 -98 14 -221q-145 6 -489 6q-328 0 -478 -6z" />
<glyph unicode="{" horiz-adv-x="649" d="M66 608v37h10q66 4 97.5 36t44.5 110.5t13 234.5q0 127 33 199.5t109 105.5t207 33v-39q-72 -2 -105 -23.5t-46 -83t-13 -192.5q0 -139 -39 -221t-101.5 -120t-152.5 -58q90 -20 152.5 -58.5t101.5 -120t39 -221.5q0 -133 13 -196.5t47 -86t104 -24.5v-39q-131 0 -207 34 t-109 108.5t-33 203.5q0 156 -13 235t-45 110.5t-97 35.5h-10z" />
<glyph unicode="|" horiz-adv-x="454" d="M186 -399v2156h82v-2156h-82z" />
<glyph unicode="}" horiz-adv-x="649" d="M69 -80v-39q131 0 207 34t109 108.5t33 203.5q0 156 13 235t45 110.5t97 35.5h10v37h-10q-66 4 -97.5 36t-44.5 110.5t-13 234.5q0 127 -33 199.5t-109 105.5t-207 33v-39q72 -2 105 -23.5t46 -83t13 -192.5q0 -139 39 -221t101.5 -120t152.5 -58q-90 -20 -152.5 -58.5 t-101.5 -120t-39 -221.5q0 -133 -13 -196.5t-47 -86t-104 -24.5z" />
<glyph unicode="~" horiz-adv-x="1323" d="M147 551q12 98 94.5 157.5t194.5 59.5q68 0 126.5 -19.5t142.5 -60.5q80 -39 135 -58.5t116 -19.5q135 0 185 119l35 -10q-12 -98 -94.5 -157.5t-194.5 -59.5q-68 0 -126.5 19.5t-142.5 60.5q-80 39 -135 58t-116 19q-135 0 -185 -118z" />
<glyph unicode="&#xa1;" horiz-adv-x="579" d="M158 1143q0 53 39 92t92 39t92 -39t39 -92t-39 -92t-92 -39t-92 39t-39 92zM197 86q0 74 30 332q35 279 45 426h37q10 -147 45 -426q31 -258 31 -332q0 -59 -25.5 -87t-68.5 -28q-41 0 -67.5 29t-26.5 86z" />
<glyph unicode="&#xa2;" horiz-adv-x="1103" d="M68 610q0 154 63.5 274t173 189.5t242.5 77.5v303h41v-303q76 -2 130 -22.5t111 -55.5q18 -12 35 -12q45 0 58 82h47q-8 -106 -8 -369h-48q-20 100 -40.5 146.5t-61.5 95.5q-41 47 -100.5 72.5t-122.5 25.5v-983h14q66 0 128.5 24.5t103.5 73.5q41 45 59 100.5t35 162.5 h47q0 -277 8 -390h-47q-12 82 -55 82q-18 0 -37 -10q-63 -37 -119.5 -57.5t-136.5 -22.5v-303h-41v303q-137 6 -245.5 68.5t-171 176.5t-62.5 271zM272 618q0 -206 77 -331t198 -150v975q-127 -20 -201 -150.5t-74 -343.5z" />
<glyph unicode="&#xa3;" horiz-adv-x="1212" d="M74 -12q0 23 43 55.5t123 62.5q27 45 34 100.5t7 190.5v211h-158v41h158v164h-158v41h158q4 182 106 301t328 119q131 0 209 -57q31 -23 48 -51.5t17 -59.5q0 -43 -28.5 -71.5t-67.5 -28.5q-37 0 -65.5 26.5t-28.5 65.5q0 33 17.5 58.5t49.5 37.5q-4 20 -49 34.5 t-98 14.5q-113 0 -167 -50t-67.5 -127t-13.5 -200v-12h297v-41h-297v-164h297v-41h-297v-90q0 -90 -18.5 -152.5t-58.5 -115.5t-115 -127q57 39 113.5 58.5t121.5 19.5q70 0 191 -35q63 -18 110 -27.5t98 -9.5q70 0 105 27.5t35 68.5q0 61 -47.5 101.5t-126.5 54.5l8 33 q108 -15 185 -77.5t77 -158.5q0 -84 -59.5 -145.5t-163.5 -61.5q-63 0 -118.5 22.5t-131.5 65.5q-10 6 -55.5 31t-88.5 37q-57 16 -100 16t-94 -17t-92 -48q-39 -53 -74 -80t-76 -27q-23 0 -22 17z" />
<glyph unicode="&#xa4;" horiz-adv-x="1093" d="M156 316l88 88q-86 106 -86 243t88 246l-90 90l57 58l90 -90q49 41 112.5 63.5t131.5 22.5q135 0 244 -89l92 93l57 -58l-92 -92q86 -109 86 -244q0 -137 -86 -243l90 -88l-57 -60l-90 90q-109 -86 -244 -86q-141 0 -244 84l-88 -88zM242 647q0 -84 42 -155.5 t111.5 -113.5t151.5 -42t151.5 42t110.5 113.5t41 155.5q0 82 -41 155t-110.5 116t-151.5 43t-152.5 -43t-111.5 -115t-41 -156z" />
<glyph unicode="&#xa5;" horiz-adv-x="1277" d="M55 1202v43q131 -8 181 -8q141 0 286 8v-43q-70 0 -106.5 -11t-36.5 -50q0 -35 35 -97l309 -516l254 447q45 82 45 131q0 86 -141 96v43q76 -8 174 -8q116 0 157 8v-43q-35 -8 -63.5 -38.5t-67.5 -100.5l-311 -555h299v-41h-309v-164h309v-41h-309v-45q0 -78 12 -112.5 t46 -47t108 -16.5v-41q-94 6 -260 6q-176 0 -263 -6v41q74 4 108 16.5t46 47t12 112.5v45h-309v41h309v127l-22 37h-287v41h262l-348 579q-39 66 -64.5 87.5t-54.5 27.5z" />
<glyph unicode="&#xa6;" horiz-adv-x="458" d="M188 -399v1067h82v-1067h-82zM188 786v971h82v-971h-82z" />
<glyph unicode="&#xa7;" horiz-adv-x="1091" d="M84 762q0 63 46 125.5t138 107.5q-53 49 -71.5 92t-18.5 103q0 76 47 137.5t134 98t202 36.5q139 0 238 -41q119 -49 119 -139q0 -45 -29 -76.5t-78 -31.5q-47 0 -78 28.5t-31 73.5q0 39 21.5 64.5t56.5 33.5q-25 20 -86 34.5t-119 14.5q-125 0 -187 -47t-62 -129 q0 -63 33.5 -110t127.5 -115l320 -231q119 -88 160 -145.5t41 -139.5q0 -64 -46.5 -126.5t-138.5 -107.5q53 -49 71.5 -92t18.5 -102q0 -76 -47 -137.5t-134 -98.5t-202 -37q-139 0 -237 41q-119 49 -119 140q0 45 28.5 76.5t78.5 31.5q47 0 77.5 -28.5t30.5 -73.5 q0 -39 -21.5 -64.5t-56.5 -33.5q25 -20 86.5 -35t118.5 -15q125 0 187.5 47.5t62.5 128.5q0 63 -34 108.5t-128 117.5l-319 231q-119 90 -160 147.5t-41 137.5zM197 821q0 -51 31.5 -91t119.5 -103l340 -246q68 -49 111 -86q53 33 74.5 68.5t21.5 82.5q0 51 -32 91.5 t-120 103.5l-340 246q-68 49 -110 86q-53 -33 -74.5 -69t-21.5 -83z" />
<glyph unicode="&#xa8;" horiz-adv-x="876" d="M90 1581q0 47 35 83t84 36q47 0 83 -36t36 -83q0 -49 -36 -84t-83 -35q-49 0 -84 35t-35 84zM524 1581q0 47 35 83t84 36q47 0 83 -36t36 -83q0 -49 -36 -84t-83 -35q-49 0 -84 35t-35 84z" />
<glyph unicode="&#xa9;" horiz-adv-x="1830" d="M100 786q0 221 109.5 408.5t297 297.5t408.5 110q222 0 409 -110t297 -297t110 -409q0 -221 -110 -408.5t-297 -297t-409 -109.5q-221 0 -408.5 109.5t-297 297t-109.5 408.5zM182 786q0 -203 98.5 -374.5t267.5 -273t367 -101.5q199 0 368 101.5t267.5 273.5t98.5 374 q0 203 -98.5 375t-267.5 273.5t-368 101.5q-198 0 -367 -101.5t-267.5 -273.5t-98.5 -375zM471 774q0 166 60.5 296t169 201.5t249.5 71.5q70 0 134.5 -18t111.5 -53q86 -59 86 -152q0 -53 -30.5 -83.5t-77.5 -30.5t-80 29.5t-33 80.5q0 43 23.5 69.5t62.5 35.5 q-20 37 -72.5 61.5t-111.5 24.5q-102 0 -177 -80q-117 -127 -116 -428q0 -248 82 -364t211 -116q90 0 168.5 51.5t130.5 159.5l38 -14q-35 -117 -130 -201t-244 -84q-129 0 -232.5 65.5t-163 188.5t-59.5 289z" />
<glyph unicode="&#xaa;" horiz-adv-x="948" d="M117 897q0 80 64.5 126t201.5 97q80 31 122 55.5t42 59.5v37q0 90 -35 129t-104 39q-37 0 -78 -10.5t-74 -32.5q29 -8 49.5 -34t20.5 -63q0 -39 -27 -64.5t-63 -25.5q-45 0 -72 26t-27 67q0 82 99 129q98 47 225 47q131 0 190.5 -61.5t59.5 -198.5v-334q0 -43 11 -59.5 t40 -16.5q49 0 84 35l22 -31q-80 -76 -184 -76q-74 0 -103.5 24.5t-33.5 72.5q-98 -96 -240 -97q-76 0 -133 41t-57 119zM285 934q0 -55 30.5 -90t81.5 -35q78 0 150 65v297q-8 -16 -31.5 -32.5t-83.5 -42.5q-78 -35 -112.5 -72t-34.5 -90z" />
<glyph unicode="&#xab;" horiz-adv-x="1073" d="M76 631v2q158 88 270.5 224t200.5 331l35 -14q-72 -190 -155 -313.5t-198 -221.5q111 -96 195 -225t158 -324l-35 -14q-88 195 -201 331t-270 224zM434 631v2q158 88 270.5 224t200.5 331l35 -14q-72 -190 -155 -313.5t-197 -221.5q111 -96 194.5 -225t157.5 -324 l-35 -14q-88 195 -200.5 331t-270.5 224z" />
<glyph unicode="&#xac;" horiz-adv-x="1343" d="M168 696v62h1026v-420h-74v358h-952z" />
<glyph unicode="&#xad;" horiz-adv-x="1021" />
<glyph unicode="&#xae;" horiz-adv-x="1388" d="M123 1030q0 156 76.5 287t208 208t286.5 77q156 0 287 -77t208 -208t77 -287t-77 -287t-208 -207.5t-287 -76.5t-287 76.5t-207.5 207.5t-76.5 287zM209 1030q0 -137 64.5 -252.5t176 -184.5t244.5 -69t245 69t176.5 184.5t64.5 252.5t-64.5 253t-176.5 184.5t-245 68.5 t-244.5 -68.5t-176 -184.5t-64.5 -253zM438 721v31q31 4 39 16t8 59v449q0 47 -8 60.5t-39 17.5v30q25 -2 99 -2l176 2q117 0 177 -42t60 -119q0 -139 -200 -174q82 -8 116.5 -36t46.5 -83l25 -117q2 -8 6 -28.5t11.5 -30t19.5 -9.5q16 1 24 17l21 -14q-12 -25 -33.5 -34 t-56.5 -9q-51 0 -77 19t-36 64l-35 152q-8 41 -22.5 59.5t-49 25.5t-108.5 9v-207q0 -47 8 -59t39 -16v-31l-104 2zM602 1067h49q100 0 136 35t36 100q0 78 -32.5 115t-110.5 37q-49 0 -63.5 -13.5t-14.5 -54.5v-219z" />
<glyph unicode="&#xaf;" horiz-adv-x="843" d="M102 1530v51h721v-51h-721z" />
<glyph unicode="&#xb0;" horiz-adv-x="681" d="M92 1434q0 111 73 178t175 67q104 0 177 -67.5t73 -177.5q0 -111 -73 -179.5t-177 -68.5q-102 0 -175 68.5t-73 179.5zM143 1432q0 -100 59.5 -155.5t137.5 -55.5t138.5 55t60.5 156q0 98 -61.5 155.5t-137.5 57.5t-136.5 -57.5t-60.5 -155.5z" />
<glyph unicode="&#xb1;" horiz-adv-x="1222" d="M88 696v62h477v483h74v-483h475v-62h-475v-481h-74v481h-477zM109 0v62h1026v-62h-1026z" />
<glyph unicode="&#xb2;" horiz-adv-x="692" d="M72 897v41q35 29 82 63q90 70 143 117t94 111.5t41 136.5q0 111 -133 111q-125 0 -195 -111l-30 16q39 70 109.5 117t172.5 47q93 0 149 -39t56 -114q0 -78 -53 -138.5t-156 -138.5q-8 -6 -51 -39t-72 -65h271q45 0 62.5 15t33.5 54l35 -6q-27 -106 -31 -184q-25 6 -78 6 h-450z" />
<glyph unicode="&#xb3;" horiz-adv-x="663" d="M57 1384q39 72 111 118t176 46q94 0 150.5 -39t56.5 -110q0 -68 -52.5 -118t-138.5 -75q100 -2 169 -50t69 -134q0 -90 -79 -160.5t-202.5 -109.5t-250.5 -39v35q104 2 198 39.5t151.5 100t57.5 134.5q0 70 -41 114t-108 48q-10 -6 -34 -17.5t-40 -11.5q-33 0 -33 25 q0 20 23.5 25t66.5 3q61 27 88 69t27 83q0 53 -38 86t-101 33q-61 0 -111.5 -28t-83.5 -83z" />
<glyph unicode="&#xb4;" horiz-adv-x="579" d="M249 1477q84 63 144.5 117.5t75.5 66.5q76 72 124 104q33 21 62 21q39 0 63 -35q12 -18 13 -39q0 -45 -56 -80q-43 -27 -147 -65q-154 -61 -264 -117z" />
<glyph unicode="&#xb6;" horiz-adv-x="1316" d="M68 635q0 178 87 317.5t252.5 217t393.5 77.5q64 0 166 -4l143 -2q82 0 123 4v-39q-94 -4 -126 -35.5t-32 -103.5v-1221q0 -78 12.5 -112.5t46 -47t107.5 -16.5v-41q-94 6 -260 6q-205 0 -303 -6v41q86 4 130 22.5t60.5 58.5t16.5 116v133q-428 0 -622.5 171t-194.5 464z M250 596q0 -8 179 -18.5t394 -10.5q2 -131 14.5 -247.5t28 -189.5t21.5 -73v1082q-6 0 -21.5 -75t-28 -191.5t-14.5 -245.5q-213 0 -393 -11.5t-180 -19.5z" />
<glyph unicode="&#xb7;" horiz-adv-x="561" d="M150 626q0 53 39 92t92 39t92 -38.5t39 -92.5q0 -53 -39 -92t-92 -39t-92 39t-39 92z" />
<glyph unicode="&#xb8;" horiz-adv-x="606" d="M117 -362l8 36q43 -6 78 -6q74 0 129 21.5t55 70.5q0 57 -86 58q-57 0 -100 -15l69 207h56l-54 -157q61 14 121 14q57 0 91 -25.5t34 -70.5q0 -78 -71.5 -117t-159.5 -39q-102 0 -170 23z" />
<glyph unicode="&#xb9;" horiz-adv-x="538" d="M70 1436v43q104 2 171.5 16t123.5 47v-504q0 -57 30.5 -78.5t106.5 -21.5v-43q-78 4 -199 4q-133 0 -219 -4v43q76 0 114 21.5t38 78.5v265q0 59 -14.5 86.5t-48.5 37t-103 9.5z" />
<glyph unicode="&#xba;" horiz-adv-x="929" d="M102 1108q0 117 51.5 201t135.5 127t176 43t176 -43t135 -127t51 -201t-51 -201t-135 -127t-176 -43t-176 43t-135.5 127t-51.5 201zM272 1108q0 -168 54.5 -251t138.5 -83t138 83t54 251t-54 251t-138 83t-138.5 -83t-54.5 -251z" />
<glyph unicode="&#xbb;" horiz-adv-x="1073" d="M129 88q72 190 155 313t197 222q-111 96 -194.5 225t-157.5 323l35 15q88 -195 200.5 -331t270.5 -224v-2q-158 -88 -270.5 -224.5t-200.5 -330.5zM487 88q72 190 155 313t198 222q-111 96 -195 225t-158 323l35 15q88 -195 201 -331t270 -224v-2q-158 -88 -270.5 -224.5 t-200.5 -330.5z" />
<glyph unicode="&#xbc;" horiz-adv-x="1419" d="M103 1436v43q104 2 171.5 16t123.5 47v-504q0 -57 30.5 -78.5t106.5 -21.5v-43q-78 4 -199 4q-133 0 -219 -4v43q76 0 114 21.5t38 78.5v265q0 59 -14.5 86.5t-48.5 37t-103 9.5zM131 -86l1198 1774l39 -27l-1198 -1774zM613 37v43l469 541h43v-500h16q45 0 62.5 15.5 t33.5 53.5l35 -6q-27 -88 -29 -153q-25 6 -77 6h-41v-240h-115v240h-397zM693 121h317v366z" />
<glyph unicode="&#xbd;" horiz-adv-x="1433" d="M98 -86l1198 1774l39 -27l-1198 -1774zM119 1436v43q104 2 171.5 16t123.5 47v-504q0 -57 30.5 -78.5t106.5 -21.5v-43q-78 4 -199 4q-133 0 -219 -4v43q76 0 114 21.5t38 78.5v265q0 59 -14.5 86.5t-48.5 37t-103 9.5zM795 2v41q35 29 82 63q90 70 143 117t94 111.5 t41 136.5q0 111 -133 111q-125 0 -195 -111l-30 16q39 70 109.5 117t172.5 47q93 0 149 -39t56 -114q0 -78 -53 -138.5t-156 -138.5q-8 -6 -51 -38.5t-72 -65.5h271q45 0 62.5 15t33.5 54l35 -6q-27 -109 -31 -184q-25 6 -78 6h-450z" />
<glyph unicode="&#xbe;" horiz-adv-x="1523" d="M104 1384q39 72 111 118t176 46q94 0 150.5 -39t56.5 -110q0 -68 -52.5 -118t-138.5 -75q100 -2 169 -50t69 -134q0 -90 -79 -160.5t-202.5 -109.5t-250.5 -39v35q104 2 198 39.5t151.5 100t57.5 134.5q0 70 -41 114t-108 48q-10 -6 -34 -17.5t-40 -11.5q-33 0 -33 25 q0 20 23.5 25t66.5 3q61 27 88 69t27 83q0 53 -38 86t-101 33q-61 0 -111.5 -28t-83.5 -83zM227 -86l1198 1774l39 -27l-1198 -1774zM709 37v43l469 541h43v-500h16q45 0 62.5 15.5t33.5 53.5l35 -6q-27 -88 -29 -153q-25 6 -77 6h-41v-240h-115v240h-397zM789 121h317v366z " />
<glyph unicode="&#xbf;" horiz-adv-x="878" d="M72 268q0 106 73.5 185t182 124.5t217.5 59.5l-51 190l41 11l67 -224q-174 -35 -261 -117.5t-87 -238.5q0 -115 57.5 -183.5t161.5 -68.5q84 0 152 25q84 31 77 75q-33 8 -55 34t-22 61q0 41 27.5 67.5t66.5 26.5q43 0 69.5 -31t26.5 -76q0 -51 -39 -101t-117 -83 q-88 -33 -196 -33q-176 0 -283.5 79t-107.5 218zM328 1143q0 53 39 92t92 39t92 -39t39 -92t-39 -92t-92 -39t-92 39t-39 92z" />
<glyph unicode="&#xc0;" horiz-adv-x="1290" d="M-14 0v41q102 25 161 178l482 1241h33l499 -1288q50 -127 142 -131v-41q-82 6 -220 6q-176 0 -262 -6v41q78 4 112 19.5t34 56.5q0 35 -25 96l-125 336h-495l-84 -217q-41 -111 -41 -168q0 -63 44 -92t134 -31v-41q-117 6 -236 6q-92 0 -153 -6zM299 1843q0 20 12 39 q25 35 64 35q29 0 61 -21q49 -32 125 -104q14 -12 74.5 -66.5t144.5 -117.5l-14 -27q-111 55 -264 117q-104 39 -148 65q-55 35 -55 80zM338 590h463l-230 612z" />
<glyph unicode="&#xc1;" horiz-adv-x="1290" d="M-14 0v41q102 25 161 178l482 1241h33l499 -1288q50 -127 142 -131v-41q-82 6 -220 6q-176 0 -262 -6v41q78 4 112 19.5t34 56.5q0 35 -25 96l-125 336h-495l-84 -217q-41 -111 -41 -168q0 -63 44 -92t134 -31v-41q-117 6 -236 6q-92 0 -153 -6zM338 590h463l-230 612z M518 1608q84 63 144.5 117.5t74.5 66.5q76 72 125 104q32 21 61 21q39 0 64 -35q12 -18 12 -39q0 -45 -55 -80q-43 -27 -148 -65q-154 -61 -264 -117z" />
<glyph unicode="&#xc2;" horiz-adv-x="1290" d="M-14 0v41q102 25 161 178l482 1241h33l499 -1288q50 -127 142 -131v-41q-82 6 -220 6q-176 0 -262 -6v41q78 4 112 19.5t34 56.5q0 35 -25 96l-125 336h-495l-84 -217q-41 -111 -41 -168q0 -63 44 -92t134 -31v-41q-117 6 -236 6q-92 0 -153 -6zM241 1606 q131 45 232.5 117.5t150.5 152.5h37q49 -80 150.5 -152.5t232.5 -117.5l-10 -29q-123 27 -242.5 65.5t-189.5 77.5q-57 -39 -154.5 -77.5t-195.5 -65.5zM338 590h463l-230 612z" />
<glyph unicode="&#xc3;" horiz-adv-x="1290" d="M-14 0v41q102 25 161 178l482 1241h33l499 -1288q50 -127 142 -131v-41q-82 6 -220 6q-176 0 -262 -6v41q78 4 112 19.5t34 56.5q0 35 -25 96l-125 336h-495l-84 -217q-41 -111 -41 -168q0 -63 44 -92t134 -31v-41q-117 6 -236 6q-92 0 -153 -6zM250 1630 q8 98 73.5 157.5t153.5 59.5q51 0 96 -20.5t109 -61.5q72 -41 109.5 -58t82.5 -17q94 0 127 114l31 -6q-8 -98 -73.5 -157.5t-153.5 -59.5q-51 0 -96.5 20.5t-108.5 61.5q-72 41 -110 58.5t-83 17.5q-47 0 -77.5 -25.5t-49.5 -89.5zM338 590h463l-230 612z" />
<glyph unicode="&#xc4;" horiz-adv-x="1290" d="M-14 0v41q102 25 161 178l482 1241h33l499 -1288q50 -127 142 -131v-41q-82 6 -220 6q-176 0 -262 -6v41q78 4 112 19.5t34 56.5q0 35 -25 96l-125 336h-495l-84 -217q-41 -111 -41 -168q0 -63 44 -92t134 -31v-41q-117 6 -236 6q-92 0 -153 -6zM307 1700q0 47 35 83 t84 36q47 0 83 -36t36 -83q0 -49 -36 -84t-83 -35q-49 0 -84 35t-35 84zM338 590h463l-230 612zM741 1700q0 47 35 83t84 36q47 0 83 -36t36 -83q0 -49 -36 -84t-83 -35q-49 0 -84 35t-35 84z" />
<glyph unicode="&#xc5;" horiz-adv-x="1290" d="M-14 0v41q102 25 161 178l482 1241h33l499 -1288q50 -127 142 -131v-41q-82 6 -220 6q-176 0 -262 -6v41q78 4 112 19.5t34 56.5q0 35 -25 96l-125 336h-495l-84 -217q-41 -111 -41 -168q0 -63 44 -92t134 -31v-41q-117 6 -236 6q-92 0 -153 -6zM338 590h463l-230 612z M446 1708q0 84 57.5 135t139.5 51t140 -51t58 -135t-58 -136t-140 -52t-139.5 52t-57.5 136zM503 1706q0 -68 42 -105.5t98 -37.5q55 0 98 37.5t43 105.5t-43 106.5t-98 38.5q-54 0 -97 -39.5t-43 -105.5z" />
<glyph unicode="&#xc6;" horiz-adv-x="1748" d="M-20 0v41q33 2 66.5 31.5t74.5 99.5l717 1184q-14 29 -47 39t-101 14v41q127 -4 203 -4l82 135h49l-82 -135q113 -2 281 -2q272 0 387 6q-14 -135 -15 -242q0 -80 7 -127h-48q-10 133 -28.5 197.5t-59.5 94.5t-125 30h-129q-74 0 -107.5 -11.5t-45.5 -46t-12 -112.5v-483 h149q82 0 108.5 52t32.5 106.5t9 70.5h47q-6 -76 -7 -166v-84q0 -88 13 -250h-47q-2 12 -9.5 84t-44 109t-102.5 37h-149v-492q0 -78 12 -112.5t46 -46t107 -11.5h150q98 0 143 33t61.5 102.5t28.5 227.5h47q-6 -55 -6 -148q1 -117 15 -262q-127 6 -428 6q-322 0 -492 -6v41 q57 4 82 16.5t34 47t9 112.5v492h-358l-299 -496q-37 -63 -37 -100q0 -35 34.5 -51.5t106.5 -20.5v-41q-61 6 -186 6q-84 0 -137 -6zM522 750h334v483q0 47 -2 65z" />
<glyph unicode="&#xc7;" horiz-adv-x="1409" d="M109 713q0 225 82.5 399t231 270.5t337.5 96.5q123 0 209 -35t168 -98q23 -18 39 -19q41 0 53 123h47q-8 -133 -8 -471h-47q-23 133 -41.5 191.5t-61.5 111.5q-61 80 -156.5 120t-205.5 40q-133 0 -232.5 -88t-155 -251t-55.5 -382q0 -223 59.5 -383t165 -243t238.5 -83 q102 0 198.5 39t151.5 117q41 57 59.5 122.5t35.5 201.5h47q0 -352 8 -492h-47q-6 66 -17.5 93.5t-31.5 27.5q-16 0 -43 -17q-92 -66 -176 -99.5t-203 -33.5q-195 0 -341.5 88t-227 255t-80.5 399zM580 -362l8 36q43 -6 78 -6q74 0 129 21.5t55 70.5q0 57 -86 58 q-57 0 -100 -15l70 207h55l-53 -157q61 14 120 14q57 0 91 -25.5t34 -70.5q0 -78 -71.5 -117t-159.5 -39q-102 0 -170 23z" />
<glyph unicode="&#xc8;" horiz-adv-x="1247" d="M86 0v41q74 4 107.5 16.5t46 47t12.5 112.5v1016q0 78 -12.5 112.5t-46 47t-107.5 16.5v41q201 -6 594 -6q301 0 428 6q-14 -135 -14 -242q0 -80 6 -127h-47q-14 133 -37 197.5t-76 94.5t-162 30h-170q-74 0 -107.5 -11.5t-46 -46t-12.5 -112.5v-483h136q72 0 110.5 33.5 t52 79.5t21.5 116l6 41h47q-6 -86 -6 -193v-98q0 -104 12 -291h-47q-2 14 -12 99.5t-56.5 128.5t-127.5 43h-136v-492q0 -78 12.5 -112.5t46.5 -46t107 -11.5h150q127 0 193.5 34t97 108.5t45.5 220.5h47q-6 -55 -6 -148q0 -117 14 -262q-139 6 -469 6q-393 0 -594 -6z M283 1843q0 20 12 39q25 35 64 35q29 0 61 -21q49 -32 125 -104q14 -12 74.5 -66.5t144.5 -117.5l-14 -27q-111 55 -264 117q-104 39 -148 65q-55 35 -55 80z" />
<glyph unicode="&#xc9;" horiz-adv-x="1247" d="M86 0v41q74 4 107.5 16.5t46 47t12.5 112.5v1016q0 78 -12.5 112.5t-46 47t-107.5 16.5v41q201 -6 594 -6q301 0 428 6q-14 -135 -14 -242q0 -80 6 -127h-47q-14 133 -37 197.5t-76 94.5t-162 30h-170q-74 0 -107.5 -11.5t-46 -46t-12.5 -112.5v-483h136q72 0 110.5 33.5 t52 79.5t21.5 116l6 41h47q-6 -86 -6 -193v-98q0 -104 12 -291h-47q-2 14 -12 99.5t-56.5 128.5t-127.5 43h-136v-492q0 -78 12.5 -112.5t46.5 -46t107 -11.5h150q127 0 193.5 34t97 108.5t45.5 220.5h47q-6 -55 -6 -148q0 -117 14 -262q-139 6 -469 6q-393 0 -594 -6z M502 1608q84 63 144.5 117.5t74.5 66.5q76 72 125 104q32 21 61 21q39 0 64 -35q12 -18 12 -39q0 -45 -55 -80q-43 -27 -148 -65q-154 -61 -264 -117z" />
<glyph unicode="&#xca;" horiz-adv-x="1247" d="M86 0v41q74 4 107.5 16.5t46 47t12.5 112.5v1016q0 78 -12.5 112.5t-46 47t-107.5 16.5v41q201 -6 594 -6q301 0 428 6q-14 -135 -14 -242q0 -80 6 -127h-47q-14 133 -37 197.5t-76 94.5t-162 30h-170q-74 0 -107.5 -11.5t-46 -46t-12.5 -112.5v-483h136q72 0 110.5 33.5 t52 79.5t21.5 116l6 41h47q-6 -86 -6 -193v-98q0 -104 12 -291h-47q-2 14 -12 99.5t-56.5 128.5t-127.5 43h-136v-492q0 -78 12.5 -112.5t46.5 -46t107 -11.5h150q127 0 193.5 34t97 108.5t45.5 220.5h47q-6 -55 -6 -148q0 -117 14 -262q-139 6 -469 6q-393 0 -594 -6z M225 1606q131 45 232.5 117.5t150.5 152.5h37q49 -80 150.5 -152.5t232.5 -117.5l-10 -29q-123 27 -242.5 65.5t-189.5 77.5q-57 -39 -154.5 -77.5t-195.5 -65.5z" />
<glyph unicode="&#xcb;" horiz-adv-x="1247" d="M86 0v41q74 4 107.5 16.5t46 47t12.5 112.5v1016q0 78 -12.5 112.5t-46 47t-107.5 16.5v41q201 -6 594 -6q301 0 428 6q-14 -135 -14 -242q0 -80 6 -127h-47q-14 133 -37 197.5t-76 94.5t-162 30h-170q-74 0 -107.5 -11.5t-46 -46t-12.5 -112.5v-483h136q72 0 110.5 33.5 t52 79.5t21.5 116l6 41h47q-6 -86 -6 -193v-98q0 -104 12 -291h-47q-2 14 -12 99.5t-56.5 128.5t-127.5 43h-136v-492q0 -78 12.5 -112.5t46.5 -46t107 -11.5h150q127 0 193.5 34t97 108.5t45.5 220.5h47q-6 -55 -6 -148q0 -117 14 -262q-139 6 -469 6q-393 0 -594 -6z M291 1700q0 47 35 83t84 36q47 0 83 -36t36 -83q0 -49 -36 -84t-83 -35q-49 0 -84 35t-35 84zM725 1700q0 47 35 83t84 36q47 0 83 -36t36 -83q0 -49 -36 -84t-83 -35q-49 0 -84 35t-35 84z" />
<glyph unicode="&#xcc;" d="M4 1843q0 20 12 39q25 35 64 35q29 0 61 -21q49 -32 125 -104q14 -12 74.5 -66.5t144.5 -117.5l-14 -27q-111 55 -264 117q-104 39 -148 65q-55 35 -55 80zM86 0v41q74 4 107.5 16.5t46 47t12.5 112.5v1016q0 78 -12.5 112.5t-46 47t-107.5 16.5v41q86 -6 262 -6 q164 0 260 6v-41q-74 -4 -107.5 -16.5t-46 -47t-12.5 -112.5v-1016q0 -78 12.5 -112.5t46.5 -47t107 -16.5v-41q-94 6 -260 6q-176 0 -262 -6z" />
<glyph unicode="&#xcd;" d="M86 0v41q74 4 107.5 16.5t46 47t12.5 112.5v1016q0 78 -12.5 112.5t-46 47t-107.5 16.5v41q86 -6 262 -6q164 0 260 6v-41q-74 -4 -107.5 -16.5t-46 -47t-12.5 -112.5v-1016q0 -78 12.5 -112.5t46.5 -47t107 -16.5v-41q-94 6 -260 6q-176 0 -262 -6zM223 1608 q84 63 144.5 117.5t74.5 66.5q76 72 125 104q32 21 61 21q39 0 64 -35q12 -18 12 -39q0 -45 -55 -80q-43 -27 -148 -65q-154 -61 -264 -117z" />
<glyph unicode="&#xce;" d="M-54 1606q131 45 232.5 117.5t150.5 152.5h37q49 -80 150.5 -152.5t232.5 -117.5l-10 -29q-123 27 -242.5 65.5t-189.5 77.5q-57 -39 -154.5 -77.5t-195.5 -65.5zM86 0v41q74 4 107.5 16.5t46 47t12.5 112.5v1016q0 78 -12.5 112.5t-46 47t-107.5 16.5v41q86 -6 262 -6 q164 0 260 6v-41q-74 -4 -107.5 -16.5t-46 -47t-12.5 -112.5v-1016q0 -78 12.5 -112.5t46.5 -47t107 -16.5v-41q-94 6 -260 6q-176 0 -262 -6z" />
<glyph unicode="&#xcf;" d="M12 1700q0 47 35 83t84 36q47 0 83 -36t36 -83q0 -49 -36 -84t-83 -35q-49 0 -84 35t-35 84zM86 0v41q74 4 107.5 16.5t46 47t12.5 112.5v1016q0 78 -12.5 112.5t-46 47t-107.5 16.5v41q86 -6 262 -6q164 0 260 6v-41q-74 -4 -107.5 -16.5t-46 -47t-12.5 -112.5v-1016 q0 -78 12.5 -112.5t46.5 -47t107 -16.5v-41q-94 6 -260 6q-176 0 -262 -6zM446 1700q0 47 35 83t84 36q47 0 83 -36t36 -83q0 -49 -36 -84t-83 -35q-49 0 -84 35t-35 84z" />
<glyph unicode="&#xd0;" horiz-adv-x="1480" d="M61 708v41h639v-41h-639zM86 0v41q74 4 107.5 16.5t46 47t12.5 112.5v1016q0 78 -12.5 112.5t-46 47t-107.5 16.5v41q72 -6 199 -6l174 2q139 4 186 4q363 0 543 -181.5t180 -527.5q0 -223 -88 -391t-255 -259t-398 -91l-119 2q-115 4 -168 4q-168 0 -254 -6zM442 213 q0 -74 12.5 -110.5t44 -51t97.5 -14.5q217 0 342 79t175 230.5t50 386.5q0 236 -55 384.5t-179 222t-335 73.5q-64 0 -95.5 -14.5t-44 -51t-12.5 -110.5v-1024z" />
<glyph unicode="&#xd1;" horiz-adv-x="1445" d="M86 0v41q72 4 106.5 21.5t47 57.5t12.5 118v995q0 78 -12.5 112.5t-46 47t-107.5 16.5v41q68 -6 190 -6q92 0 160 6l723 -1114v876q0 80 -13 119t-52 56.5t-121 21.5v41q74 -6 209 -6q123 0 190 6v-41q-72 -4 -106.5 -21.5t-47 -57.5t-12.5 -118v-1222h-47l-860 1329 v-1081q0 -80 13.5 -119t52 -56.5t120.5 -21.5v-41q-74 6 -209 6q-123 0 -190 -6zM373 1630q8 98 73.5 157.5t153.5 59.5q51 0 96 -20.5t109 -61.5q72 -41 109.5 -58t82.5 -17q94 0 127 114l31 -6q-8 -98 -73.5 -157.5t-153.5 -59.5q-51 0 -96.5 20.5t-108.5 61.5 q-72 41 -110 58.5t-83 17.5q-47 0 -77.5 -25.5t-49.5 -89.5z" />
<glyph unicode="&#xd2;" horiz-adv-x="1517" d="M109 713q0 225 82.5 399t231 270.5t337.5 96.5q194 0 340.5 -88t227.5 -255t81 -399q0 -225 -83 -399t-231.5 -270.5t-336.5 -96.5q-195 0 -341.5 88t-227 255t-80.5 399zM313 721q0 -213 60.5 -375t163 -250t229.5 -88q131 0 230.5 91t153.5 255t54 375q0 213 -60.5 375 t-162.5 250t-229 88q-131 0 -230.5 -91t-154 -255t-54.5 -375zM412 1843q0 20 12 39q25 35 64 35q29 0 61 -21q49 -32 125 -104q14 -12 74.5 -66.5t144.5 -117.5l-14 -27q-111 55 -264 117q-104 39 -148 65q-55 35 -55 80z" />
<glyph unicode="&#xd3;" horiz-adv-x="1517" d="M109 713q0 225 82.5 399t231 270.5t337.5 96.5q194 0 340.5 -88t227.5 -255t81 -399q0 -225 -83 -399t-231.5 -270.5t-336.5 -96.5q-195 0 -341.5 88t-227 255t-80.5 399zM313 721q0 -213 60.5 -375t163 -250t229.5 -88q131 0 230.5 91t153.5 255t54 375q0 213 -60.5 375 t-162.5 250t-229 88q-131 0 -230.5 -91t-154 -255t-54.5 -375zM631 1608q84 63 144.5 117.5t74.5 66.5q76 72 125 104q32 21 61 21q39 0 64 -35q12 -18 12 -39q0 -45 -55 -80q-43 -27 -148 -65q-154 -61 -264 -117z" />
<glyph unicode="&#xd4;" horiz-adv-x="1517" d="M109 713q0 225 82.5 399t231 270.5t337.5 96.5q194 0 340.5 -88t227.5 -255t81 -399q0 -225 -83 -399t-231.5 -270.5t-336.5 -96.5q-195 0 -341.5 88t-227 255t-80.5 399zM313 721q0 -213 60.5 -375t163 -250t229.5 -88q131 0 230.5 91t153.5 255t54 375q0 213 -60.5 375 t-162.5 250t-229 88q-131 0 -230.5 -91t-154 -255t-54.5 -375zM354 1606q131 45 232.5 117.5t150.5 152.5h37q49 -80 150.5 -152.5t232.5 -117.5l-10 -29q-123 27 -242.5 65.5t-189.5 77.5q-57 -39 -154.5 -77.5t-195.5 -65.5z" />
<glyph unicode="&#xd5;" horiz-adv-x="1517" d="M109 713q0 225 82.5 399t231 270.5t337.5 96.5q194 0 340.5 -88t227.5 -255t81 -399q0 -225 -83 -399t-231.5 -270.5t-336.5 -96.5q-195 0 -341.5 88t-227 255t-80.5 399zM313 721q0 -213 60.5 -375t163 -250t229.5 -88q131 0 230.5 91t153.5 255t54 375q0 213 -60.5 375 t-162.5 250t-229 88q-131 0 -230.5 -91t-154 -255t-54.5 -375zM363 1630q8 98 73.5 157.5t153.5 59.5q51 0 96 -20.5t109 -61.5q72 -41 109.5 -58t82.5 -17q94 0 127 114l31 -6q-8 -98 -73.5 -157.5t-153.5 -59.5q-51 0 -96.5 20.5t-108.5 61.5q-72 41 -110 58.5t-83 17.5 q-47 0 -77.5 -25.5t-49.5 -89.5z" />
<glyph unicode="&#xd6;" horiz-adv-x="1517" d="M109 713q0 225 82.5 399t231 270.5t337.5 96.5q194 0 340.5 -88t227.5 -255t81 -399q0 -225 -83 -399t-231.5 -270.5t-336.5 -96.5q-195 0 -341.5 88t-227 255t-80.5 399zM313 721q0 -213 60.5 -375t163 -250t229.5 -88q131 0 230.5 91t153.5 255t54 375q0 213 -60.5 375 t-162.5 250t-229 88q-131 0 -230.5 -91t-154 -255t-54.5 -375zM420 1700q0 47 35 83t84 36q47 0 83 -36t36 -83q0 -49 -36 -84t-83 -35q-49 0 -84 35t-35 84zM854 1700q0 47 35 83t84 36q47 0 83 -36t36 -83q0 -49 -36 -84t-83 -35q-49 0 -84 35t-35 84z" />
<glyph unicode="&#xd7;" horiz-adv-x="1044" d="M121 1085l45 45l358 -358l355 354l45 -45l-355 -352l355 -354l-45 -45l-355 354l-356 -356l-45 45l356 354z" />
<glyph unicode="&#xd8;" horiz-adv-x="1517" d="M109 713q0 225 82.5 399t231 270.5t337.5 96.5q236 0 397 -127l160 231l39 -27l-162 -235q104 -96 159.5 -244.5t55.5 -339.5q0 -225 -83 -399t-231.5 -270.5t-336.5 -96.5q-236 0 -398 127l-167 -248l-43 29l172 252q-102 96 -157.5 243.5t-55.5 338.5zM313 721 q0 -279 103 -471l657 997q-61 94 -144 144.5t-177 50.5q-131 0 -230.5 -91t-154 -255t-54.5 -375zM446 201q59 -92 142.5 -142.5t177.5 -50.5q131 0 230.5 91t153.5 255t54 375q0 281 -104 473z" />
<glyph unicode="&#xd9;" horiz-adv-x="1396" d="M55 1409v41q86 -6 262 -6q166 0 261 6v-41q-74 -4 -108 -16.5t-46 -47t-12 -112.5v-678q0 -164 22.5 -272.5t93 -174t207.5 -65.5q217 0 305 139.5t88 390.5v639q0 111 -39.5 152t-146.5 45v41q74 -6 209 -6q123 0 190 6v-41q-72 -4 -106.5 -21.5t-46.5 -57.5t-12 -118 v-616q0 -147 -19.5 -252.5t-64.5 -181.5q-51 -88 -150.5 -139.5t-224.5 -51.5q-225 0 -344 111q-90 84 -121 190.5t-31 317.5v643q0 78 -12 112.5t-46 47t-108 16.5zM377 1843q0 20 12 39q25 35 64 35q29 0 61 -21q49 -32 125 -104q14 -12 74.5 -66.5t144.5 -117.5l-14 -27 q-111 55 -264 117q-104 39 -148 65q-55 35 -55 80z" />
<glyph unicode="&#xda;" horiz-adv-x="1396" d="M55 1409v41q86 -6 262 -6q166 0 261 6v-41q-74 -4 -108 -16.5t-46 -47t-12 -112.5v-678q0 -164 22.5 -272.5t93 -174t207.5 -65.5q217 0 305 139.5t88 390.5v639q0 111 -39.5 152t-146.5 45v41q74 -6 209 -6q123 0 190 6v-41q-72 -4 -106.5 -21.5t-46.5 -57.5t-12 -118 v-616q0 -147 -19.5 -252.5t-64.5 -181.5q-51 -88 -150.5 -139.5t-224.5 -51.5q-225 0 -344 111q-90 84 -121 190.5t-31 317.5v643q0 78 -12 112.5t-46 47t-108 16.5zM596 1608q84 63 144.5 117.5t74.5 66.5q76 72 125 104q32 21 61 21q39 0 64 -35q12 -18 12 -39 q0 -45 -55 -80q-43 -27 -148 -65q-154 -61 -264 -117z" />
<glyph unicode="&#xdb;" horiz-adv-x="1396" d="M55 1409v41q86 -6 262 -6q166 0 261 6v-41q-74 -4 -108 -16.5t-46 -47t-12 -112.5v-678q0 -164 22.5 -272.5t93 -174t207.5 -65.5q217 0 305 139.5t88 390.5v639q0 111 -39.5 152t-146.5 45v41q74 -6 209 -6q123 0 190 6v-41q-72 -4 -106.5 -21.5t-46.5 -57.5t-12 -118 v-616q0 -147 -19.5 -252.5t-64.5 -181.5q-51 -88 -150.5 -139.5t-224.5 -51.5q-225 0 -344 111q-90 84 -121 190.5t-31 317.5v643q0 78 -12 112.5t-46 47t-108 16.5zM319 1606q131 45 232.5 117.5t150.5 152.5h37q49 -80 150.5 -152.5t232.5 -117.5l-10 -29 q-123 27 -242.5 65.5t-189.5 77.5q-57 -39 -154.5 -77.5t-195.5 -65.5z" />
<glyph unicode="&#xdc;" horiz-adv-x="1396" d="M55 1409v41q86 -6 262 -6q166 0 261 6v-41q-74 -4 -108 -16.5t-46 -47t-12 -112.5v-678q0 -164 22.5 -272.5t93 -174t207.5 -65.5q217 0 305 139.5t88 390.5v639q0 111 -39.5 152t-146.5 45v41q74 -6 209 -6q123 0 190 6v-41q-72 -4 -106.5 -21.5t-46.5 -57.5t-12 -118 v-616q0 -147 -19.5 -252.5t-64.5 -181.5q-51 -88 -150.5 -139.5t-224.5 -51.5q-225 0 -344 111q-90 84 -121 190.5t-31 317.5v643q0 78 -12 112.5t-46 47t-108 16.5zM385 1700q0 47 35 83t84 36q47 0 83 -36t36 -83q0 -49 -36 -84t-83 -35q-49 0 -84 35t-35 84zM819 1700 q0 47 35 83t84 36q47 0 83 -36t36 -83q0 -49 -36 -84t-83 -35q-49 0 -84 35t-35 84z" />
<glyph unicode="&#xdd;" horiz-adv-x="1210" d="M-6 1407v43q80 -6 180 -6q199 0 287 6v-43q-143 0 -144 -78q0 -31 21 -72l340 -653l262 520q55 109 55 176q0 57 -45 82t-135 27v41q117 -6 236 -6q92 0 153 6v-41q-41 -10 -80 -52t-84 -130l-321 -637v-373q0 -78 12 -112.5t46 -47t108 -16.5v-41q-94 6 -260 6 q-176 0 -263 -6v41q74 4 108 16.5t46 47t12 112.5v307l-415 768q-37 68 -65 91.5t-54 23.5zM498 1608q84 63 144.5 117.5t74.5 66.5q76 72 125 104q32 21 61 21q39 0 64 -35q12 -18 12 -39q0 -45 -55 -80q-43 -27 -148 -65q-154 -61 -264 -117z" />
<glyph unicode="&#xde;" horiz-adv-x="1187" d="M86 0v41q74 4 107.5 16.5t46 47t12.5 112.5v1016q0 78 -12.5 112.5t-46 47t-107.5 16.5v41q86 -6 262 -6q164 0 260 6v-41q-74 -4 -107.5 -16.5t-46 -47t-12.5 -112.5v-92l189 4q160 0 271.5 -52.5t166.5 -142.5t55 -205q0 -117 -50 -221t-170 -172.5t-318 -68.5h-144 v-66q0 -78 12.5 -112.5t46.5 -47t107 -16.5v-41q-94 6 -260 6q-176 0 -262 -6zM442 324h123q201 0 278 110.5t77 298.5t-80 280.5t-260 92.5q-93 0 -138 -2v-780z" />
<glyph unicode="&#xdf;" horiz-adv-x="1339" d="M35 0v41q74 4 107.5 16.5t46 47t12.5 112.5v404q0 653 534 653q127 0 231.5 -37t196.5 -109l-309 -407q174 -37 287.5 -137.5t113.5 -249.5q0 -100 -54 -183t-155.5 -131.5t-238.5 -48.5q-115 0 -193 37q-51 25 -75.5 61.5t-24.5 80.5q0 47 30.5 77.5t78.5 30.5 q49 0 80.5 -29.5t31.5 -81.5q0 -43 -23.5 -69.5t-62.5 -34.5q16 -16 62.5 -24.5t85.5 -8.5q121 0 187.5 97.5t66.5 232.5q0 164 -101.5 267.5t-279.5 127.5l321 443q-37 29 -102.5 44t-130.5 15q-164 0 -265.5 -111.5t-101.5 -380.5v-528q0 -72 9.5 -107.5t33 -51 t70.5 -17.5v-41l-76 2q-74 4 -158 4q-150 0 -235 -6z" />
<glyph unicode="&#xe0;" horiz-adv-x="1261" d="M-6 0v41q55 14 94 62.5t74 127.5l452 1024h33l479 -1083q56 -127 142 -131v-41q-82 6 -219 6q-176 0 -263 -6v41q76 4 112 20.5t36 55.5q0 33 -29 96l-104 233h-498l-70 -153q-35 -80 -34 -131q0 -53 37.5 -83t121.5 -38v-41q-61 6 -186 6t-178 -6zM268 1712q0 20 12 39 q25 35 64 35q29 0 61 -21q49 -32 125 -104q14 -12 74.5 -66.5t144.5 -117.5l-14 -27q-111 55 -264 117q-104 39 -148 65q-55 35 -55 80zM319 487h465l-231 521z" />
<glyph unicode="&#xe1;" horiz-adv-x="1261" d="M-6 0v41q55 14 94 62.5t74 127.5l452 1024h33l479 -1083q56 -127 142 -131v-41q-82 6 -219 6q-176 0 -263 -6v41q76 4 112 20.5t36 55.5q0 33 -29 96l-104 233h-498l-70 -153q-35 -80 -34 -131q0 -53 37.5 -83t121.5 -38v-41q-61 6 -186 6t-178 -6zM319 487h465l-231 521 zM485 1477q84 63 144.5 117.5t75.5 66.5q76 72 124 104q33 21 62 21q39 0 63 -35q12 -18 13 -39q0 -45 -56 -80q-43 -27 -147 -65q-154 -61 -264 -117z" />
<glyph unicode="&#xe2;" horiz-adv-x="1261" d="M-6 0v41q55 14 94 62.5t74 127.5l452 1024h33l479 -1083q56 -127 142 -131v-41q-82 6 -219 6q-176 0 -263 -6v41q76 4 112 20.5t36 55.5q0 33 -29 96l-104 233h-498l-70 -153q-35 -80 -34 -131q0 -53 37.5 -83t121.5 -38v-41q-61 6 -186 6t-178 -6zM250 1479 q125 45 221.5 117.5t141.5 152.5h37q45 -80 141 -152.5t221 -117.5l-10 -29q-117 27 -230.5 65.5t-181.5 77.5q-55 -39 -146 -77.5t-184 -65.5zM319 487h465l-231 521z" />
<glyph unicode="&#xe3;" horiz-adv-x="1261" d="M-6 0v41q55 14 94 62.5t74 127.5l452 1024h33l479 -1083q56 -127 142 -131v-41q-82 6 -219 6q-176 0 -263 -6v41q76 4 112 20.5t36 55.5q0 33 -29 96l-104 233h-498l-70 -153q-35 -80 -34 -131q0 -53 37.5 -83t121.5 -38v-41q-61 6 -186 6t-178 -6zM225 1499 q23 102 82 159.5t145 57.5q52 0 98 -20.5t111 -61.5q59 -39 101.5 -57t87.5 -18q104 0 143 118l35 -10q-23 -102 -82 -159.5t-145 -57.5q-51 0 -97.5 20.5t-111.5 61.5q-59 39 -101.5 57.5t-87.5 18.5q-51 0 -87 -28t-56 -91zM319 487h465l-231 521z" />
<glyph unicode="&#xe4;" horiz-adv-x="1261" d="M-6 0v41q55 14 94 62.5t74 127.5l452 1024h33l479 -1083q56 -127 142 -131v-41q-82 6 -219 6q-176 0 -263 -6v41q76 4 112 20.5t36 55.5q0 33 -29 96l-104 233h-498l-70 -153q-35 -80 -34 -131q0 -53 37.5 -83t121.5 -38v-41q-61 6 -186 6t-178 -6zM293 1581q0 47 35 83 t84 36q47 0 83 -36t36 -83q0 -49 -36 -84t-83 -35q-49 0 -84 35t-35 84zM319 487h465l-231 521zM727 1581q0 47 35 83t84 36q47 0 83 -36t36 -83q0 -49 -36 -84t-83 -35q-49 0 -84 35t-35 84z" />
<glyph unicode="&#xe5;" horiz-adv-x="1261" d="M-6 0v41q55 14 94 62.5t74 127.5l452 1024h33l479 -1083q56 -127 142 -131v-41q-82 6 -219 6q-176 0 -263 -6v41q76 4 112 20.5t36 55.5q0 33 -29 96l-104 233h-498l-70 -153q-35 -80 -34 -131q0 -53 37.5 -83t121.5 -38v-41q-61 6 -186 6t-178 -6zM319 487h465l-231 521 zM432 1585q0 84 57 135.5t139 51.5t140.5 -51.5t58.5 -135.5t-58.5 -136t-140.5 -52t-139 52t-57 136zM489 1583q0 -68 42 -105.5t97 -37.5t98.5 38t43.5 105q0 68 -43 107t-99 39q-53 0 -96 -40t-43 -106z" />
<glyph unicode="&#xe6;" horiz-adv-x="1624" d="M-6 0v41q33 2 66.5 31.5t74.5 99.5l570 999q-18 16 -49 23.5t-85 9.5v41q111 -4 174 -4l62 109h47l-61 -109q123 -2 311 -2q258 0 366 6q-14 -123 -14 -221q0 -80 6 -127h-47q-10 123 -28.5 184.5t-59.5 89t-125 27.5h-108q-74 0 -108 -11t-46 -46t-12 -113v-381h149 q82 0 108.5 47t33 96.5t8.5 65.5h47q-6 -70 -6 -151v-78q0 -80 12 -230h-47q-2 10 -9 76t-44 99.5t-103 33.5h-149v-389q0 -78 12 -112.5t46 -46t108 -11.5h129q98 0 143 31t61.5 96.5t28.5 214.5h47q-6 -55 -6 -147q0 -107 14 -242q-121 6 -407 6q-322 0 -492 -6v41 q57 4 82 16.5t34 47t9 112.5v389h-303l-223 -393q-35 -57 -35 -98q0 -37 34 -53.5t107 -20.5v-41q-61 6 -186 6q-84 0 -137 -6zM457 647h280v381q0 68 -8 100z" />
<glyph unicode="&#xe7;" horiz-adv-x="1316" d="M111 610q0 197 77.5 347.5t217 233.5t315.5 83q100 0 170 -34t145 -99q23 -18 39 -19q41 0 53 123h48q-8 -123 -9 -430h-47q-20 106 -40.5 157.5t-61.5 104.5q-57 76 -137 116t-168 40q-121 0 -210 -74t-138.5 -213t-49.5 -328q0 -193 54.5 -328.5t147.5 -206.5t210 -71 q90 0 173 40t140 116q39 53 58.5 112.5t36.5 170.5h47q0 -322 8 -451h-47q-6 63 -18.5 93t-32.5 30q-16 0 -41 -19q-78 -66 -152 -99.5t-180 -33.5q-182 0 -319.5 75t-213 219.5t-75.5 344.5zM541 -362l8 36q43 -6 78 -6q74 0 129 21.5t55 70.5q0 57 -86 58q-57 0 -100 -15 l69 207h56l-54 -157q61 14 121 14q57 0 91 -25.5t34 -70.5q0 -78 -71.5 -117t-159.5 -39q-102 0 -170 23z" />
<glyph unicode="&#xe8;" horiz-adv-x="1218" d="M86 0v41q74 4 107.5 16.5t46 47t12.5 112.5v811q0 78 -12.5 113t-46 47t-107.5 16v41q195 -6 573 -6q287 0 408 6q-14 -123 -14 -221q0 -80 6 -127h-47q-14 168 -70.5 234.5t-183.5 66.5h-150q-74 0 -107.5 -11t-46 -46t-12.5 -113v-381h170q66 0 101 34t47 74t22 101h47 q-6 -70 -6 -151v-78q0 -80 13 -230h-48q-12 98 -46.5 153.5t-129.5 55.5h-170v-389q0 -78 12.5 -112.5t46.5 -46t107 -11.5h150q102 0 161.5 33t90 105.5t43.5 203.5h47q-6 -55 -6 -147q0 -107 14 -242q-133 6 -449 6q-379 0 -573 -6zM252 1712q0 20 12 39q25 35 64 35 q29 0 61 -21q49 -32 125 -104q14 -12 74.5 -66.5t144.5 -117.5l-14 -27q-111 55 -264 117q-104 39 -148 65q-55 35 -55 80z" />
<glyph unicode="&#xe9;" horiz-adv-x="1218" d="M86 0v41q74 4 107.5 16.5t46 47t12.5 112.5v811q0 78 -12.5 113t-46 47t-107.5 16v41q195 -6 573 -6q287 0 408 6q-14 -123 -14 -221q0 -80 6 -127h-47q-14 168 -70.5 234.5t-183.5 66.5h-150q-74 0 -107.5 -11t-46 -46t-12.5 -113v-381h170q66 0 101 34t47 74t22 101h47 q-6 -70 -6 -151v-78q0 -80 13 -230h-48q-12 98 -46.5 153.5t-129.5 55.5h-170v-389q0 -78 12.5 -112.5t46.5 -46t107 -11.5h150q102 0 161.5 33t90 105.5t43.5 203.5h47q-6 -55 -6 -147q0 -107 14 -242q-133 6 -449 6q-379 0 -573 -6zM469 1477q84 63 144.5 117.5t75.5 66.5 q76 72 124 104q33 21 62 21q39 0 63 -35q12 -18 13 -39q0 -45 -56 -80q-43 -27 -147 -65q-154 -61 -264 -117z" />
<glyph unicode="&#xea;" horiz-adv-x="1218" d="M86 0v41q74 4 107.5 16.5t46 47t12.5 112.5v811q0 78 -12.5 113t-46 47t-107.5 16v41q195 -6 573 -6q287 0 408 6q-14 -123 -14 -221q0 -80 6 -127h-47q-14 168 -70.5 234.5t-183.5 66.5h-150q-74 0 -107.5 -11t-46 -46t-12.5 -113v-381h170q66 0 101 34t47 74t22 101h47 q-6 -70 -6 -151v-78q0 -80 13 -230h-48q-12 98 -46.5 153.5t-129.5 55.5h-170v-389q0 -78 12.5 -112.5t46.5 -46t107 -11.5h150q102 0 161.5 33t90 105.5t43.5 203.5h47q-6 -55 -6 -147q0 -107 14 -242q-133 6 -449 6q-379 0 -573 -6zM233 1479q125 45 221.5 117.5 t141.5 152.5h37q45 -80 141 -152.5t221 -117.5l-10 -29q-117 27 -230.5 65.5t-181.5 77.5q-55 -39 -146 -77.5t-184 -65.5z" />
<glyph unicode="&#xeb;" horiz-adv-x="1218" d="M86 0v41q74 4 107.5 16.5t46 47t12.5 112.5v811q0 78 -12.5 113t-46 47t-107.5 16v41q195 -6 573 -6q287 0 408 6q-14 -123 -14 -221q0 -80 6 -127h-47q-14 168 -70.5 234.5t-183.5 66.5h-150q-74 0 -107.5 -11t-46 -46t-12.5 -113v-381h170q66 0 101 34t47 74t22 101h47 q-6 -70 -6 -151v-78q0 -80 13 -230h-48q-12 98 -46.5 153.5t-129.5 55.5h-170v-389q0 -78 12.5 -112.5t46.5 -46t107 -11.5h150q102 0 161.5 33t90 105.5t43.5 203.5h47q-6 -55 -6 -147q0 -107 14 -242q-133 6 -449 6q-379 0 -573 -6zM276 1581q0 47 35 83t84 36 q47 0 83 -36t36 -83q0 -49 -36 -84t-83 -35q-49 0 -84 35t-35 84zM710 1581q0 47 35 83t84 36q47 0 83 -36t36 -83q0 -49 -36 -84t-83 -35q-49 0 -84 35t-35 84z" />
<glyph unicode="&#xec;" d="M-12 1712q0 20 12 39q25 35 64 35q29 0 61 -21q49 -32 125 -104q14 -12 74.5 -66.5t144.5 -117.5l-14 -27q-111 55 -264 117q-104 39 -148 65q-55 35 -55 80zM86 0v41q74 4 107.5 16.5t46 47t12.5 112.5v811q0 78 -12.5 113t-46 47t-107.5 16v41q86 -6 262 -6 q164 0 260 6v-41q-74 -4 -107.5 -16t-46 -47t-12.5 -113v-811q0 -78 12.5 -112.5t46.5 -47t107 -16.5v-41q-94 6 -260 6q-176 0 -262 -6z" />
<glyph unicode="&#xed;" d="M86 0v41q74 4 107.5 16.5t46 47t12.5 112.5v811q0 78 -12.5 113t-46 47t-107.5 16v41q86 -6 262 -6q164 0 260 6v-41q-74 -4 -107.5 -16t-46 -47t-12.5 -113v-811q0 -78 12.5 -112.5t46.5 -47t107 -16.5v-41q-94 6 -260 6q-176 0 -262 -6zM204 1477q84 63 144.5 117.5 t75.5 66.5q76 72 124 104q33 21 62 21q39 0 63 -35q12 -18 13 -39q0 -45 -56 -80q-43 -27 -147 -65q-154 -61 -264 -117z" />
<glyph unicode="&#xee;" d="M-31 1479q125 45 221.5 117.5t141.5 152.5h37q45 -80 141 -152.5t221 -117.5l-10 -29q-117 27 -230.5 65.5t-181.5 77.5q-55 -39 -146 -77.5t-184 -65.5zM86 0v41q74 4 107.5 16.5t46 47t12.5 112.5v811q0 78 -12.5 113t-46 47t-107.5 16v41q86 -6 262 -6q164 0 260 6 v-41q-74 -4 -107.5 -16t-46 -47t-12.5 -113v-811q0 -78 12.5 -112.5t46.5 -47t107 -16.5v-41q-94 6 -260 6q-176 0 -262 -6z" />
<glyph unicode="&#xef;" d="M12 1581q0 47 35 83t84 36q47 0 83 -36t36 -83q0 -49 -36 -84t-83 -35q-49 0 -84 35t-35 84zM86 0v41q74 4 107.5 16.5t46 47t12.5 112.5v811q0 78 -12.5 113t-46 47t-107.5 16v41q86 -6 262 -6q164 0 260 6v-41q-74 -4 -107.5 -16t-46 -47t-12.5 -113v-811 q0 -78 12.5 -112.5t46.5 -47t107 -16.5v-41q-94 6 -260 6q-176 0 -262 -6zM446 1581q0 47 35 83t84 36q47 0 83 -36t36 -83q0 -49 -36 -84t-83 -35q-49 0 -84 35t-35 84z" />
<glyph unicode="&#xf0;" horiz-adv-x="1398" d="M43 606v41h639v-41h-639zM86 0v41q74 4 107.5 16.5t46 47t12.5 112.5v811q0 78 -12.5 113t-46 47t-107.5 16v41q72 -6 199 -6l174 2q139 4 186 4q320 0 480.5 -154.5t160.5 -451.5q0 -193 -78 -337t-226 -223t-355 -79l-119 2q-115 4 -168 4q-168 0 -254 -6zM442 213 q0 -74 12.5 -110.5t44 -51t97.5 -14.5q186 0 292.5 66.5t149.5 195.5t43 332q0 299 -110.5 438t-376.5 139q-64 0 -95.5 -14t-44 -51t-12.5 -111v-819z" />
<glyph unicode="&#xf1;" horiz-adv-x="1402" d="M86 0v41q72 4 106.5 21.5t47 57.5t12.5 118v790q0 78 -12.5 113t-46 47t-107.5 16v41q68 -6 190 -6q111 0 189 6l653 -909v672q0 80 -13 118.5t-52 56t-121 21.5v41q74 -6 209 -6q123 0 190 6v-41q-72 -4 -106.5 -21.5t-47 -57.5t-12.5 -117v-1018h-47l-819 1134v-886 q0 -80 13.5 -119t52 -56.5t120.5 -21.5v-41q-74 6 -209 6q-123 0 -190 -6zM311 1499q23 102 82 159.5t145 57.5q52 0 98 -20.5t111 -61.5q59 -39 101.5 -57t87.5 -18q104 0 143 118l35 -10q-23 -102 -82 -159.5t-145 -57.5q-51 0 -97.5 20.5t-111.5 61.5q-59 39 -101.5 57.5 t-87.5 18.5q-51 0 -87 -28t-56 -91z" />
<glyph unicode="&#xf2;" horiz-adv-x="1476" d="M109 610q0 197 80.5 347.5t224 233.5t325.5 83q189 0 331 -75t220 -219t78 -345q0 -197 -81 -347.5t-224 -233.5t-326 -83q-188 0 -330.5 75t-220 219.5t-77.5 344.5zM313 618q0 -182 57.5 -321t156 -214t218.5 -75q125 0 220.5 79t146.5 219t51 321q0 182 -57 321 t-155.5 214t-219.5 75q-125 0 -220 -79t-146.5 -219t-51.5 -321zM375 1712q0 20 12 39q25 35 64 35q29 0 61 -21q49 -32 125 -104q14 -12 74.5 -66.5t144.5 -117.5l-14 -27q-111 55 -264 117q-104 39 -148 65q-55 35 -55 80z" />
<glyph unicode="&#xf3;" horiz-adv-x="1476" d="M109 610q0 197 80.5 347.5t224 233.5t325.5 83q189 0 331 -75t220 -219t78 -345q0 -197 -81 -347.5t-224 -233.5t-326 -83q-188 0 -330.5 75t-220 219.5t-77.5 344.5zM313 618q0 -182 57.5 -321t156 -214t218.5 -75q125 0 220.5 79t146.5 219t51 321q0 182 -57 321 t-155.5 214t-219.5 75q-125 0 -220 -79t-146.5 -219t-51.5 -321zM591 1477q84 63 144.5 117.5t75.5 66.5q76 72 124 104q33 21 62 21q39 0 63 -35q12 -18 13 -39q0 -45 -56 -80q-43 -27 -147 -65q-154 -61 -264 -117z" />
<glyph unicode="&#xf4;" horiz-adv-x="1476" d="M109 610q0 197 80.5 347.5t224 233.5t325.5 83q189 0 331 -75t220 -219t78 -345q0 -197 -81 -347.5t-224 -233.5t-326 -83q-188 0 -330.5 75t-220 219.5t-77.5 344.5zM313 618q0 -182 57.5 -321t156 -214t218.5 -75q125 0 220.5 79t146.5 219t51 321q0 182 -57 321 t-155.5 214t-219.5 75q-125 0 -220 -79t-146.5 -219t-51.5 -321zM356 1479q125 45 221.5 117.5t141.5 152.5h37q45 -80 141 -152.5t221 -117.5l-10 -29q-117 27 -230.5 65.5t-181.5 77.5q-55 -39 -146 -77.5t-184 -65.5z" />
<glyph unicode="&#xf5;" horiz-adv-x="1476" d="M109 610q0 197 80.5 347.5t224 233.5t325.5 83q189 0 331 -75t220 -219t78 -345q0 -197 -81 -347.5t-224 -233.5t-326 -83q-188 0 -330.5 75t-220 219.5t-77.5 344.5zM313 618q0 -182 57.5 -321t156 -214t218.5 -75q125 0 220.5 79t146.5 219t51 321q0 182 -57 321 t-155.5 214t-219.5 75q-125 0 -220 -79t-146.5 -219t-51.5 -321zM332 1499q23 102 82 159.5t145 57.5q52 0 98 -20.5t111 -61.5q59 -39 101.5 -57t87.5 -18q104 0 143 118l35 -10q-23 -102 -82 -159.5t-145 -57.5q-51 0 -97.5 20.5t-111.5 61.5q-59 39 -101.5 57.5 t-87.5 18.5q-51 0 -87 -28t-56 -91z" />
<glyph unicode="&#xf6;" horiz-adv-x="1476" d="M109 610q0 197 80.5 347.5t224 233.5t325.5 83q189 0 331 -75t220 -219t78 -345q0 -197 -81 -347.5t-224 -233.5t-326 -83q-188 0 -330.5 75t-220 219.5t-77.5 344.5zM313 618q0 -182 57.5 -321t156 -214t218.5 -75q125 0 220.5 79t146.5 219t51 321q0 182 -57 321 t-155.5 214t-219.5 75q-125 0 -220 -79t-146.5 -219t-51.5 -321zM399 1581q0 47 35 83t84 36q47 0 83 -36t36 -83q0 -49 -36 -84t-83 -35q-49 0 -84 35t-35 84zM833 1581q0 47 35 83t84 36q47 0 83 -36t36 -83q0 -49 -36 -84t-83 -35q-49 0 -84 35t-35 84z" />
<glyph unicode="&#xf7;" horiz-adv-x="1329" d="M150 696v62h1026v-62h-1026zM551 432q0 47 33.5 80t79.5 33q47 0 80.5 -33t33.5 -80t-33.5 -81t-80.5 -34t-80 34t-33 81zM551 1022q0 47 33.5 80t79.5 33q47 0 80.5 -33t33.5 -80t-33.5 -80t-80.5 -33t-80 33t-33 80z" />
<glyph unicode="&#xf8;" horiz-adv-x="1476" d="M109 610q0 197 80.5 347.5t224 233.5t325.5 83q211 0 359 -92l145 211l39 -27l-143 -211q110 -82 169.5 -214t59.5 -306q0 -197 -81 -347.5t-224 -233.5t-326 -83q-197 0 -344 82l-135 -200l-45 28l137 201q-117 82 -179 216t-62 312zM313 618q0 -131 31 -241.5 t86 -190.5l594 901q-57 72 -132 111t-161 39q-125 0 -220 -79t-146.5 -219t-51.5 -321zM463 143q57 -66 129 -100.5t153 -34.5q125 0 220.5 79t146.5 219t51 321q0 252 -108 420z" />
<glyph unicode="&#xf9;" horiz-adv-x="1347" d="M51 1204v41q86 -6 262 -6q164 0 260 6v-41q-74 -4 -107.5 -16t-45.5 -47t-12 -113v-514q0 -152 20.5 -251t87 -159.5t195.5 -60.5q205 0 288.5 129t83.5 360v476q0 111 -39.5 151.5t-146.5 44.5v41q74 -6 209 -6q123 0 190 6v-41q-72 -4 -106.5 -21.5t-47 -57.5 t-12.5 -117v-453q0 -141 -19 -240.5t-64 -173.5q-49 -78 -142.5 -124t-212.5 -46q-211 0 -323 90q-90 80 -121 182.5t-31 305.5v479q0 78 -12 113t-46 47t-108 16zM324 1712q0 20 12 39q25 35 64 35q29 0 61 -21q49 -32 125 -104q14 -12 74.5 -66.5t144.5 -117.5l-14 -27 q-111 55 -264 117q-104 39 -148 65q-55 35 -55 80z" />
<glyph unicode="&#xfa;" horiz-adv-x="1347" d="M51 1204v41q86 -6 262 -6q164 0 260 6v-41q-74 -4 -107.5 -16t-45.5 -47t-12 -113v-514q0 -152 20.5 -251t87 -159.5t195.5 -60.5q205 0 288.5 129t83.5 360v476q0 111 -39.5 151.5t-146.5 44.5v41q74 -6 209 -6q123 0 190 6v-41q-72 -4 -106.5 -21.5t-47 -57.5 t-12.5 -117v-453q0 -141 -19 -240.5t-64 -173.5q-49 -78 -142.5 -124t-212.5 -46q-211 0 -323 90q-90 80 -121 182.5t-31 305.5v479q0 78 -12 113t-46 47t-108 16zM540 1477q84 63 144.5 117.5t75.5 66.5q76 72 124 104q33 21 62 21q39 0 63 -35q12 -18 13 -39 q0 -45 -56 -80q-43 -27 -147 -65q-154 -61 -264 -117z" />
<glyph unicode="&#xfb;" horiz-adv-x="1347" d="M51 1204v41q86 -6 262 -6q164 0 260 6v-41q-74 -4 -107.5 -16t-45.5 -47t-12 -113v-514q0 -152 20.5 -251t87 -159.5t195.5 -60.5q205 0 288.5 129t83.5 360v476q0 111 -39.5 151.5t-146.5 44.5v41q74 -6 209 -6q123 0 190 6v-41q-72 -4 -106.5 -21.5t-47 -57.5 t-12.5 -117v-453q0 -141 -19 -240.5t-64 -173.5q-49 -78 -142.5 -124t-212.5 -46q-211 0 -323 90q-90 80 -121 182.5t-31 305.5v479q0 78 -12 113t-46 47t-108 16zM305 1479q125 45 221.5 117.5t141.5 152.5h37q45 -80 141 -152.5t221 -117.5l-10 -29q-117 27 -230.5 65.5 t-181.5 77.5q-55 -39 -146 -77.5t-184 -65.5z" />
<glyph unicode="&#xfc;" horiz-adv-x="1347" d="M51 1204v41q86 -6 262 -6q164 0 260 6v-41q-74 -4 -107.5 -16t-45.5 -47t-12 -113v-514q0 -152 20.5 -251t87 -159.5t195.5 -60.5q205 0 288.5 129t83.5 360v476q0 111 -39.5 151.5t-146.5 44.5v41q74 -6 209 -6q123 0 190 6v-41q-72 -4 -106.5 -21.5t-47 -57.5 t-12.5 -117v-453q0 -141 -19 -240.5t-64 -173.5q-49 -78 -142.5 -124t-212.5 -46q-211 0 -323 90q-90 80 -121 182.5t-31 305.5v479q0 78 -12 113t-46 47t-108 16zM348 1581q0 47 35 83t84 36q47 0 83 -36t36 -83q0 -49 -36 -84t-83 -35q-49 0 -84 35t-35 84zM782 1581 q0 47 35 83t84 36q47 0 83 -36t36 -83q0 -49 -36 -84t-83 -35q-49 0 -84 35t-35 84z" />
<glyph unicode="&#xfd;" horiz-adv-x="1173" d="M-4 1202v43q131 -8 180 -8q141 0 287 8v-43q-70 0 -107 -11t-37 -50q0 -35 35 -97l310 -516l254 447q45 82 45 131q0 86 -142 96v43q76 -8 174 -8q117 0 158 8v-43q-35 -8 -63.5 -38.5t-67.5 -100.5l-322 -576v-270q0 -78 12.5 -112.5t46.5 -47t107 -16.5v-41 q-94 6 -260 6q-176 0 -262 -6v41q74 4 107.5 16.5t46 47t12.5 112.5v213l-395 657q-39 66 -64.5 87.5t-54.5 27.5zM452 1477q84 63 144.5 117.5t75.5 66.5q76 72 124 104q33 21 62 21q39 0 63 -35q12 -18 13 -39q0 -45 -56 -80q-43 -27 -147 -65q-154 -61 -264 -117z" />
<glyph unicode="&#xfe;" horiz-adv-x="1175" d="M86 0v41q74 4 107.5 16.5t46 47t12.5 112.5v811q0 78 -12.5 113t-46 47t-107.5 16v41q86 -6 262 -6q164 0 260 6v-41q-74 -4 -107.5 -16t-46 -47t-12.5 -113v-29l213 5q219 0 336 -93.5t117 -248.5q0 -98 -48 -188.5t-164 -150t-306 -59.5h-148v-47q0 -78 12.5 -112.5 t46.5 -47t107 -16.5v-41q-94 6 -260 6q-176 0 -262 -6zM442 305h127q178 0 256 92t78 242q0 326 -299 326l-162 -2v-658z" />
<glyph unicode="&#xff;" horiz-adv-x="1173" d="M-4 1202v43q131 -8 180 -8q141 0 287 8v-43q-70 0 -107 -11t-37 -50q0 -35 35 -97l310 -516l254 447q45 82 45 131q0 86 -142 96v43q76 -8 174 -8q117 0 158 8v-43q-35 -8 -63.5 -38.5t-67.5 -100.5l-322 -576v-270q0 -78 12.5 -112.5t46.5 -47t107 -16.5v-41 q-94 6 -260 6q-176 0 -262 -6v41q74 4 107.5 16.5t46 47t12.5 112.5v213l-395 657q-39 66 -64.5 87.5t-54.5 27.5zM260 1581q0 47 35 83t84 36q47 0 83 -36t36 -83q0 -49 -36 -84t-83 -35q-49 0 -84 35t-35 84zM694 1581q0 47 35 83t84 36q47 0 83 -36t36 -83q0 -49 -36 -84 t-83 -35q-49 0 -84 35t-35 84z" />
<glyph unicode="&#x152;" horiz-adv-x="1900" d="M109 713q0 225 82.5 399t231 270.5t337.5 96.5q98 0 180 -31q164 -4 434 -4q272 0 387 6q-14 -135 -14 -242q0 -80 6 -127h-47q-14 133 -36.5 197.5t-76 94.5t-161.5 30h-68q-74 0 -107.5 -11.5t-46 -46t-12.5 -112.5v-483h88q102 0 136 52t42.5 106.5t12.5 70.5h47 q-6 -76 -6 -166v-84q0 -88 12 -250h-47q-2 12 -12.5 84t-56.5 109t-128 37h-88v-492q0 -78 12.5 -112.5t46 -46t107.5 -11.5h47q127 0 193.5 34t97.5 108.5t45 220.5h47q-6 -55 -6 -148q0 -117 14 -262q-127 6 -428 6q-287 0 -448 -4q-80 -31 -168 -31q-195 0 -341.5 88 t-227 255t-80.5 399zM313 721q0 -213 60.5 -375t163 -250t229.5 -88q92 0 167 53.5t75 155.5v1016q0 106 -72 157.5t-184 51.5q-131 0 -230.5 -91t-154 -255t-54.5 -375z" />
<glyph unicode="&#x153;" horiz-adv-x="1912" d="M109 610q0 197 82.5 347.5t231 233.5t337.5 83q98 0 180 -31q164 -4 434 -4q272 0 387 6q-14 -123 -14 -221q0 -80 6 -127h-47q-14 168 -70.5 234.5t-183.5 66.5h-88q-74 0 -107.5 -11t-46 -46t-12.5 -113v-381h109q66 0 100.5 34t46.5 74t23 101h47q-6 -70 -6 -151v-78 q0 -80 12 -230h-47q-12 98 -47 153.5t-129 55.5h-109v-389q0 -78 12.5 -112.5t46 -46t107.5 -11.5h88q102 0 161.5 33t90.5 105.5t43 203.5h47q-6 -55 -6 -147q0 -107 14 -242q-127 6 -428 6q-287 0 -448 -4q-80 -31 -168 -31q-195 0 -341.5 75t-227 219.5t-80.5 344.5z M313 618q0 -182 60.5 -321t163 -214t229.5 -75q92 0 167 53.5t75 155.5v811q0 106 -72 157.5t-184 51.5q-131 0 -230.5 -79t-154 -219t-54.5 -321z" />
<glyph unicode="&#x178;" horiz-adv-x="1210" d="M-6 1407v43q80 -6 180 -6q199 0 287 6v-43q-143 0 -144 -78q0 -31 21 -72l340 -653l262 520q55 109 55 176q0 57 -45 82t-135 27v41q117 -6 236 -6q92 0 153 6v-41q-41 -10 -80 -52t-84 -130l-321 -637v-373q0 -78 12 -112.5t46 -47t108 -16.5v-41q-94 6 -260 6 q-176 0 -263 -6v41q74 4 108 16.5t46 47t12 112.5v307l-415 768q-37 68 -65 91.5t-54 23.5zM287 1700q0 47 35 83t84 36q47 0 83 -36t36 -83q0 -49 -36 -84t-83 -35q-49 0 -84 35t-35 84zM721 1700q0 47 35 83t84 36q47 0 83 -36t36 -83q0 -49 -36 -84t-83 -35q-49 0 -84 35 t-35 84z" />
<glyph unicode="&#x2c6;" horiz-adv-x="925" d="M102 1479q125 45 221.5 117.5t141.5 152.5h37q45 -80 141 -152.5t221 -117.5l-10 -29q-117 27 -230.5 65.5t-181.5 77.5q-55 -39 -146 -77.5t-184 -65.5z" />
<glyph unicode="&#x2dc;" horiz-adv-x="987" d="M92 1499q23 102 82 159.5t145 57.5q52 0 98 -20.5t111 -61.5q59 -39 101.5 -57t87.5 -18q104 0 143 118l35 -10q-23 -102 -82 -159.5t-145 -57.5q-51 0 -97.5 20.5t-111.5 61.5q-59 39 -101.5 57.5t-87.5 18.5q-51 0 -87 -28t-56 -91z" />
<glyph unicode="&#x2000;" horiz-adv-x="958" />
<glyph unicode="&#x2001;" horiz-adv-x="1917" />
<glyph unicode="&#x2002;" horiz-adv-x="958" />
<glyph unicode="&#x2003;" horiz-adv-x="1917" />
<glyph unicode="&#x2004;" horiz-adv-x="639" />
<glyph unicode="&#x2005;" horiz-adv-x="479" />
<glyph unicode="&#x2006;" horiz-adv-x="319" />
<glyph unicode="&#x2007;" horiz-adv-x="319" />
<glyph unicode="&#x2008;" horiz-adv-x="239" />
<glyph unicode="&#x2009;" horiz-adv-x="383" />
<glyph unicode="&#x200a;" horiz-adv-x="106" />
<glyph unicode="&#x2010;" horiz-adv-x="1054" d="M158 565v119h739v-119h-739z" />
<glyph unicode="&#x2011;" horiz-adv-x="1054" d="M158 565v119h739v-119h-739z" />
<glyph unicode="&#x2012;" horiz-adv-x="1054" d="M158 565v119h739v-119h-739z" />
<glyph unicode="&#x2013;" horiz-adv-x="1202" d="M137 586v82h928v-82h-928z" />
<glyph unicode="&#x2014;" horiz-adv-x="1798" d="M137 586v82h1524v-82h-1524z" />
<glyph unicode="&#x2018;" horiz-adv-x="507" d="M112 1163q0 102 52.5 184t158.5 132l19 -37q-63 -27 -109.5 -84.5t-46.5 -116.5q0 -25 6 -43q33 27 76 27q55 0 93 -36t38 -95q0 -55 -38 -93t-93 -38q-80 -1 -121 65q-35 55 -35 135z" />
<glyph unicode="&#x2019;" horiz-adv-x="501" d="M111 1348q0 55 37.5 93t93.5 38q79 0 120 -66q35 -55 35 -135q0 -102 -52 -184t-159 -131l-18 36q63 27 109.5 84.5t46.5 116.5q0 25 -7 43q-33 -27 -75 -26q-55 0 -93 35.5t-38 95.5z" />
<glyph unicode="&#x201a;" horiz-adv-x="534" d="M127 102q0 55 38 93t93 38q80 1 121 -65q35 -55 35 -135q0 -102 -52.5 -184t-158.5 -132l-19 37q63 27 109.5 84.5t46.5 116.5q0 25 -6 43q-33 -27 -76 -27q-55 0 -93 36t-38 95z" />
<glyph unicode="&#x201c;" horiz-adv-x="856" d="M112 1163q0 102 52.5 184t158.5 132l19 -37q-63 -27 -109.5 -84.5t-46.5 -116.5q0 -25 6 -43q33 27 76 27q55 0 93 -36t38 -95q0 -55 -38 -93t-93 -38q-80 -1 -121 65q-35 55 -35 135zM460 1163q0 102 52.5 184t158.5 132l19 -37q-63 -27 -109.5 -84.5t-46.5 -116.5 q0 -25 6 -43q33 27 76 27q55 0 93 -36t38 -95q0 -55 -38 -93t-93 -38q-80 -1 -121 65q-35 55 -35 135z" />
<glyph unicode="&#x201d;" horiz-adv-x="849" d="M111 1347q0 55 38 93t93 38q80 1 121 -65q35 -55 35 -135q0 -102 -52.5 -184t-158.5 -132l-19 37q63 27 109.5 84.5t46.5 116.5q0 25 -6 43q-33 -27 -76 -27q-55 0 -93 36t-38 95zM459 1347q0 55 38 93t93 38q80 1 121 -65q35 -55 35 -135q0 -102 -52.5 -184t-158.5 -132 l-19 37q63 27 109.5 84.5t46.5 116.5q0 25 -6 43q-33 -27 -76 -27q-55 0 -93 36t-38 95z" />
<glyph unicode="&#x201e;" horiz-adv-x="882" d="M127 102q0 55 38 93t93 38q80 1 121 -65q35 -55 35 -135q0 -102 -52.5 -184t-158.5 -132l-19 37q63 27 109.5 84.5t46.5 116.5q0 25 -6 43q-33 -27 -76 -27q-55 0 -93 36t-38 95zM475 102q0 55 38 93t93 38q80 1 121 -65q35 -55 35 -135q0 -102 -52.5 -184t-158.5 -132 l-19 37q63 27 109.5 84.5t46.5 116.5q0 25 -6 43q-33 -27 -76 -27q-55 0 -93 36t-38 95z" />
<glyph unicode="&#x2022;" horiz-adv-x="903" d="M160 649q0 80 39 147.5t105.5 106.5t146.5 39q79 0 147 -39t106.5 -106.5t38.5 -147.5t-38.5 -146.5t-106.5 -105.5t-147 -39q-80 0 -146.5 39t-105.5 105.5t-39 146.5z" />
<glyph unicode="&#x2026;" horiz-adv-x="1665" d="M127 102q0 53 39 92t92 39t92 -38.5t39 -92.5q0 -53 -39 -92t-92 -39t-92 39t-39 92zM702 102q0 53 39 92t92 39t92 -38.5t39 -92.5q0 -53 -39 -92t-92 -39t-92 39t-39 92zM1276 102q0 53 39 92t92 39t92 -38.5t39 -92.5q0 -53 -39 -92t-92 -39t-92 39t-39 92z" />
<glyph unicode="&#x202f;" horiz-adv-x="383" />
<glyph unicode="&#x2039;" horiz-adv-x="714" d="M76 631v2q158 88 270.5 224t200.5 331l35 -14q-72 -190 -155 -313.5t-198 -221.5q111 -96 195 -225t158 -324l-35 -14q-88 195 -201 331t-270 224z" />
<glyph unicode="&#x203a;" horiz-adv-x="714" d="M129 88q72 190 155 313t197 222q-111 96 -194.5 225t-157.5 323l35 15q88 -195 200.5 -331t270.5 -224v-2q-158 -88 -270.5 -224.5t-200.5 -330.5z" />
<glyph unicode="&#x205f;" horiz-adv-x="479" />
<glyph unicode="&#x20ac;" horiz-adv-x="1198" d="M72 506v41h149q-2 20 -2 63q0 35 4 101h-151v41h157q23 158 97.5 275.5t188.5 182t253 64.5q137 0 221 -60q100 -72 101 -155q0 -45 -27 -74t-68 -29q-39 0 -67.5 25t-28.5 66q0 37 25.5 66.5t68.5 31.5q-23 47 -84 70.5t-135 23.5q-147 0 -235 -128t-109 -359h436 l-22 -41h-418q-2 -29 -2 -93q0 -49 2 -71h326l-25 -41h-299q16 -244 105.5 -371t240.5 -127q72 0 132.5 21.5t84.5 70.5q-43 2 -68.5 32t-25.5 67q0 41 28.5 65.5t67.5 24.5q41 0 67.5 -29t26.5 -74q0 -86 -100 -155q-88 -59 -221 -60q-227 0 -371.5 140.5t-171.5 394.5 h-151z" />
<glyph unicode="&#x2122;" horiz-adv-x="2138" d="M143 1450q109 -6 373 -6q262 0 371 6q-15 -100 -15 -180q0 -66 7 -107h-48q-8 131 -39.5 185.5t-91.5 54.5h-110v-612q0 -59 10 -86t40 -36.5t95 -13.5v-41q-82 6 -219 7q-147 0 -221 -7v41q66 4 94.5 13.5t39.5 36t11 86.5v612h-110q-59 0 -91 -54.5t-40 -185.5h-47 q6 41 6 107q0 80 -15 180zM1004 614v41q49 4 69.5 11.5t27.5 30t7 73.5v524q0 51 -7 74t-27.5 30t-69.5 11v41q47 -6 129 -6q72 0 139 6l248 -608l227 602h96q100 0 158 6v-41q-47 -4 -67.5 -12t-29 -29.5t-8.5 -73.5v-524q0 -51 7.5 -73.5t28 -30t69.5 -11.5v-41 q-68 6 -178 7q-104 0 -160 -7v41q37 4 54.5 12.5t23.5 30t6 72.5v545l-268 -711h-33l-291 715v-549q0 -51 6 -72.5t23.5 -30t54.5 -12.5v-41q-43 6 -106 7q-84 0 -129 -7z" />
<glyph unicode="&#x25fc;" horiz-adv-x="1249" d="M0 0v1249h1249v-1249h-1249z" />
<glyph unicode="&#xfb04;" horiz-adv-x="1929" d="M53 1012v41h164q0 217 100 333q55 61 138.5 97.5t185.5 36.5q184 0 287 -111q27 53 78 98q55 47 126.5 71t149.5 24q41 0 123 -13q86 -12 133 -12q106 0 191 29v-1416q0 -84 34.5 -115.5t120.5 -31.5v-43q-188 8 -248 8q-59 0 -247 -8v43q86 0 120.5 31.5t34.5 115.5 v1141q0 63 -13 102.5t-42 67.5q-37 37 -91.5 53.5t-105.5 16.5q-102 0 -162 -64q-43 -43 -57 -106.5t-14 -155.5v-192h260v-41h-260v-822q0 -84 44 -115.5t132 -31.5v-43l-45 2q-178 6 -223 6q-59 0 -248 -8v43q86 0 120.5 31.5t34.5 115.5v822h-473v-822q0 -84 35 -115.5 t121 -31.5v-43q-188 8 -246 8q-61 0 -250 -8v43q86 0 121 31.5t35 115.5v822h-164zM401 1053h473q0 104 8.5 181t28.5 136q-45 53 -108.5 83t-136.5 30q-264 0 -265 -326v-104z" />
</font>
</defs>
</svg>
