<?xml version="1.0" standalone="no"?>
<!DOCTYPE svg PUBLIC "-//W3C//DTD SVG 1.1//EN" "http://www.w3.org/Graphics/SVG/1.1/DTD/svg11.dtd" >
<svg xmlns="http://www.w3.org/2000/svg" xmlns:xlink="http://www.w3.org/1999/xlink" version="1.1">
<metadata></metadata>
<defs>
<font id="pacificoregular" horiz-adv-x="1433" >
<font-face units-per-em="2048" ascent="1638" descent="-410" />
<missing-glyph horiz-adv-x="542" />
<glyph unicode="&#xfb01;" horiz-adv-x="1296" d="M53 813q0 51 28 82t105 37q14 2 45 2q55 276 141.5 501.5t197 357.5t233.5 132q96 0 148.5 -74.5t52.5 -191.5q0 -412 -332 -701q250 10 403 11q57 0 94 -21.5t37 -83.5q0 -41 -13 -125t-30 -168q-37 -174 -37 -229q0 -61 16.5 -94t55.5 -33q35 0 89 48t161 165 q25 29 55 29q27 0 42.5 -24.5t15.5 -67.5q0 -82 -39 -127q-84 -102 -185.5 -175t-203.5 -73q-133 0 -193.5 94t-60.5 250q0 80 17 196.5t46 229.5q-205 0 -485 -19q-45 -287 -45 -534q0 -190 21.5 -398t64.5 -208q20 0 42.5 71.5t37 196.5t14.5 276q0 166 -19 359 q-4 57 19.5 84.5t71.5 27.5q43 0 63.5 -22.5t24.5 -75.5q10 -150 10 -356q0 -334 -81 -571.5t-251 -237.5q-145 0 -208.5 210t-63.5 630q0 248 39 530q-14 -2 -37 -2q-63 0 -85 22.5t-22 69.5zM502 999q102 72 170.5 178.5t102.5 220t34 210.5q0 121 -45 121 q-49 0 -125 -213t-137 -517zM989 1241q0 72 56.5 120t140.5 48q76 0 123 -37t47 -104q0 -82 -53.5 -130t-141.5 -48q-86 0 -129 39.5t-43 111.5z" />
<glyph unicode="&#xfb02;" horiz-adv-x="1409" d="M106 193q0 393 85 797.5t233.5 669.5t327.5 265q96 0 150 -86t54 -231q0 -481 -575 -1049q-20 -201 -21 -352q0 -211 14.5 -433.5t47.5 -222.5q61 0 61 213q0 160 -21.5 309.5t-58.5 315.5q-2 27 17.5 68t48.5 71.5t51 30.5q27 0 84 -4q66 -4 98 -4q74 0 152 20v7 q0 250 64.5 569t190.5 548.5t300 229.5q98 0 154.5 -91t56.5 -261q0 -166 -61.5 -377t-178 -404.5t-274.5 -310.5q8 -145 43 -205.5t102 -60.5q84 0 147.5 48t162.5 165q25 29 55 29q26 0 41.5 -24.5t15.5 -67.5q0 -82 -39 -127q-88 -109 -191.5 -178.5t-234.5 -69.5 q-139 0 -223 101.5t-115 275.5q-70 -18 -147 -19q-68 0 -150 10q29 -129 47.5 -288.5t18.5 -262.5q0 -221 -71.5 -337.5t-188.5 -116.5q-147 0 -210 209t-63 631zM418 831q164 186 252 388t90 378q0 125 -51 125q-37 0 -91.5 -124.5t-107.5 -330.5t-92 -436zM1108 727 q102 104 174 255t105.5 305.5t33.5 279.5q0 156 -57 155q-43 0 -99.5 -152.5t-101.5 -386t-55 -456.5z" />
<glyph horiz-adv-x="0" />
<glyph unicode="&#xd;" horiz-adv-x="542" />
<glyph horiz-adv-x="0" />
<glyph horiz-adv-x="0" />
<glyph unicode=" "  horiz-adv-x="542" />
<glyph unicode="&#x09;" horiz-adv-x="542" />
<glyph unicode="&#xa0;" horiz-adv-x="542" />
<glyph unicode="!" horiz-adv-x="696" d="M68 168q0 92 52 147.5t146 55.5q90 0 136.5 -44t46.5 -130q0 -94 -53.5 -150.5t-145.5 -56.5q-90 0 -136 49t-46 129zM233 555l3 16q35 229 94 522t110 506q33 131 178 132q131 0 132 -84q0 -18 -7 -41q-53 -217 -141 -525.5t-168 -535.5q-23 -66 -106 -66 q-41 0 -68 18.5t-27 57.5z" />
<glyph unicode="&#x22;" horiz-adv-x="1044" d="M233 1149l41 391q20 188 179 189q135 0 135 -127q0 -29 -10 -76l-82 -377q-14 -66 -55.5 -93.5t-94.5 -27.5q-51 0 -85 27.5t-28 93.5zM684 1149l41 391q20 188 179 189q135 0 135 -127q0 -29 -10 -76l-82 -377q-14 -66 -55.5 -93.5t-94.5 -27.5q-51 0 -85 27.5t-28 93.5 z" />
<glyph unicode="#" d="M70 358q0 55 28.5 84t79.5 29h127l70 238h-115q-51 0 -79.5 31.5t-28.5 88.5q0 55 28.5 84t79.5 29h182l39 135q16 59 58.5 89t89.5 30t78.5 -25.5t31.5 -68.5q0 -18 -6 -37l-35 -123h240l39 135q16 59 58 89t89 30t79 -25.5t32 -68.5q0 -18 -6 -37l-35 -123h94 q106 0 107 -113q0 -57 -28 -88.5t-79 -31.5h-164l-67 -238h149q106 0 107 -113q0 -57 -28 -88.5t-79 -31.5h-217l-39 -132q-18 -59 -60 -90.5t-89 -31.5q-43 0 -74 27.5t-31 76.5q0 20 6 45l31 105h-239l-39 -132q-18 -59 -60.5 -90.5t-89.5 -31.5q-43 0 -73.5 27.5 t-30.5 76.5q0 20 6 45l31 105h-60q-51 0 -79.5 31.5t-28.5 88.5zM561 471h240l69 238h-241z" />
<glyph unicode="$" horiz-adv-x="1073" d="M80 279q0 72 37 110.5t88 38.5t75.5 -28.5t34.5 -90.5q6 -47 36 -78.5t79 -44.5l41 308q-94 37 -160.5 76.5t-110.5 106t-44 165.5q0 152 114.5 246t290.5 106l25 205q2 31 26.5 47t55.5 16t52 -17.5t17 -45.5l-28 -211q131 -20 206.5 -90t75.5 -174q0 -70 -35.5 -104 t-89.5 -34q-43 0 -70.5 27t-29.5 72q-6 86 -82 112l-45 -331q100 -39 166.5 -76t113 -100.5t46.5 -155.5q0 -143 -112 -235.5t-298 -106.5l-25 -201q-4 -31 -29.5 -48t-58.5 -17q-31 0 -50 17t-15 48l26 205q-150 20 -236.5 98t-86.5 185zM391 858q0 -43 29 -74.5t82 -60.5 l35 283q-70 -10 -108 -49t-38 -99zM578 180q71 10 110 44t39 87q0 41 -29.5 72t-87.5 57z" />
<glyph unicode="%" horiz-adv-x="1835" d="M100 1087q0 131 50.5 232.5t136.5 159t192 57.5q131 0 211 -91t92 -222q137 8 253 68.5t175 154.5q55 90 123 90q43 0 73 -35t30 -86q0 -47 -27 -92l-743 -1266q-39 -66 -105 -65q-43 0 -75.5 32.5t-32.5 84.5q0 47 32 104l490 836q-109 -41 -217 -45q-39 -125 -130 -200 t-204 -75q-102 0 -176 50t-111 132t-37 176zM326 1104q0 -94 33.5 -142.5t84.5 -48.5q43 0 78 37t49 109q-45 41 -69.5 101.5t-24.5 119.5q0 33 6 70q-4 2 -16 2q-61 0 -101 -62.5t-40 -185.5zM1100 350q0 131 49 233.5t135 159t195 56.5q106 0 180 -50.5t110.5 -132 t36.5 -176.5q0 -129 -50 -231.5t-137 -159.5t-194 -57q-106 0 -178.5 50t-109.5 132t-37 176zM1325 367q0 -98 34 -144.5t85 -46.5q57 0 97 63.5t40 184.5q0 94 -34 142t-81 48q-61 0 -101 -62.5t-40 -184.5z" />
<glyph unicode="&#x26;" horiz-adv-x="1742" d="M92 383q0 150 93.5 280t303.5 257q-119 217 -118 383q0 147 61.5 259.5t171 174t250.5 61.5q180 0 279.5 -103.5t99.5 -283.5q0 -150 -87 -282t-308 -269q131 -178 346 -420q135 121 268 305q23 33 53.5 46.5t75.5 13.5q119 0 119 -68q0 -43 -45 -114 q-132 -201 -318 -355l179 -196q47 -49 47 -103q0 -51 -41 -85t-109 -34q-94 0 -143 58l-172 203q-242 -121 -463 -121q-164 0 -287 51t-189.5 141t-66.5 201zM379 414q0 -94 71.5 -146.5t196.5 -52.5q160 0 305 70q-217 260 -342 444q-231 -152 -231 -315zM633 1329 q0 -129 86 -282q160 94 217 182t57 192q0 76 -39 119t-114 43q-97 0 -152 -72.5t-55 -181.5z" />
<glyph unicode="'" horiz-adv-x="593" d="M233 1149l41 391q20 188 179 189q135 0 135 -127q0 -29 -10 -76l-82 -377q-14 -66 -55.5 -93.5t-94.5 -27.5q-51 0 -85 27.5t-28 93.5z" />
<glyph unicode="(" horiz-adv-x="1255" d="M186 344q0 225 45 471t132.5 468t205.5 374q233 297 568 297q96 0 188 -32t154 -89q35 -33 34 -84q0 -51 -35.5 -96t-78.5 -45q-20 0 -47 16q-133 92 -244 92q-84 0 -160 -45t-139 -125q-109 -137 -186.5 -341t-118.5 -426t-41 -414q0 -152 21.5 -239t68.5 -124t125 -37 q147 0 317 170q33 33 68 33q39 0 66.5 -35t27.5 -82q0 -57 -41 -104q-88 -98 -209 -158.5t-235 -60.5q-236 0 -361 157.5t-125 458.5z" />
<glyph unicode=")" horiz-adv-x="1255" d="M-168 -68q0 51 36 96.5t79 45.5q20 0 47 -17q133 -92 244 -92q84 0 159.5 45t139.5 125q109 137 186.5 341t118.5 426t41 415q0 152 -21.5 238.5t-69 123.5t-124.5 37q-147 0 -318 -170q-33 -33 -67 -33q-39 0 -67 35t-28 82q0 57 41 105q88 98 209 158.5t236 60.5 q236 0 360.5 -158t124.5 -459q0 -225 -45 -470.5t-132 -468t-206 -373.5q-233 -297 -567 -297q-96 0 -188.5 31.5t-153.5 88.5q-35 33 -35 84z" />
<glyph unicode="*" horiz-adv-x="1064" d="M233 1358q0 45 28 73.5t79 34.5l195 27l-175 90q-33 16 -51 43t-18 57q0 41 26 72q29 39 80 39q53 0 97 -55l118 -148l-6 187q-2 59 28 95t81 36q45 0 74.5 -31t29.5 -76q0 -25 -12 -59l-72 -176l166 100q43 25 76 25t58.5 -19.5t35.5 -50.5q6 -18 6 -39 q0 -43 -29.5 -72.5t-78.5 -35.5l-189 -27l168 -90q35 -18 53.5 -45t18.5 -58q0 -39 -27 -69q-33 -39 -80 -39q-55 0 -96 53l-119 150l7 -191q2 -57 -28 -93t-81 -36q-43 0 -73.5 31t-30.5 76q0 27 12 59l69 176l-163 -100q-41 -23 -74 -23q-35 0 -60.5 18.5t-35.5 51.5 q-6 18 -7 39z" />
<glyph unicode="+" d="M170 573q0 51 34 92.5t91 41.5h334l45 374q6 51 43 80t84 29t79.5 -28.5t26.5 -80.5l-45 -374h334q47 0 71.5 -29t24.5 -70q0 -51 -33.5 -93t-91.5 -42h-336l-45 -375q-8 -53 -46 -81.5t-87 -28.5q-47 0 -76.5 28.5t-23.5 81.5l45 375h-332q-47 0 -71.5 29.5t-24.5 70.5z " />
<glyph unicode="," horiz-adv-x="526" d="M33 -238q0 18 6 43q23 94 34 174t11 179q0 102 48 157.5t124 55.5q74 0 112 -40t38 -108q0 -72 -43.5 -190.5t-104.5 -231.5q-41 -76 -64.5 -100.5t-62.5 -24.5q-45 0 -71.5 20.5t-26.5 65.5z" />
<glyph unicode="-" horiz-adv-x="825" d="M117 625q0 55 27.5 81.5t80.5 30.5l420 41q51 4 79 -25.5t28 -86.5q0 -111 -107 -121l-420 -41q-49 -4 -78.5 28.5t-29.5 92.5z" />
<glyph unicode="." horiz-adv-x="526" d="M57 168q0 92 52.5 147.5t146.5 55.5q90 0 136 -44t46 -130q0 -94 -53 -150.5t-145 -56.5q-90 0 -136.5 49t-46.5 129z" />
<glyph unicode="/" horiz-adv-x="1042" d="M18 113q0 45 29 98l858 1612q25 47 56.5 69.5t64.5 22.5q47 0 81 -38t34 -93q0 -45 -23 -84l-876 -1645q-18 -33 -46 -49t-59 -16q-47 0 -83 33.5t-36 89.5z" />
<glyph unicode="0" horiz-adv-x="1112" d="M104 496q0 207 64.5 365.5t180.5 246.5t269 88q201 0 310.5 -131t109.5 -375q0 -207 -64.5 -365.5t-180 -246.5t-269.5 -88q-200 0 -310 131t-110 375zM360 508q0 -141 46.5 -215t138.5 -74q110 0 173.5 123t63.5 334q0 141 -47 216t-137 75q-111 0 -174.5 -124 t-63.5 -335z" />
<glyph unicode="1" horiz-adv-x="770" d="M115 981l2 18q4 39 24.5 63.5t79 49.5t174.5 53l86 21q47 10 78 10q59 0 89 -30.5t30 -86.5q0 -25 -6 -53q-33 -160 -125 -909q-16 -127 -146 -127q-51 0 -90 30.5t-39 96.5l2 22q23 211 54.5 439.5t54.5 351.5l-160 -45l-24 -4q-39 0 -61.5 30.5t-22.5 69.5z" />
<glyph unicode="2" horiz-adv-x="1146" d="M94 102q0 66 31 102t96 64q139 61 263 156.5t199 206t75 211.5q0 80 -36 117.5t-114 37.5q-90 0 -144 -49t-54 -137q0 -121 -121 -121q-57 0 -89 33t-32 94q0 102 53 188.5t159.5 138.5t260.5 52q184 0 288.5 -92t104.5 -256q0 -156 -136 -326t-392 -301l469 8 q43 0 65.5 -28.5t22.5 -71.5q0 -53 -34 -95t-91 -42q-98 0 -293 14q-39 2 -143.5 8t-163.5 6q-27 0 -78 -18q-10 -2 -40 -10t-50 -8q-33 0 -54.5 29.5t-21.5 88.5z" />
<glyph unicode="3" horiz-adv-x="1064" d="M57 262q0 68 33 106t88 38q47 0 70.5 -24t40.5 -81q14 -55 59 -84t139 -29q90 0 148.5 34t58.5 104q0 72 -55 105.5t-172 37.5q-43 2 -64.5 29.5t-21.5 66.5q0 49 17.5 70.5t60.5 30.5q135 20 195.5 78.5t60.5 140.5q0 113 -156 112q-172 0 -203 -135 q-14 -55 -41.5 -78.5t-76.5 -23.5q-55 0 -85 31.5t-30 85.5q0 82 57.5 155.5t163 118.5t246.5 45q197 0 301 -76t104 -225q0 -98 -74.5 -183t-193.5 -128q104 -15 175 -86.5t71 -180.5q0 -104 -63.5 -177.5t-171 -111.5t-234.5 -38q-223 0 -335 77.5t-112 194.5z" />
<glyph unicode="4" horiz-adv-x="1181" d="M98 387q0 39 15 82q90 262 270 596q39 72 79 101.5t124 29.5q45 0 68.5 -20.5t23.5 -53.5q0 -35 -21 -69q-201 -367 -282 -592h315q25 190 68 362q16 63 53 97t102 34q104 0 105 -90q0 -27 -4 -41q-37 -174 -66 -362h74q108 0 108 -92q0 -74 -40.5 -102.5t-128.5 -28.5 h-43l-9 -109q-6 -94 -39.5 -127t-109.5 -33q-109 0 -109 133q0 23 2 35l11 101q-297 0 -451 2q-45 0 -80 41t-35 106z" />
<glyph unicode="5" horiz-adv-x="1060" d="M94 262q0 68 32 106t89 38q45 0 69.5 -24t41.5 -81q35 -125 211 -125q76 0 125 46t49 114q0 180 -383 192q-82 2 -118 27t-36 76q0 25 6 51l23 98q12 59 41 183h-4q-41 0 -65.5 19t-24.5 54q0 100 98 131q92 29 332 29q172 0 249.5 -5t120.5 -15q41 -10 57.5 -28 t16.5 -52q0 -70 -27.5 -99.5t-93.5 -29.5q-33 0 -127 4q-172 6 -194 6q-59 0 -86 -2q-27 -90 -60 -246q264 -14 401.5 -108.5t137.5 -255.5q0 -106 -54.5 -191.5t-159 -134.5t-245.5 -49q-190 0 -306 73.5t-116 198.5z" />
<glyph unicode="6" horiz-adv-x="1107" d="M102 487q0 209 71 370t201 250t304 89q158 0 259 -72.5t116 -191.5l2 -23q0 -53 -34 -82.5t-95 -29.5q-45 0 -73 23.5t-48 80.5q-16 43 -54 67.5t-96 24.5q-118 0 -193 -93t-93 -277q53 61 120.5 86.5t149.5 25.5q102 0 183 -43t126 -119.5t45 -171.5q0 -117 -54 -210 t-157.5 -147t-244.5 -54q-211 0 -323 132t-112 365zM391 350q0 -74 41 -117t115 -43q82 0 132 52.5t50 136.5q0 70 -41 110.5t-110 40.5q-89 0 -138 -49t-49 -131z" />
<glyph unicode="7" horiz-adv-x="1017" d="M92 1047q0 53 34 95t91 42q100 0 293 -15q39 -2 143.5 -8t163.5 -6q27 0 78 19q10 2 40 10t50 8q33 0 54.5 -29.5t21.5 -89.5q0 -55 -22.5 -82.5t-56.5 -50t-48 -33.5q-217 -150 -302 -342t-104 -411q-8 -86 -46 -125t-95 -39t-96 40t-39 140q0 117 44 257t141.5 279.5 t246.5 247.5l-504 -8q-43 0 -65.5 29t-22.5 72z" />
<glyph unicode="8" horiz-adv-x="1048" d="M82 285q0 88 53 161.5t172 137.5q-74 49 -111.5 117.5t-37.5 144.5q0 164 122.5 257t333.5 93q174 0 279.5 -76t105.5 -205q0 -94 -53 -168.5t-172 -138.5q201 -102 201 -274q0 -102 -58.5 -180t-165 -121t-247.5 -43q-199 0 -310.5 77.5t-111.5 217.5zM328 309 q0 -57 50 -89t136 -32q96 0 151.5 33t55.5 90q0 45 -48 86t-177 99q-94 -43 -131 -88.5t-37 -98.5zM410 858q0 -92 155 -164q104 51 146.5 96.5t42.5 94.5q0 113 -156 112q-86 0 -137 -35.5t-51 -103.5z" />
<glyph unicode="9" horiz-adv-x="1107" d="M82 276q0 53 34 83t95 30q45 0 72.5 -23.5t48.5 -80.5q16 -43 54 -67.5t95 -24.5q119 0 194 93t93 277q-53 -61 -120.5 -86.5t-149.5 -25.5q-102 0 -183.5 43t-126.5 119.5t-45 170.5q0 117 54.5 210t158 147.5t244.5 54.5q211 0 322.5 -132t111.5 -366 q0 -209 -70.5 -369.5t-200.5 -249.5t-304 -89q-158 0 -259.5 72.5t-115.5 191.5zM408 807q0 -70 40.5 -111t110.5 -41q88 0 137 49.5t49 131.5q0 74 -40.5 116.5t-114.5 42.5q-82 0 -132 -52t-50 -136z" />
<glyph unicode=":" horiz-adv-x="526" d="M57 168q0 92 52.5 147.5t146.5 55.5q90 0 136 -44t46 -130q0 -94 -53 -150.5t-145 -56.5q-90 0 -136.5 49t-46.5 129zM129 752q0 92 52.5 147.5t146.5 55.5q90 0 136 -44t46 -130q0 -94 -53 -150.5t-145 -56.5q-90 0 -136.5 49t-46.5 129z" />
<glyph unicode=";" horiz-adv-x="526" d="M33 -238q0 18 6 43q23 94 34 174t11 179q0 102 48 157.5t124 55.5q74 0 112 -40t38 -108q0 -72 -43.5 -190.5t-104.5 -231.5q-41 -76 -64.5 -100.5t-62.5 -24.5q-45 0 -71.5 20.5t-26.5 65.5zM129 752q0 92 52.5 147.5t146.5 55.5q90 0 136 -44t46 -130q0 -94 -53 -150.5 t-145 -56.5q-90 0 -136.5 49t-46.5 129z" />
<glyph unicode="&#x3c;" d="M168 571q0 49 28.5 95.5t75.5 62.5l914 318q25 8 49 8q43 0 67.5 -29t24.5 -70q0 -39 -23.5 -72.5t-70.5 -49.5l-717 -242l655 -244q35 -12 53.5 -38.5t18.5 -57.5q0 -47 -33.5 -85t-85.5 -38q-23 0 -49 10l-835 320q-35 12 -53.5 42.5t-18.5 69.5z" />
<glyph unicode="=" d="M141 338q0 51 34 92t91 41h901q47 0 72 -28.5t25 -69.5q0 -51 -34 -93t-91 -42h-901q-48 0 -72.5 29.5t-24.5 70.5zM199 809q0 51 33.5 92t91.5 41h901q47 0 71.5 -28.5t24.5 -69.5q0 -51 -34 -93t-91 -42h-901q-47 0 -71.5 29.5t-24.5 70.5z" />
<glyph unicode="&#x3e;" d="M137 229q0 39 23.5 73t70.5 50l717 242l-655 244q-35 12 -53.5 38.5t-18.5 57.5q0 47 34 85t85 38q23 0 49 -10l836 -320q35 -12 53 -43t18 -70q0 -49 -28.5 -95t-75.5 -62l-913 -318q-25 -8 -50 -8q-43 0 -67.5 28.5t-24.5 69.5z" />
<glyph unicode="?" horiz-adv-x="974" d="M131 168q0 92 52.5 147.5t146.5 55.5q90 0 136 -44t46 -130q0 -94 -53 -150.5t-146 -56.5q-90 0 -136 49t-46 129zM184 1356q0 102 50.5 187t152.5 136.5t252 51.5q203 0 314.5 -87.5t111.5 -250.5q0 -129 -65.5 -233.5t-196.5 -217.5q-111 -94 -168 -153.5t-83 -103.5 t-42 -101q-14 -53 -46 -79t-73 -26q-37 0 -59.5 21.5t-20.5 70.5q8 129 61.5 229.5t178.5 225.5q117 115 168 194.5t51 165.5q0 141 -158 142q-94 0 -143 -42t-49 -106l2 -84q0 -35 -25.5 -60.5t-81.5 -25.5q-63 0 -97 38t-34 108z" />
<glyph unicode="@" horiz-adv-x="2078" d="M80 285q0 319 132 599.5t395 454.5t634 174q227 0 401.5 -83.5t272.5 -248.5t98 -401t-81 -416t-211 -277t-271 -97q-209 0 -270 172q-39 -80 -105.5 -126t-150.5 -46q-137 0 -214 91t-77 243q0 164 75.5 310t201.5 235t268 89q45 0 60 -17t26 -62q43 8 90 8 q100 0 100 -72q0 -43 -31 -205q-47 -236 -47 -327q0 -35 22.5 -57.5t74.5 -22.5q68 0 139 76.5t119.5 211t48.5 293.5q0 246 -150.5 375t-412.5 129q-281 0 -477.5 -137t-295 -363.5t-98.5 -492.5q0 -301 173 -482.5t521 -181.5q160 0 316.5 42t324.5 130q27 14 52 15 q41 0 67.5 -32t26.5 -77q0 -33 -16.5 -62.5t-51.5 -49.5q-147 -90 -340.5 -138.5t-386.5 -48.5q-305 0 -519 116t-323.5 314.5t-109.5 444.5zM889 322q0 -63 25.5 -94t70.5 -31t86 53t59 141l76 377q-86 -2 -158.5 -64.5t-115.5 -165t-43 -216.5z" />
<glyph unicode="A" horiz-adv-x="1609" d="M115 573q0 311 133 576.5t393 426.5t625 161q94 0 201.5 -14.5t195.5 -43.5q57 -16 57 -82q0 -53 -40 -100t-93 -47q-16 0 -24 2q-106 25 -182 36t-160 11q-260 0 -442.5 -126t-272.5 -332.5t-90 -446.5q0 -174 68.5 -269.5t179.5 -95.5q125 0 219 102.5t172 332 t153 622.5q12 57 49 77.5t99 20.5q145 0 145 -94q0 -16 -6 -41q-53 -199 -97 -439.5t-44 -365.5q0 -111 32.5 -161t100.5 -50q66 0 125 44.5t149 150.5q25 29 56 29q27 0 42 -24.5t15 -67.5q0 -80 -39 -127q-100 -121 -196.5 -184.5t-235.5 -63.5q-143 0 -231.5 83 t-110.5 234q-152 -317 -447 -317q-141 0 -254.5 69.5t-179 201.5t-65.5 312z" />
<glyph unicode="B" horiz-adv-x="1693" d="M41 1384q0 51 21.5 88t103.5 84q172 98 403.5 153.5t472.5 55.5q371 0 553.5 -124.5t182.5 -329.5q0 -174 -123 -300t-359 -182q127 -35 192.5 -113.5t65.5 -180.5q0 -162 -101 -281t-295.5 -183.5t-469.5 -64.5q-102 0 -164 6q-2 -57 -49 -85.5t-121 -28.5t-102 32 q-24 28 -24 81q0 8 1 16q18 287 71.5 601t135.5 607q14 51 57.5 71.5t112.5 20.5q125 0 125 -70q0 -29 -12 -65q-53 -160 -106.5 -433.5t-75.5 -520.5q98 -8 159 -9q287 0 421 83t134 212q0 90 -76.5 151.5t-256.5 67.5q-41 2 -57.5 20.5t-16.5 59.5q0 59 24.5 96t89.5 39 q145 4 263 43t186 110t68 165q0 119 -117 187.5t-359 68.5q-219 0 -423.5 -56.5t-348.5 -142.5q-66 -39 -110 -39q-37 0 -56.5 26t-19.5 64z" />
<glyph unicode="C" horiz-adv-x="1404" d="M131 713q0 301 113.5 534.5t308.5 361.5t432 128q221 0 336 -114t115 -300q0 -125 -44 -200.5t-126 -75.5q-57 0 -90 26.5t-33 77.5q0 18 8 68q12 61 12 98q0 186 -198 186q-135 0 -258 -88t-199 -259t-76 -406q0 -246 137.5 -380t405.5 -134q133 0 269 33.5t302 103.5 q31 12 51 12q33 0 49.5 -24.5t16.5 -63.5q0 -125 -135 -184q-145 -63 -302 -93t-298 -30q-244 0 -424 89t-276.5 253t-96.5 381z" />
<glyph unicode="D" horiz-adv-x="1712" d="M92 1425q0 49 16.5 81t55.5 59q141 96 331.5 146t366.5 50q250 0 432.5 -87t280.5 -255t98 -405q0 -309 -123 -539.5t-358.5 -357.5t-560.5 -127q-119 0 -269 20q-82 10 -112 43q-27 29 -27 90v17q14 203 67.5 500.5t129.5 574.5q14 51 57 71.5t113 20.5q125 0 125 -70 q0 -29 -13 -65q-53 -164 -106 -439.5t-76 -525.5q61 -6 139 -6q358 0 535.5 217t177.5 580q0 244 -139 377t-393 133q-164 0 -325 -51.5t-290 -135.5q-27 -18 -57 -18q-35 0 -55.5 29.5t-20.5 72.5z" />
<glyph unicode="E" horiz-adv-x="1404" d="M63 440q0 176 114 300t335 180q-121 35 -185.5 122.5t-64.5 196.5q0 147 93.5 261t251 175.5t345.5 61.5q254 0 381 -109.5t127 -284.5q0 -121 -44 -195.5t-126 -74.5q-57 0 -90 25.5t-33 77.5q0 35 11 75q10 68 10 92q0 74 -55.5 120t-184.5 46q-174 0 -278.5 -73.5 t-104.5 -198.5q0 -96 79 -158.5t257 -68.5q45 -2 63.5 -20.5t18.5 -61.5q0 -135 -123 -137q-170 -4 -281.5 -47.5t-161.5 -110t-50 -141.5q0 -127 118.5 -191.5t376.5 -64.5q170 0 359.5 39.5t324.5 97.5q31 12 51 12q33 0 49.5 -24.5t16.5 -63.5q0 -61 -29.5 -104 t-101.5 -78q-121 -57 -313.5 -91t-378.5 -34q-258 0 -432.5 58t-259.5 160.5t-85 231.5z" />
<glyph unicode="F" horiz-adv-x="1458" d="M21.5 360q23.5 37 58.5 37q25 0 48.5 -16t59.5 -64q98 -129 244 -129q117 0 196 95.5t101 300.5l12 112h-98q-47 0 -81 27t-34 76q0 63 33 97t96 34q57 0 113 2q25 225 53 547q-221 -20 -311 -71.5t-90 -152.5q0 -70 41 -133q12 -18 11 -37q0 -37 -40.5 -64.5 t-91.5 -27.5q-55 0 -94 33q-25 20 -47.5 84t-22.5 141q0 254 261 369t763 115q348 0 615 -37q57 -8 78.5 -35t21.5 -70q0 -132 -133 -132q-9 0 -19 1l-71 6q-121 10 -241 16.5t-251 6.5h-92q-25 -303 -51 -553l352 6q76 0 101.5 -26.5t25.5 -71.5q0 -70 -41 -110t-117 -40 h-350l-12 -88q-43 -338 -183.5 -481t-385.5 -143q-139 0 -256 60t-173 146q-22 34 -22 80q0 53 23.5 90z" />
<glyph unicode="G" horiz-adv-x="1660" d="M131 713q0 303 114.5 535.5t316.5 360.5t452 128q240 0 359.5 -112t119.5 -296q0 -121 -44 -193.5t-126 -72.5q-55 0 -89 26.5t-34 73.5q0 20 8 70q12 57 13 90q0 86 -52.5 133t-175.5 47q-150 0 -277.5 -86t-205.5 -257t-78 -410q0 -246 134 -380t388 -134q141 0 295 63 l29 250h-209q-57 0 -88 27.5t-31 91.5q0 57 31 90t82 33h383q45 0 74 -30q25 -25 25 -67q0 -9 -1 -18q-6 -66 -41 -297l-22 -156q164 123 299 213q27 16 47 17q26 0 41.5 -26t15.5 -65q0 -47 -14.5 -73.5t-44.5 -46.5q-121 -80 -385 -262q-80 -424 -207 -668t-322 -244 q-104 0 -169.5 64.5t-65.5 169.5q0 96 43 194t160.5 227.5t332.5 294.5l7 39q-160 -67 -313 -67h-5q-229 0 -403 89t-270.5 253t-96.5 381zM877 -653q0 -80 57 -80q53 0 116.5 120.5t118.5 389.5q-156 -133 -224 -240.5t-68 -189.5z" />
<glyph unicode="H" horiz-adv-x="1787" d="M-33 1315q0 63 51 135q90 125 227.5 206t278.5 81q133 0 206 -91.5t73 -283.5q0 -170 -49 -461l200 10q129 6 222 21q37 225 112.5 421.5t188 319.5t252.5 123q102 0 161.5 -81t59.5 -212q0 -508 -518 -704q-6 -82 -7 -170q0 -215 53.5 -305.5t149.5 -90.5 q84 0 153.5 44.5t157.5 150.5q25 29 56 29q26 0 41.5 -24.5t15.5 -67.5q0 -80 -39 -127q-203 -248 -432 -248q-199 0 -317.5 153.5t-118.5 440.5q0 70 6 139q-135 -25 -295 -37q-106 -8 -145 -10q-41 -209 -115 -512q-43 -178 -164 -178q-131 0 -131 118q0 27 10 74 q70 281 111 475l-98 -4q-68 0 -98.5 23.5t-30.5 77.5q0 68 38.5 99.5t128.5 35.5l109 4q53 289 53 440q0 96 -28.5 131t-75.5 35q-143 0 -324 -240q-26 -34 -57 -34h-2q-29 0 -49.5 26.5t-20.5 67.5zM1456 1004q164 68 242 192.5t78 321.5q0 47 -16.5 73.5t-41.5 26.5 q-45 0 -95 -82t-95 -223.5t-72 -308.5z" />
<glyph unicode="I" horiz-adv-x="1013" d="M-35 59q0 74 65.5 115t184.5 43l96 2l6 45q49 328 72 463l45 268q41 238 74 490l-172 -2q-74 0 -101.5 23.5t-27.5 66.5q0 139 201 149q94 4 229 4l375 -2q53 0 90 -25.5t37 -62.5q0 -66 -41 -105.5t-117 -39.5q-119 0 -180 -2q-4 -25 -37 -221q-37 -219 -45 -269 l-43 -268q-45 -301 -72 -504q43 2 117 2q109 0 147.5 -28.5t38.5 -85.5q0 -53 -42 -90t-117 -37q-51 0 -162 4q-102 4 -135 4q-129 0 -283 -23q-68 -10 -96 -10q-45 0 -76 24.5t-31 71.5z" />
<glyph unicode="J" horiz-adv-x="1521" d="M145 1243q0 492 861 492q250 0 446 -49q117 -29 117 -115q0 -62 -25.5 -92.5t-83.5 -30.5q-4 -43 -18 -150q-20 -143 -23 -159q-182 -1358 -760 -1358q-170 0 -265 96t-95 242q0 260 221 459.5t582 330.5q23 145 35 260l37 310q-123 12 -230 12q-285 0 -420 -55.5 t-135 -180.5q0 -61 41 -133q12 -20 12 -43q0 -43 -44 -76.5t-95 -33.5q-66 0 -100 55q-57 94 -58 219zM563 145q0 -70 33 -107.5t90 -37.5q100 0 200.5 151.5t176.5 530.5q-500 -219 -500 -537z" />
<glyph unicode="K" horiz-adv-x="1918" d="M53 307q0 61 29 106.5t74 45.5q27 0 45 -13.5t35 -46.5q63 -119 111 -166t120 -47q82 0 140.5 75t82.5 231l29 194h-33q-47 0 -73.5 26.5t-26.5 73.5q0 53 27.5 85t68.5 32h68q14 100 20 139l64 461q-53 6 -101 6q-174 0 -264 -60t-90 -173q0 -51 11 -83t30 -71 q8 -16 8 -37q0 -45 -42 -78.5t-93 -33.5q-66 0 -96 57q-61 109 -62 234q0 129 70.5 235.5t214 171t354.5 64.5q92 0 169 -10.5t169 -38.5q100 -31 100 -115q0 -113 -96 -113l-80 -551q240 25 390.5 206t250.5 493q18 57 62.5 87.5t111.5 30.5q57 0 89 -25.5t32 -72.5 q0 -14 -8 -47q-102 -338 -292.5 -536.5t-416.5 -264.5q78 -18 128.5 -55t85 -91t79.5 -151q63 -135 118.5 -191.5t129.5 -56.5q66 0 125 44.5t150 150.5q25 29 55 29q26 0 41.5 -24.5t15.5 -67.5q0 -80 -39 -127q-98 -119 -198.5 -183.5t-237.5 -64.5q-152 0 -248 89 t-180 277q-61 135 -101 202t-79 94.5t-99 33.5l-22 -151q-43 -293 -167 -422t-341 -129q-141 0 -250.5 68.5t-152.5 174.5q-14 37 -15 80z" />
<glyph unicode="L" horiz-adv-x="1378" d="M-84 176q0 100 96.5 167t255.5 67h27l37 596q12 205 73.5 338t169.5 227q94 82 215 124t257 42q221 0 339.5 -115t118.5 -299q0 -125 -45 -202t-125 -77q-57 0 -90 28t-33 79q0 18 9 68q12 57 12 102q0 86 -50 136t-153 50q-180 0 -278.5 -117.5t-124.5 -369.5l-47 -465 q-10 -98 -27 -170q131 -23 328 -72q115 -29 176 -41t108 -12q119 0 204 40t161 128q25 29 55 29q27 0 42 -24.5t15 -67.5q0 -80 -38 -127q-115 -137 -222.5 -192.5t-259.5 -55.5q-106 0 -196 26.5t-219 79.5q-117 51 -226 84q-104 -190 -313 -190q-115 0 -183.5 52 t-68.5 134z" />
<glyph unicode="M" horiz-adv-x="2523" d="M-2 1307q0 33 13.5 66.5t43.5 76.5q98 137 219 212t242 75q113 0 173.5 -72t60.5 -209q0 -55 -10.5 -130t-18.5 -122t-12 -65q117 334 262 466t319 132q133 0 210 -94.5t77 -266.5q0 -68 -18 -168q102 283 239 406t316 123q143 0 219.5 -92.5t76.5 -258.5q0 -90 -26 -219 l-125 -585q-20 -102 -21 -176q0 -86 40 -129.5t112 -43.5q68 0 132.5 45.5t152.5 149.5q25 29 55 29q27 0 42 -24.5t15 -67.5q0 -80 -39 -127q-106 -129 -210.5 -188.5t-219.5 -59.5q-174 0 -272 103.5t-98 277.5q0 121 49 350l82 375q4 18 14 65t16.5 89t6.5 83 q0 72 -28 108t-79 36q-96 0 -201.5 -124t-201 -411t-154.5 -745q-14 -123 -50 -165t-116 -42q-70 0 -101.5 32.5t-31.5 122.5q0 84 22.5 220.5t57.5 320.5q94 496 94 639q0 78 -29.5 115t-89.5 37q-100 0 -206.5 -114t-208 -403.5t-168.5 -783.5q-14 -104 -42 -145t-108 -41 q-76 0 -108.5 33.5t-32.5 128.5q0 63 13 162.5t44 273.5q53 322 84 557q18 147 19 246q0 92 -68 92q-53 0 -128 -54.5t-165 -173.5q-28 -38 -61 -38h-2q-29 0 -50.5 27.5t-21.5 62.5z" />
<glyph unicode="N" horiz-adv-x="1810" d="M-2 1307q0 35 12.5 66.5t44.5 76.5q100 137 223 212t259 75q113 0 169 -70t56 -203q0 -119 -33 -344q102 303 260 460t371 157q168 0 253 -95.5t85 -255.5q0 -90 -27 -219l-125 -585q-20 -102 -20 -176q0 -86 40 -129.5t111 -43.5q68 0 132.5 45.5t152.5 149.5 q25 29 55 29q27 0 42.5 -24.5t15.5 -67.5q0 -80 -39 -127q-106 -129 -211 -188.5t-219 -59.5q-174 0 -272.5 103.5t-98.5 277.5q0 68 11 147.5t38 202.5l82 375q4 18 14.5 65t16.5 89t6 83q0 66 -37 105t-104 39q-123 0 -246 -131.5t-227.5 -423t-163.5 -746.5 q-14 -104 -42 -145t-108 -41q-76 0 -108.5 33.5t-32.5 128.5q0 63 12 153t43 273q4 25 33 199.5t51 367.5q20 164 21 246q0 92 -68 92q-51 0 -128 -54.5t-165 -173.5q-28 -38 -61 -38h-2q-29 0 -50.5 27.5t-21.5 62.5z" />
<glyph unicode="O" horiz-adv-x="1671" d="M131 692q0 311 113.5 549t309.5 367t433 129q182 0 328.5 -82t232.5 -241t86 -380q0 -311 -113.5 -548.5t-309 -366.5t-433.5 -129q-182 0 -328.5 82t-232.5 240.5t-86 379.5zM432 727q0 -244 102.5 -370t264.5 -126q159 0 281 98.5t187.5 273.5t65.5 396 q0 244 -102.5 370t-263.5 126q-158 0 -279 -97.5t-188.5 -272.5t-67.5 -398z" />
<glyph unicode="P" horiz-adv-x="1648" d="M94 449q0 416 134 705.5t360.5 434t498.5 144.5q193 0 327 -68t203 -183.5t69 -260.5q0 -174 -90.5 -319.5t-262.5 -238t-409 -108.5l-88 -494q-51 -284 -277 -284h-2q-125 0 -230.5 73.5t-169 225t-63.5 373.5zM322 465q0 -127 25.5 -225.5t65.5 -152.5t76 -54 q51 0 78 141l68 387q-69 10 -71 10h1q-61 10 -79.5 38t-18.5 71q0 45 25.5 71.5t70.5 26.5q20 0 31 -2q49 -8 76 -10q27 160 75 428q12 70 56.5 99.5t103.5 29.5q68 0 97.5 -25.5t29.5 -80.5q0 -33 -4 -54l-67 -397q419 53 419 436q0 135 -89 220t-275 85 q-211 0 -367.5 -133t-241.5 -369.5t-85 -539.5z" />
<glyph unicode="Q" horiz-adv-x="1671" d="M131 692q0 311 113.5 549t309.5 367t433 129q182 0 328.5 -82t232.5 -241t86 -380q0 -258 -77.5 -465t-215 -344t-315.5 -194q51 -29 89 -84.5t81 -159.5q47 -115 101.5 -164t134.5 -49q68 0 131 46t143 151q24 32 53 32h2q21 0 32 -21.5t11 -55.5q0 -66 -35 -129 q-70 -127 -183 -196t-232 -69q-121 0 -203 38t-139.5 113t-110.5 198q-55 127 -91 189t-75 91t-100 41q-227 45 -365.5 225.5t-138.5 464.5zM432 727q0 -244 102.5 -370t264.5 -126q159 0 281 98.5t187.5 273.5t65.5 396q0 244 -102.5 370t-263.5 126q-156 0 -278 -99.5 t-189.5 -273.5t-67.5 -395z" />
<glyph unicode="R" horiz-adv-x="1802" d="M113 625q0 344 119.5 593.5t335.5 382t499 132.5q197 0 330 -59.5t197.5 -164t64.5 -235.5q0 -115 -54.5 -224.5t-163 -193.5t-263.5 -125q98 -27 151 -86t107 -174q57 -123 113.5 -180.5t129.5 -57.5q66 0 125.5 44.5t149.5 150.5q25 29 55 29q27 0 42 -24.5t15 -67.5 q0 -80 -38 -127q-98 -119 -198.5 -183.5t-238.5 -64.5q-133 0 -226 71.5t-177 245.5q-68 139 -107 206t-76.5 95.5t-93.5 34.5q-8 -43 -47 -270q-16 -102 -20 -125q-20 -125 -82 -191.5t-187 -66.5q-137 0 -242.5 81t-162.5 225t-57 329zM336 639q0 -131 26.5 -225.5 t65.5 -141.5t74 -47q27 0 44 27t27 86l56 307q-70 0 -95.5 33t-25.5 74q0 49 31.5 77.5t72.5 28.5h52q33 201 61 346q27 133 172 133q117 0 117 -104q0 -23 -2 -35l-62 -340q111 6 202 53t145.5 131t54.5 191q0 129 -88 202.5t-258 73.5q-201 0 -351.5 -99t-234.5 -294.5 t-84 -476.5z" />
<glyph unicode="S" horiz-adv-x="1419" d="M70 403q0 113 38.5 172.5t114.5 59.5q55 0 90 -28.5t35 -74.5q0 -41 -6 -71q0 -8 -3 -28.5t-3 -43.5q0 -92 93 -137t261 -45q174 0 272.5 62.5t98.5 174.5q0 70 -45 120t-112.5 84t-190.5 83q-158 61 -257.5 116.5t-170 151t-70.5 236.5q0 147 79 262t227.5 178.5 t348.5 63.5q150 0 275 -44t199.5 -134.5t74.5 -221.5q0 -129 -39 -194.5t-114 -65.5q-53 0 -89 33t-36 78q0 39 6 72q6 61 6 77q0 86 -84 131.5t-209 45.5q-176 0 -269 -65t-93 -181q0 -78 48 -133.5t119.5 -92t200.5 -88.5q156 -63 250 -114t160.5 -139.5t66.5 -217.5 q0 -242 -183 -371.5t-490 -129.5q-273 0 -436.5 103t-163.5 316z" />
<glyph unicode="T" horiz-adv-x="1427" d="M72 1251q0 174 113.5 279.5t346 155t596.5 49.5q225 0 359.5 -8.5t234.5 -26.5q64 -12 95.5 -43t31.5 -72q1 -69 -37 -99q-31 -25 -94 -25q-12 0 -26 1q-184 14 -288 19.5t-271 7.5q-76 -377 -140 -758q-23 -139 -47 -322.5t-33 -295.5q-4 -59 -49 -91t-108 -32 q-68 0 -105 32.5t-37 86.5q0 49 15.5 162.5t36.5 238.5q23 125 34 217q23 156 51.5 309.5t57.5 290.5q6 31 14 71t19 89q-201 -6 -315.5 -33t-163 -75t-48.5 -124q0 -70 41 -133q8 -14 9 -30q0 -39 -46.5 -73t-95.5 -34q-35 0 -57 21q-41 35 -67.5 99t-26.5 146z" />
<glyph unicode="U" horiz-adv-x="1822" d="M-2 1307q0 63 57 143q209 287 490 287q125 0 195.5 -76t70.5 -223q0 -104 -14.5 -192.5t-48.5 -239.5l-84 -375q-4 -18 -14.5 -65.5t-16.5 -89.5t-6 -83q0 -66 36.5 -104.5t104.5 -38.5q123 0 249 131t233.5 423t166.5 746q14 104 42 145.5t108 41.5q72 0 106.5 -43 t34.5 -140q0 -55 -13.5 -145t-39.5 -252q-55 -313 -88 -575q-16 -119 -17 -176q0 -84 38 -128.5t102 -44.5q68 0 132 45.5t152 149.5q25 29 56 29q27 0 42 -24.5t15 -67.5q0 -80 -39 -127q-106 -129 -210.5 -188.5t-219.5 -59.5q-170 0 -260 87t-90 226q0 78 32 303 q-102 -301 -258.5 -458.5t-361.5 -157.5q-172 0 -260 95t-88 255q0 90 26 219l127 586q4 16 19.5 90t15.5 160q0 49 -19.5 73.5t-51.5 24.5q-61 0 -143.5 -58.5t-172.5 -179.5q-28 -38 -61 -38h-2q-29 0 -50.5 27.5t-21.5 62.5z" />
<glyph unicode="V" horiz-adv-x="1562" d="M252 907q0 360 51 647q18 106 52 144.5t116 38.5q135 0 135 -117q0 -12 -4 -45q-61 -369 -61 -668q0 -313 52 -476t157 -163q106 0 231 147.5t229 370.5q-125 78 -188.5 202t-63.5 286t50.5 273.5t137.5 166.5t193 55q131 0 208 -94t77 -258q0 -236 -102 -514 q109 -18 247 -17q48 0 69.5 -21t21.5 -54q0 -53 -32 -94t-99 -43h-40q-139 0 -251 24q-145 -305 -351 -506.5t-413 -201.5q-213 0 -317.5 247.5t-104.5 669.5zM1165 1288q0 -201 129 -297q80 229 80 379q0 86 -22.5 126t-61.5 40q-55 0 -90 -64.5t-35 -183.5z" />
<glyph unicode="W" horiz-adv-x="2492" d="M248 893q0 301 53 661q14 102 52 142.5t120 40.5q61 0 95 -27t34 -98q0 -14 -4 -56q-61 -420 -61 -714q0 -274 47 -424t127 -150q72 0 173 150.5t201.5 446.5t169.5 706q16 94 60.5 130t120.5 36q63 0 93 -28t30 -83q0 -33 -5 -51q-57 -334 -57 -668q0 -227 15.5 -362 t59.5 -206t128 -71q98 0 219 148.5t221 369.5q-125 78 -188.5 202t-63.5 286t50.5 273.5t137.5 166.5t193 55q131 0 208 -94t77 -258q0 -231 -100 -514q104 -18 245 -18q47 0 68.5 -20.5t21.5 -53.5q0 -53 -31.5 -94t-99.5 -43h-23q-148 0 -268 24q-143 -305 -344.5 -506.5 t-398.5 -201.5q-180 0 -270 191.5t-103 512.5q-123 -356 -277.5 -530t-328.5 -174q-197 0 -297 244.5t-100 658.5zM2095 1288q0 -201 129 -297q80 229 80 379q0 86 -22.5 126t-61.5 40q-55 0 -90 -64.5t-35 -183.5z" />
<glyph unicode="X" horiz-adv-x="1458" d="M-31 72q0 51 60 116l663 756l-65 240q-47 168 -104.5 235.5t-131.5 67.5q-109 0 -254 -158q-25 -27 -55 -26q-31 0 -52.5 23.5t-21.5 59.5q0 61 60 134q84 98 182 157.5t233 59.5q145 0 239.5 -91.5t149.5 -293.5l41 -144l359 437q41 49 84 69.5t104 20.5q55 0 87 -20.5 t32 -57.5q0 -49 -55 -113l-533 -614l117 -418q31 -109 55.5 -166t60.5 -85t95 -28q63 0 132 45.5t159 149.5q25 29 55 29q27 0 42 -24.5t15 -67.5q0 -80 -39 -127q-100 -119 -198.5 -183.5t-218.5 -64.5q-182 0 -275.5 108.5t-150.5 317.5l-70 254l-483 -598 q-41 -51 -84 -66.5t-101 -15.5q-57 0 -95 21.5t-38 60.5z" />
<glyph unicode="Y" horiz-adv-x="1742" d="M-2 1307q0 63 57 143q209 287 490 287q125 0 195.5 -76t70.5 -223q0 -106 -19.5 -218t-58.5 -284q-25 -102 -37 -164.5t-12 -103.5q0 -104 37 -149.5t129 -45.5q111 0 226.5 122t208.5 369.5t134 606.5q10 90 47 128t107 38q143 0 143 -144q0 -25 -2 -39 q-43 -305 -80 -550q-20 -147 -43.5 -303t-46.5 -316q150 41 316 74q11 4 36 4q70 0 70 -90q0 -49 -21.5 -83t-66.5 -42q-186 -35 -367 -78l-6 -49q-57 -403 -228 -597t-427 -194q-170 0 -263 83t-93 212q0 215 192.5 383t583.5 297l41 289q8 49 20 131q-96 -254 -245.5 -379 t-333.5 -125q-176 0 -268.5 107.5t-92.5 277.5q0 76 16.5 167t51.5 247q31 141 46 225t15 150q0 98 -76 98q-59 0 -140 -58.5t-171 -179.5q-28 -38 -61 -38h-2q-29 0 -50.5 27.5t-21.5 62.5zM743 -328q0 -57 36 -95t102 -38q285 0 356 537l2 14q-496 -172 -496 -418z" />
<glyph unicode="Z" horiz-adv-x="1476" d="M31 178q0 63 42 116.5t117.5 84.5t176.5 31q57 0 86 -2q401 500 725 1054q-176 31 -359 31q-236 0 -345 -54.5t-109 -170.5q0 -35 8 -59.5t24 -57.5q18 -37 19 -53q0 -41 -38 -69t-87 -28q-51 0 -84 31q-39 35 -62.5 95.5t-23.5 136.5q0 240 198.5 354.5t524.5 114.5 q162 0 330.5 -18.5t316.5 -59.5q61 -16 81.5 -46t20.5 -77q0 -55 -28.5 -86t-79.5 -31h-15q-221 -360 -448 -692q-182 -264 -256 -358q119 -27 207 -50q109 -29 175 -42t116 -13q119 0 203.5 40t160.5 128q25 29 55 29q27 0 42.5 -24.5t15.5 -67.5q0 -80 -39 -127 q-115 -137 -222.5 -192.5t-258.5 -55.5q-106 0 -196.5 26.5t-219.5 79.5q-111 47 -197 76q-94 -102 -170 -142t-159 -40q-113 0 -180.5 52t-67.5 136z" />
<glyph unicode="[" horiz-adv-x="829" d="M137 -37q0 12 4 45q88 719 232 1714q16 104 63 143.5t166 39.5h287q70 0 100.5 -30t30.5 -79q0 -70 -32 -100.5t-103 -30.5h-246q-20 -174 -54 -420t-48 -360q-82 -571 -109 -836h215q80 0 115 -25.5t35 -82.5q0 -63 -37 -98.5t-123 -35.5l-316 3q-180 0 -180 153z" />
<glyph unicode="\" horiz-adv-x="1042" d="M221 1755q0 70 42 114t95 44q37 0 67 -24.5t44 -76.5l465 -1626q6 -25 6 -47q0 -61 -42 -105t-95 -44q-39 0 -71 27.5t-48 82.5l-455 1594q-8 31 -8 61z" />
<glyph unicode="]" horiz-adv-x="829" d="M-98 -84q0 70 31.5 100.5t103.5 30.5h246q20 174 54 420t48 360q82 571 109 836h-215q-80 0 -115 25.5t-35 83.5q0 63 37 98t123 35l315 -2q180 0 180 -154q0 -12 -4 -45q-88 -719 -231 -1714q-16 -104 -63.5 -143.5t-166.5 -39.5h-286q-70 0 -100.5 30t-30.5 79z" />
<glyph unicode="^" d="M180 184q0 29 19 62l471 839q23 41 58.5 62.5t74.5 21.5q37 0 66.5 -21.5t41.5 -62.5l265 -837q6 -20 6 -43q0 -49 -34 -79t-77 -30q-31 0 -56.5 18.5t-37.5 55.5l-205 680l-371 -680q-20 -37 -51 -55.5t-65 -18.5q-43 0 -74 24.5t-31 63.5z" />
<glyph unicode="_" horiz-adv-x="724" d="M-49 -113q0 55 28.5 84t79.5 29h506q106 0 107 -113q0 -57 -28 -88.5t-79 -31.5h-506q-51 0 -79.5 31.5t-28.5 88.5z" />
<glyph unicode="`" horiz-adv-x="1228" d="M248 1579q0 57 40 94t91 37q35 0 65.5 -20.5t49.5 -61.5l190 -426q8 -18 8 -39q0 -31 -21.5 -52t-49.5 -21q-37 -1 -64 34l-264 340q-45 57 -45 115z" />
<glyph unicode="a" horiz-adv-x="962" d="M72 324q0 164 75.5 310t201.5 235t267 89q45 0 60.5 -17t25.5 -62q43 8 91 8q100 0 100 -72q0 -43 -31 -205q-47 -236 -47 -327q0 -31 15.5 -49.5t39.5 -18.5q39 0 94.5 50t149.5 163q25 29 55 29q27 0 42.5 -24.5t15.5 -67.5q0 -82 -39 -127q-84 -104 -178.5 -176 t-182.5 -72q-68 0 -124 46t-85 126q-106 -172 -268 -172q-127 0 -202.5 92t-75.5 242zM328 322q0 -63 25.5 -94t70.5 -31t86 53t59 141l76 377q-86 -2 -158.5 -64.5t-115.5 -165t-43 -216.5z" />
<glyph unicode="b" horiz-adv-x="968" d="M113 604q0 264 65.5 574.5t191.5 528.5t300 218q94 0 151.5 -81t57.5 -210q0 -168 -63.5 -333.5t-211.5 -348.5q137 -10 223 -113.5t103 -254.5q96 6 229 41q12 4 29 4q26 0 40.5 -27t14.5 -67q0 -51 -14.5 -79t-44.5 -38q-123 -43 -271 -49q-41 -170 -154.5 -274.5 t-250.5 -104.5q-207 0 -301 157.5t-94 456.5zM369 446q0 -117 44 -178t103 -61q64 0 113 53t65 154q-63 43 -97 112.5t-34 147.5q0 29 8 78h-6q-84 0 -140 -83t-56 -223zM383 813q135 248 216 437.5t81 336.5q0 66 -15.5 100.5t-41.5 34.5q-41 0 -89.5 -121.5t-89.5 -330.5 t-61 -457z" />
<glyph unicode="c" horiz-adv-x="753" d="M66 403q0 166 65.5 291t170 192.5t218.5 67.5q113 0 175.5 -66.5t62.5 -170.5q0 -86 -38 -145.5t-99 -59.5q-39 0 -62.5 18.5t-23.5 51.5q0 14 4 32.5t6 26.5q10 31 10 57q0 27 -13.5 41.5t-37.5 14.5q-47 0 -88 -42t-65.5 -114t-24.5 -158q0 -237 204 -237h2 q84 0 181.5 56t191.5 169q25 29 56 29q27 0 42 -24.5t15 -67.5q0 -78 -39 -127q-96 -119 -230.5 -183.5t-259.5 -64.5q-200 0 -311.5 113.5t-111.5 299.5z" />
<glyph unicode="d" horiz-adv-x="1054" d="M72 326q0 164 69.5 304t191.5 229t273 106q39 397 148.5 678.5t287.5 281.5q88 0 146.5 -80t58.5 -241q0 -229 -112.5 -536.5t-300.5 -631.5q8 -119 35.5 -170t70.5 -51q55 0 112.5 49t153.5 164q25 29 56 29q26 0 41.5 -24.5t15.5 -67.5q0 -82 -39 -127 q-84 -102 -184.5 -175t-198.5 -73q-156 0 -238 182q-86 -109 -150.5 -145.5t-150.5 -36.5q-125 0 -205.5 93t-80.5 243zM328 346q0 -149 101 -149h1q39 0 78 31.5t98 117.5q-20 111 -20 248q0 49 4 160q-113 -35 -187.5 -151t-74.5 -257zM836 758q229 500 229 803 q0 78 -13.5 120.5t-31.5 42.5q-39 0 -78 -138t-66.5 -361.5t-39.5 -466.5z" />
<glyph unicode="e" horiz-adv-x="804" d="M68 426q0 141 59 263t164.5 193.5t238.5 71.5q119 0 191 -70.5t72 -191.5q0 -141 -101.5 -242.5t-343.5 -160.5q51 -94 195 -94q92 0 209.5 64.5t203.5 168.5q25 29 56 29q26 0 41.5 -24.5t15.5 -67.5q0 -82 -39 -127q-76 -92 -214 -170t-296 -78q-215 0 -333.5 116.5 t-118.5 319.5zM315 449q121 29 190.5 86t69.5 133q0 39 -21.5 62.5t-57.5 23.5q-76 0 -128.5 -88t-52.5 -213v-4z" />
<glyph unicode="f" horiz-adv-x="759" d="M106 193q0 393 85 797.5t233.5 669.5t327.5 265q96 0 150 -86t54 -231q0 -481 -575 -1049q-20 -201 -21 -352q0 -211 14.5 -433.5t47.5 -222.5q61 0 61 213q0 160 -21.5 309.5t-58.5 315.5v5q0 26 17 63q20 41 49 71.5t51 30.5q41 0 98 -4q18 -2 44 -2q82 0 182 14 q16 2 34.5 4t36.5 2q58 0 58 -86q0 -161 -251 -161h-3q-49 0 -141 18q27 -127 44 -281.5t17 -255.5q0 -221 -71.5 -337.5t-188.5 -116.5q-147 0 -210 209t-63 631zM418 831q164 186 252 388t90 378q0 125 -51 125q-37 0 -91.5 -124.5t-107.5 -330.5t-92 -436z" />
<glyph unicode="g" horiz-adv-x="980" d="M-4 -698q0 145 114.5 312t430.5 411l12 79q-35 -55 -91 -84.5t-112 -29.5q-127 0 -202.5 92t-75.5 242q0 164 75.5 310t201.5 235t267 89q45 0 60.5 -17t25.5 -62q39 8 91 8q51 0 72.5 -15.5t21.5 -60.5q0 -25 -2 -39q-8 -63 -51 -321q-8 -49 -17.5 -107.5t-19.5 -124.5 q158 123 303 217q27 16 47 17q27 0 42 -26t15 -65q0 -47 -14 -73.5t-45 -46.5q-176 -119 -258 -176l-131 -89q-78 -424 -204 -666.5t-321 -242.5q-104 0 -169.5 64.5t-65.5 169.5zM197 -653q0 -35 13 -57.5t44 -22.5q51 0 115.5 123t124.5 391q-158 -135 -227.5 -243.5 t-69.5 -190.5zM328 322q0 -63 25.5 -94t70.5 -31q47 0 90 57t61 164l66 350q-84 -2 -155.5 -64.5t-114.5 -165t-43 -216.5z" />
<glyph unicode="h" horiz-adv-x="1028" d="M109 193q0 66 2 104l2 164q0 315 64.5 657t190.5 574.5t302 232.5q94 0 152.5 -81t58.5 -210q0 -207 -121 -429t-393 -519q-6 -106 -7 -219q68 174 151 283.5t164 156.5t148 47q133 0 133 -133q0 -80 -45 -289q-39 -178 -39 -235q0 -82 60 -82q41 0 97 50t151 163 q25 29 55 29q27 0 42 -24.5t15 -67.5q0 -82 -39 -127q-94 -109 -193 -178.5t-226 -69.5q-104 0 -157.5 60.5t-53.5 174.5q0 57 28 205q27 129 27 178q0 33 -23 33q-27 0 -76 -68.5t-98 -181t-80 -237.5q-39 -164 -192 -164q-61 0 -80.5 44t-19.5 159zM389 942 q127 150 210 326t83 319q0 66 -14.5 100.5t-40.5 34.5q-37 0 -82 -105.5t-87 -284.5t-69 -390z" />
<glyph unicode="i" horiz-adv-x="503" d="M96 334q0 92 23.5 236.5t60.5 269.5q18 66 49 90t99 24q104 0 104 -69q0 -51 -39 -238q-49 -225 -49 -305q0 -61 16.5 -94t55.5 -33q37 0 92 51t147 162q25 29 56 29q27 0 42 -24.5t15 -67.5q0 -82 -39 -127q-203 -248 -379 -248q-133 0 -193.5 94t-60.5 250zM195 1241 q0 72 56 120t140 48q76 0 123 -37t47 -104q0 -82 -53 -130t-141 -48q-86 0 -129 39.5t-43 111.5z" />
<glyph unicode="j" horiz-adv-x="520" d="M-465 -698q0 145 112.5 310t424.5 406l14 105q29 197 45 387q12 111 39 330q8 59 45 86.5t113 27.5q61 0 80.5 -18t19.5 -51q0 -94 -68 -520l-20 -142q164 123 299 213q27 16 47 17q27 0 42 -26t15 -65q0 -47 -14 -73.5t-45 -46.5q-143 -94 -383 -260q-80 -426 -207 -670 t-323 -244q-106 0 -171 64.5t-65 169.5zM-264 -653q0 -80 57 -80q53 0 116.5 120.5t119.5 389.5q-156 -133 -224.5 -240.5t-68.5 -189.5zM145 1241q0 72 56.5 120t140.5 48q76 0 123 -37t47 -104q0 -82 -53 -130t-142 -48q-86 0 -129 39.5t-43 111.5z" />
<glyph unicode="k" horiz-adv-x="1075" d="M113 461q0 315 64.5 657t190.5 574.5t302 232.5q94 0 152.5 -81t58.5 -210q0 -207 -121 -429t-393 -519q-6 -106 -7 -219q98 256 225.5 371.5t237.5 115.5q102 0 165 -69.5t63 -171.5q0 -113 -57.5 -207t-196.5 -168q8 -55 50 -89t101 -34q63 0 122.5 49t156.5 164 q25 29 55 29q27 0 42 -24.5t15 -67.5q0 -82 -39 -127q-92 -113 -186 -180.5t-223 -67.5q-158 0 -254 90t-96 239q0 80 82 115q90 39 129 83t39 108q0 37 -15.5 55t-38.5 18q-55 0 -121.5 -79.5t-124 -205.5t-90.5 -259q-23 -96 -52.5 -130t-92.5 -34t-93 46t-40 142t-10 283 zM389 942q127 150 210 326t83 319q0 66 -14.5 100.5t-40.5 34.5q-37 0 -82 -105.5t-87 -284.5t-69 -390z" />
<glyph unicode="l" horiz-adv-x="667" d="M113 578q0 250 64.5 569t190.5 548.5t300 229.5q98 0 154.5 -91t56.5 -261q0 -244 -135.5 -565.5t-366.5 -636.5q14 -84 47 -120t86 -36q84 0 147.5 48t161.5 165q25 29 55 29q27 0 42.5 -24.5t15.5 -67.5q0 -82 -39 -127q-88 -109 -191.5 -178.5t-234.5 -69.5 q-180 0 -267 163.5t-87 424.5zM362 647q145 240 231.5 480.5t86.5 439.5q0 155 -56 155h-1q-48 0 -107 -170t-104 -421.5t-50 -483.5z" />
<glyph unicode="m" horiz-adv-x="1523" d="M102 334q0 266 76 506q18 59 60.5 86.5t117.5 27.5q41 0 57.5 -10t16.5 -39q0 -33 -31 -147q-20 -82 -32.5 -142.5t-20.5 -150.5q55 160 132 270.5t158 164.5t152 54q72 0 102 -32.5t30 -100.5q0 -66 -39 -237q-16 -74 -23 -111q102 252 227 366.5t234 114.5 q133 0 133 -133q0 -80 -45 -289q-39 -178 -39 -235q0 -82 59 -82q41 0 97.5 50t150.5 163q25 29 56 29q27 0 42 -24.5t15 -67.5q0 -82 -39 -127q-88 -109 -189.5 -178.5t-230.5 -69.5q-104 0 -157.5 60.5t-53.5 174.5q0 57 29 205q27 129 27 178q0 33 -23 33 q-27 0 -76 -68.5t-98 -181t-80 -237.5q-23 -98 -52.5 -131t-94.5 -33q-68 0 -102 64.5t-34 156.5q0 78 21 225q16 131 16 172q0 33 -22 33q-31 0 -78 -73.5t-91 -188.5t-71 -225q-23 -96 -52.5 -130t-92.5 -34q-78 0 -110 82t-32 262z" />
<glyph unicode="n" horiz-adv-x="1015" d="M102 334q0 266 76 506q18 59 60.5 86.5t117.5 27.5q41 0 57.5 -10t16.5 -39q0 -33 -31 -147q-20 -82 -32.5 -143.5t-20.5 -151.5q68 176 152 286.5t164.5 157.5t148.5 47q133 0 133 -133q0 -80 -45 -289q-39 -178 -39 -235q0 -82 60 -82q41 0 97 50t150 163q25 29 56 29 q27 0 42 -24.5t15 -67.5q0 -82 -39 -127q-88 -109 -189.5 -178.5t-230.5 -69.5q-104 0 -157.5 60.5t-53.5 174.5q0 57 29 205q27 129 27 178q0 33 -23 33q-27 0 -75 -68.5t-98 -181t-81 -237.5q-23 -96 -52.5 -130t-92.5 -34q-78 0 -110 82t-32 262z" />
<glyph unicode="o" horiz-adv-x="923" d="M68 420q0 156 59 277.5t163.5 190t231.5 68.5q156 0 251 -107.5t112 -264.5q96 6 229 41q16 4 29 4q26 0 40.5 -27t14.5 -67q0 -98 -59 -117q-123 -43 -271 -49q-39 -172 -153.5 -275.5t-259.5 -103.5q-123 0 -210 59.5t-132 157.5t-45 213zM324 438q0 -113 44 -172 t103 -59q66 0 114 53t64 154q-63 43 -97 112.5t-34 147.5q0 33 6 65h-10q-82 0 -136 -78.5t-54 -222.5z" />
<glyph unicode="p" horiz-adv-x="985" d="M-244 -635q0 201 92.5 468t284.5 589l-4 421q0 55 47 89q49 35 123 35q43 0 62.5 -17.5t21.5 -68.5q0 -51 2 -76q66 82 129.5 117.5t134.5 35.5q115 0 187.5 -92t72.5 -241q0 -109 -34.5 -211.5t-96.5 -186.5q43 -12 72 -12q68 0 129 49t158 164q25 29 55 29 q27 0 42 -24.5t15 -67.5q0 -82 -39 -127q-88 -109 -189 -178.5t-230 -69.5q-109 0 -177 78q-117 -76 -243 -78q-27 -395 -121 -660.5t-277 -265.5q-111 0 -164 80t-53 221zM-61 -600q0 -66 15 -100.5t36 -34.5q55 0 92 240.5t47 598.5q-88 -205 -139 -391t-51 -313zM381 186 q74 17 136.5 81.5t99 159.5t36.5 200q0 61 -24.5 93t-65.5 32q-74 0 -178 -156q-2 -90 -2 -264q0 -94 -2 -146z" />
<glyph unicode="q" horiz-adv-x="1024" d="M72 328q0 162 76.5 307t204.5 234t274 89q49 0 75 -32q18 66 55.5 88t102.5 22q70 0 94 -20q21 -19 21 -54v-6q0 -25 -25.5 -113.5t-34.5 -117.5q-33 -115 -70.5 -254t-60.5 -254q-65 -323 -65 -571v-8q0 -94 15.5 -161t39.5 -67q20 0 44 69.5t40 186.5t16 248 q0 156 -14 276q-2 10 -2 33q0 68 34 113t95 45q8 0 156 6q61 6 104 6q47 0 47 -63q0 -80 -35.5 -125t-97.5 -45l-76 2q-20 2 -59 2q8 -117 8 -234q0 -309 -81 -538.5t-253 -229.5q-117 0 -177 134.5t-60 326.5q0 240 53 473q-70 -106 -182 -106q-113 0 -187.5 94t-74.5 244z M328 328q0 -63 23.5 -97t64.5 -34q47 0 90 58t61 140l88 373q-90 -2 -164.5 -63.5t-118.5 -163t-44 -213.5z" />
<glyph unicode="r" horiz-adv-x="931" d="M102 334q0 266 76 506q18 59 60.5 86.5t117.5 27.5q41 0 57.5 -10t16.5 -39q0 -33 -31 -147q-20 -82 -32.5 -143.5t-20.5 -151.5q68 176 152 286.5t164.5 157.5t148.5 47q133 0 133 -133q0 -27 -18 -129q-16 -82 -17 -102q0 -72 52 -72q57 0 147 90q27 27 55 27 q27 0 42.5 -23.5t15.5 -62.5q0 -76 -41 -119q-57 -59 -134 -101t-163 -42q-109 0 -165 55t-56 150q0 31 6 61q4 41 4 55q0 33 -23 33q-31 0 -81 -68.5t-99 -181t-80 -237.5q-23 -96 -52.5 -130t-92.5 -34q-78 0 -110 82t-32 262z" />
<glyph unicode="s" horiz-adv-x="874" d="M-23 184q0 41 29 76l27 33q113 139 170 229q35 59 82 158.5t92 206.5q39 90 162 90q57 0 79.5 -10.5t22.5 -32.5q0 -12 -8 -39t-23 -53q-37 -74 -37 -125q0 -31 21.5 -68t67.5 -92q66 -86 99.5 -146.5t33.5 -131.5q0 -20 -4 -58q100 39 235 207q25 29 55 29 q27 0 42.5 -24.5t15.5 -67.5q0 -78 -39 -127q-102 -127 -195.5 -173.5t-230.5 -50.5q-81 -69 -192 -69h-3q-106 0 -162.5 49t-56.5 110q0 53 39 92.5t115 39.5q27 0 62.5 -5.5t53.5 -7.5q-2 53 -23.5 100.5t-54 91.5t-61.5 77q-63 -121 -125.5 -201t-136.5 -152 q-37 -37 -78 -37q-33 0 -53.5 24t-20.5 58z" />
<glyph unicode="t" horiz-adv-x="804" d="M2 854q0 115 92 115h117q35 225 106.5 411.5t173 297t218.5 110.5q86 0 135 -76t49 -190q0 -317 -266 -553h229q33 0 47.5 -14.5t14.5 -53.5q0 -141 -232 -141h-250q-4 -102 -4 -160q0 -213 50 -299t159 -86q88 0 155.5 53.5t159.5 159.5q25 29 56 29q26 0 41.5 -24.5 t15.5 -67.5q0 -82 -39 -127q-88 -109 -192.5 -178.5t-239.5 -69.5q-418 0 -418 588q0 90 6 182h-80q-61 0 -82.5 22.5t-21.5 71.5zM457 999q121 104 181 234.5t60 236.5q0 121 -45 121q-30 0 -68 -76.5t-72 -213t-56 -302.5z" />
<glyph unicode="u" horiz-adv-x="946" d="M98 287q0 154 20.5 281.5t67.5 271.5q20 61 57.5 87.5t116.5 26.5q45 0 62.5 -14t17.5 -43q0 -16 -22 -111q-20 -76 -33 -137q-41 -215 -41 -287q0 -43 10.5 -60t32.5 -17q31 0 77 61.5t98 186t102 307.5q16 61 50 87.5t101 26.5q47 0 65.5 -11t18.5 -42q0 -51 -51 -280 q-57 -262 -57 -324q0 -39 16 -60.5t43 -21.5q41 0 97.5 50t150.5 163q25 29 55 29q27 0 42 -24.5t15 -67.5q0 -82 -39 -127q-88 -109 -189 -178.5t-230 -69.5q-98 0 -144.5 75.5t-46.5 213.5q-35 -139 -104.5 -214t-149.5 -75q-92 0 -150.5 85t-58.5 212z" />
<glyph unicode="v" horiz-adv-x="919" d="M102 764v72q2 68 37 94t105 26q53 0 78.5 -23.5t25.5 -78.5q0 -236 29 -612q123 182 184 290q-31 59 -31 142q0 70 31 135t84 106t121 41q59 0 96 -42t37 -121q0 -92 -49 -211q78 4 207 30l55 11q7 2 21 2q31 0 47 -20.5t16 -55.5q0 -63 -24.5 -99t-73.5 -53 q-91 -30 -194 -30h-7q-90 0 -170 24q-59 -96 -131 -198q-82 -117 -141.5 -160t-135.5 -43q-84 0 -132 65.5t-60 206.5q-25 287 -25 502z" />
<glyph unicode="w" d="M102 764v72q2 68 37 94t105 26q53 0 78.5 -23.5t25.5 -78.5q0 -236 29 -612q139 293 256 610q23 61 54.5 82.5t76.5 21.5q55 0 76.5 -22.5t21.5 -79.5q0 -236 29 -612q123 182 184 290q-31 59 -31 142q0 70 31 135t84 106t121 41q59 0 96 -42t37 -121q0 -92 -49 -211 q78 4 207 30l55 11q7 2 21 2q31 0 47 -20.5t16 -55.5q0 -63 -24.5 -99t-73.5 -53q-91 -30 -194 -30h-7q-90 0 -170 24q-59 -96 -131 -198q-82 -117 -140.5 -160t-131.5 -43q-82 0 -124 63.5t-52 208.5l-11 150q-63 -172 -113.5 -262.5t-100.5 -125t-118 -34.5 q-84 0 -132 65.5t-60 206.5q-25 287 -25 502z" />
<glyph unicode="x" horiz-adv-x="1083" d="M35 231q0 102 47 166t133 64q74 0 74 -55q0 -14 -4 -52q-6 -74 -6 -84q0 -61 53 -61q39 0 74.5 46t59 126t23.5 176q0 74 -18 124t-45 50q-23 0 -33 -11t-20 -38q-12 -33 -33 -52.5t-72 -19.5q-45 0 -71.5 32t-26.5 97q0 104 63.5 164t163.5 60q86 0 156 -42t106 -122 q61 82 138 123t151 41q80 0 122 -37t42 -119q0 -92 -35 -144.5t-84 -52.5q-45 0 -61.5 18.5t-24.5 53.5q-4 25 -12 37t-29 12q-25 0 -52.5 -46t-46.5 -122t-19 -157q0 -96 46 -148.5t126 -52.5t150.5 54t164.5 169q25 29 55 29q27 0 42.5 -24.5t15.5 -67.5q0 -82 -39 -127 q-90 -106 -197.5 -177t-243.5 -71q-104 0 -185 39t-128 110q-117 -147 -276 -147q-113 0 -178.5 65.5t-65.5 173.5z" />
<glyph unicode="y" horiz-adv-x="980" d="M-8 -698q0 96 44 196.5t163.5 230.5t339.5 298l6 47q14 76 33 217q-41 -147 -115 -224t-156 -77q-92 0 -150.5 85t-58.5 212q0 154 20.5 281.5t67.5 271.5q20 61 57.5 87.5t116.5 26.5q45 0 62.5 -14t17.5 -43q0 -16 -22 -111q-20 -76 -33 -137q-16 -84 -28.5 -160.5 t-12.5 -126.5q0 -77 42 -77h1q31 0 77 61.5t98 186t102 307.5q16 61 50 87.5t101 26.5q47 0 65.5 -12t18.5 -41q0 -51 -53 -352l-53 -330q158 119 307 217q27 16 47 17q27 0 42 -26t15 -65q0 -47 -14 -73.5t-45 -46.5l-393 -265q-78 -424 -204 -666.5t-321 -242.5 q-104 0 -169.5 64.5t-65.5 169.5zM193 -653q0 -35 13 -57.5t44 -22.5q51 0 114.5 118.5t127.5 395.5q-158 -133 -228.5 -242.5t-70.5 -191.5z" />
<glyph unicode="z" horiz-adv-x="911" d="M119 834q0 49 23.5 86.5t64.5 37.5q94 0 252 -14q33 -2 120 -8t146 -6q20 0 78 16q10 2 39.5 10.5t50.5 8.5q33 0 54.5 -29t21.5 -88q0 -66 -31 -102.5t-96 -65.5q-186 -80 -309 -171t-123 -181q0 -57 53 -94t158 -37q115 0 232.5 57t211.5 174q25 29 55 29 q27 0 42.5 -24.5t15.5 -67.5q0 -76 -39 -127q-96 -125 -238.5 -197t-320.5 -72q-139 0 -241.5 42t-157 115t-54.5 163q0 135 108.5 239.5t311.5 200.5l-336 -8h-5q-42 -1 -64 31q-24 34 -23 82z" />
<glyph unicode="{" horiz-adv-x="1003" d="M109 901q14 109 124 109q113 0 170.5 40t71.5 140q2 10 31 244l12 108q25 182 144.5 272.5t316.5 90.5q113 0 160 -27t47 -102q0 -41 -34 -70t-93 -29q-100 0 -157.5 -19.5t-83 -60.5t-32.5 -110q-6 -84 -32 -281l-6 -55q-25 -190 -205 -266q131 -61 131 -236 q0 -20 -4 -69l-19 -127q-25 -180 -28 -226q-2 -14 -2 -39q0 -84 49 -116.5t176 -32.5q57 0 92 -31t35 -76q0 -63 -51.5 -95t-173.5 -32q-205 0 -302.5 96.5t-97.5 272.5q0 55 4 84q6 55 13.5 103.5t11.5 89.5l18 147q2 12 2 35q0 70 -44 101.5t-138 31.5q-55 0 -84 40 t-22 95z" />
<glyph unicode="|" horiz-adv-x="667" d="M63 -516q45 387 164 1161q8 57 47 306t68 463t49 392q6 59 47 84t97 25q125 0 112 -109q-27 -231 -59.5 -463.5t-64 -436.5t-40.5 -261q-119 -774 -164 -1161q-6 -61 -47 -87t-96 -26t-87 25.5t-26 87.5z" />
<glyph unicode="}" horiz-adv-x="1003" d="M-88 -66q0 41 34 70t93 29q100 0 157.5 19.5t83 60.5t31.5 110q8 117 39 330l8 70q25 190 205 266q-131 61 -131 235q0 20 4 70q14 106 17 113q16 111 22 176q2 14 2 39q0 84 -49 116.5t-176 32.5q-57 0 -92 31t-35 76q0 63 51 95t174 32q205 0 302.5 -96.5t97.5 -272.5 q0 -55 -5 -84q-4 -43 -18 -152q-2 -18 -16 -124q-2 -12 -2 -35q0 -70 44 -101.5t138 -31.5q55 0 84 -40t22 -96q-14 -109 -125 -108q-113 0 -170 -40t-71 -140q-12 -94 -39 -318l-12 -98q-25 -182 -145 -272.5t-316 -90.5q-113 0 -160 27t-47 102z" />
<glyph unicode="~" d="M156 457q0 68 86 198q55 86 111.5 126t123.5 40q39 0 74 -14t100 -53l324 -191l112 162q23 31 57 49.5t68 18.5q39 0 66 -24t27 -67q0 -68 -86 -198q-57 -86 -114.5 -126t-125.5 -40q-39 0 -69.5 13.5t-100.5 54.5l-324 190l-112 -162q-23 -31 -56.5 -49t-68.5 -18 q-39 0 -65.5 23.5t-26.5 66.5z" />
<glyph unicode="&#xa1;" horiz-adv-x="696" d="M-53 -709q0 18 6 43q53 217 141 525.5t168 535.5q23 66 107 66q41 0 67.5 -18.5t26.5 -57.5l-2 -16q-35 -227 -94.5 -521t-110.5 -507q-16 -68 -60 -100t-118 -32q-72 0 -101.5 20.5t-29.5 61.5zM248 743q0 94 53 150.5t145 56.5q90 0 136.5 -49t46.5 -129 q0 -92 -52.5 -147.5t-146.5 -55.5q-90 0 -136 44t-46 130z" />
<glyph unicode="&#xa2;" horiz-adv-x="954" d="M90 403q0 135 52.5 245t144.5 177.5t209 83.5l24 207q2 31 25.5 47.5t52.5 16.5q31 0 50.5 -17.5t15.5 -46.5l-29 -207q123 -14 182.5 -76.5t59.5 -156.5q0 -86 -38 -145.5t-100 -59.5q-39 0 -62.5 18.5t-23.5 51.5q0 14 4.5 32.5t6.5 26.5q10 31 10 57q0 27 -13.5 41.5 t-50.5 20.5l-37 -264l-30 -265q70 6 122 45t113 121q25 31 56 31q26 0 41.5 -23.5t15.5 -60.5q0 -74 -35 -127q-109 -168 -336 -184l-22 -201q-4 -31 -29 -48t-53 -17q-29 0 -47.5 17t-14.5 48l29 209q-131 33 -212 144.5t-81 258.5zM328 414q0 -142 84 -197l30 238l31 254 q-74 -27 -109.5 -104t-35.5 -191z" />
<glyph unicode="&#xa3;" horiz-adv-x="1075" d="M43 113q0 66 31.5 99.5t95.5 45.5l18 217l-71 -2q-29 0 -44.5 21.5t-15.5 52.5q0 35 19.5 62.5t54.5 25.5l70 -2l6 63q20 233 154.5 366.5t347.5 133.5q109 0 191.5 -38t127.5 -103.5t45 -145.5q0 -59 -30.5 -92t-88.5 -33q-94 0 -129 117q-29 98 -131 98 q-90 0 -158.5 -84t-80.5 -251l-2 -33l309 8q27 0 41 -20.5t14 -49.5q0 -37 -20.5 -66.5t-55.5 -29.5l-301 2l-20 -239l530 14q43 2 65.5 -29t22.5 -76q0 -55 -33.5 -99t-91.5 -44q-55 0 -162.5 6t-152.5 8q-201 14 -291 15q-31 0 -65.5 -10.5t-40.5 -12.5q-51 -18 -82 -18 q-33 0 -54.5 31.5t-21.5 91.5z" />
<glyph unicode="&#xa4;" d="M250 199q0 31 24 55l105 104q-70 109 -70 234q0 127 68 229l-105 105q-23 23 -22 53q0 35 27.5 63.5t62.5 28.5q29 0 53 -24l105 -105q104 72 233 72q125 0 234 -70l104 103q23 23 53 22q35 0 62.5 -28.5t27.5 -63.5q0 -29 -22 -51l-105 -105q68 -102 68 -229 q0 -125 -70 -234l105 -104q25 -25 24 -55q0 -35 -28.5 -62.5t-63.5 -27.5q-31 0 -53 22l-106 107q-102 -68 -230 -68q-127 0 -229 68l-107 -107q-22 -22 -53 -22q-35 0 -63.5 27.5t-28.5 62.5zM496 592q0 -100 63.5 -171t171.5 -71q109 0 172.5 71t63.5 171t-63.5 171 t-172.5 71t-172 -71t-63 -171z" />
<glyph unicode="&#xa5;" horiz-adv-x="1017" d="M72 1096q0 49 35.5 73.5t91.5 24.5q88 0 129 -78l217 -426l297 428q29 41 62.5 56.5t86.5 15.5q45 0 77 -16.5t32 -51.5q0 -39 -41 -94l-354 -475l176 2q27 0 42 -17.5t15 -41.5q0 -31 -19.5 -53.5t-54.5 -22.5l-223 2l-8 -84l229 2q27 0 42.5 -17.5t15.5 -41.5 q0 -31 -20.5 -55.5t-55.5 -22.5l-226 4l-12 -113q-12 -104 -143 -104q-61 0 -95 24.5t-34 73.5l2 21l12 96l-213 -4q-27 0 -41 15t-14 40q0 31 20.5 56.5t53.5 25.5l211 -2l10 88l-219 -2q-27 0 -41.5 16.5t-14.5 40.5q0 31 19.5 55.5t52.5 22.5l178 -4l-246 438 q-33 55 -32 105z" />
<glyph unicode="&#xa6;" horiz-adv-x="667" d="M61 -539q0 14 2 23l125 887q8 59 48 83.5t96 24.5q115 0 114 -88q0 -12 -2 -20l-125 -887q-8 -61 -48 -87t-95 -26q-49 0 -82 20.5t-33 69.5zM264 897q0 14 2 23l125 886q8 59 48 84t96 25q115 0 114 -88q0 -12 -2 -21l-125 -886q-8 -61 -48 -87t-95 -26q-49 0 -82 21.5 t-33 68.5z" />
<glyph unicode="&#xa7;" horiz-adv-x="1243" d="M143 301q0 84 37 128t109 44q41 0 67.5 -21.5t26.5 -54.5l-2 -53q-4 -33 -4 -55q0 -57 59.5 -86t145.5 -29q96 0 147 36t51 101q0 49 -24.5 81t-65.5 52.5t-123 51.5q-154 57 -244 138t-90 228q0 180 148 291q-66 82 -66 201q0 111 55.5 195.5t158 132t237.5 47.5 q186 0 283.5 -77t97.5 -220q0 -100 -34 -147.5t-112 -47.5q-40 0 -67 24.5t-27 59.5q0 18 4 51t4 60q0 113 -157 112q-94 0 -147.5 -44t-53.5 -122q0 -55 33 -94t83 -66.5t158 -74.5q147 -66 208 -137.5t61 -188.5q0 -86 -40 -154.5t-108 -117.5q70 -80 70 -199 q0 -170 -124 -263t-331 -93q-193 0 -308.5 75.5t-115.5 235.5zM463 911q0 -70 50 -112.5t146 -85.5l41 -19q49 -18 99 -43q70 47 69 129q0 60 -51 97.5t-164 91.5q-104 51 -141 71q-49 -49 -49 -129z" />
<glyph unicode="&#xa8;" horiz-adv-x="1228" d="M277 1237q0 82 44 128t117 46q66 0 103 -36t37 -111q0 -82 -44 -128t-118 -46q-66 0 -102.5 35.5t-36.5 111.5zM703 1237q0 82 44 128t117 46q66 0 103 -36t37 -111q0 -82 -44 -128t-118 -46q-66 0 -102.5 35.5t-36.5 111.5z" />
<glyph unicode="&#xa9;" horiz-adv-x="1325" d="M170 1319q0 164 77 300t212 216t307 80t307 -80t212 -216t77 -300t-77 -300t-212 -216t-307 -80t-307 80t-212 216t-77 300zM324 1319q0 -125 53 -230.5t153.5 -168t235.5 -62.5t235.5 62.5t153.5 168t53 230.5t-53 230.5t-153.5 168t-235.5 62.5t-235.5 -62.5 t-153.5 -168t-53 -230.5zM459 1290q0 111 48 201t129 141t179 51q96 0 145.5 -46t49.5 -121q0 -113 -90 -113q-25 0 -38.5 11t-13.5 32q0 8 5.5 32.5t5.5 34.5q0 25 -16.5 40.5t-47.5 15.5q-90 0 -151.5 -76t-61.5 -188q0 -94 44 -151.5t124 -57.5q53 0 98 20.5t93 63.5 q16 12 24 12q14 0 21.5 -14.5t7.5 -34.5q0 -35 -23 -64q-92 -104 -239 -104q-129 0 -211 85t-82 230z" />
<glyph unicode="&#xaa;" horiz-adv-x="804" d="M160 1200q0 137 64.5 259t172 197t232.5 75q39 0 51 -14.5t20 -53.5q25 6 72 6q100 0 100 -78q0 -35 -18 -137q-18 -109 -28.5 -201t-10.5 -209q0 -68 -28.5 -95t-98.5 -27q-63 0 -91 34.5t-22 112.5q-53 -147 -182 -147q-106 0 -169.5 76.5t-63.5 201.5zM389 1198 q0 -51 19.5 -76.5t52.5 -25.5q47 0 85 66.5t70 236.5l33 172q-70 -2 -129 -54.5t-95 -137.5t-36 -181z" />
<glyph unicode="&#xab;" horiz-adv-x="1259" d="M55 485q0 43 14.5 80t43.5 56l325 221q37 25 74 24q47 0 81 -33.5t34 -76.5q0 -49 -47 -82l-265 -182l267 -228q31 -25 30 -61q0 -43 -42 -80t-91 -37q-37 0 -59 20l-289 244q-76 63 -76 135zM598 485q0 43 14.5 80t42.5 56l328 221q37 25 74 24q47 0 80.5 -32.5 t33.5 -75.5q0 -51 -49 -84l-264 -182l266 -228q31 -25 31 -61q0 -43 -42 -80t-91 -37q-37 0 -59 20l-287 244q-78 66 -78 135z" />
<glyph unicode="&#xac;" d="M170 573q0 51 34 92.5t91 41.5h862q63 0 97 -35t34 -90q0 -18 -2 -29l-51 -393q-6 -47 -43 -72t-84 -25q-53 0 -91 31t-30 82l41 297h-762q-47 0 -71.5 29.5t-24.5 70.5z" />
<glyph unicode="&#xad;" horiz-adv-x="825" d="M117 625q0 55 27.5 81.5t80.5 30.5l420 41q51 4 79 -25.5t28 -86.5q0 -111 -107 -121l-420 -41q-49 -4 -78.5 28.5t-29.5 92.5z" />
<glyph unicode="&#xae;" horiz-adv-x="1325" d="M170 1319q0 164 77 300t212 216t307 80t307 -80t212 -216t77 -300t-77 -300t-212 -216t-307 -80t-307 80t-212 216t-77 300zM324 1319q0 -125 53 -230.5t153.5 -168t235.5 -62.5t235.5 62.5t153.5 168t53 230.5t-53 230.5t-153.5 168t-235.5 62.5t-235.5 -62.5 t-153.5 -168t-53 -230.5zM516 1032q0 33 23 160l14 90l18 109q6 25 9.5 49t7.5 47q-2 -23 14 96l-31 -12q-16 -8 -29.5 3t-13.5 30q0 27 29 47q29 18 80 29.5t104 11.5q129 0 202 -54.5t73 -140.5q0 -74 -54.5 -135.5t-166.5 -81.5q41 -10 63.5 -32.5t48.5 -67.5l23 -41 q27 -47 43 -70q14 -20 14 -41q0 -20 -22.5 -34.5t-44.5 -14.5q-35 0 -54.5 12.5t-35 38t-50.5 100.5q-33 68 -52 92.5t-50 26.5q-20 -109 -31 -209q-4 -33 -17.5 -46t-45.5 -13q-29 0 -48.5 14.5t-19.5 36.5zM696 1343q88 3 134.5 43.5t46.5 108.5q0 49 -34 72.5t-108 23.5 q-27 -154 -33 -198z" />
<glyph unicode="&#xaf;" horiz-adv-x="1228" d="M295 1176q0 49 28.5 77.5t80.5 28.5h456q45 0 69 -21.5t24 -58.5q0 -53 -29 -82.5t-80 -29.5h-457q-45 0 -68.5 22.5t-23.5 63.5z" />
<glyph unicode="&#xb0;" horiz-adv-x="788" d="M199 1397q0 100 46 177t119.5 117t157.5 40q78 0 146.5 -35t110.5 -103.5t42 -160.5q0 -102 -46 -178t-120.5 -116t-158.5 -40q-78 0 -145.5 34.5t-109.5 102.5t-42 162zM383 1407q0 -61 37 -98t84 -37q55 0 93 42t38 109q0 59 -36 96t-85 37q-53 0 -92 -40.5t-39 -108.5 z" />
<glyph unicode="&#xb1;" d="M193 100q0 51 33.5 92t90.5 41h738q47 0 71.5 -28.5t24.5 -69.5q0 -51 -34 -93t-91 -42h-737q-47 0 -71.5 29.5t-24.5 70.5zM272 737q0 51 34 92t91 41h250l27 211q6 51 44 80t85 29q49 0 80.5 -28.5t23.5 -80.5l-26 -211h254q47 0 71.5 -28.5t24.5 -69.5q0 -51 -34 -93 t-91 -42h-252l-27 -211q-8 -53 -46 -82t-87 -29q-47 0 -76.5 29t-23.5 82l27 211h-252q-47 0 -72 29.5t-25 70.5z" />
<glyph unicode="&#xb2;" horiz-adv-x="921" d="M119 819q0 53 26.5 83t79.5 54q117 51 215.5 131t157.5 172.5t59 176.5q0 57 -27.5 87.5t-80.5 30.5q-76 0 -121 -38.5t-45 -106.5q0 -100 -100 -100q-49 0 -76 26.5t-27 79.5q0 84 45 157t134.5 116t215.5 43q154 0 241 -78t87 -213q0 -127 -107.5 -265.5t-310.5 -244.5 l369 6q35 0 54.5 -25.5t19.5 -62.5q0 -47 -29 -84t-76 -37q-41 0 -120.5 4t-122.5 6q-193 12 -256 13q-14 0 -37 -6.5t-31 -8.5q-49 -16 -74 -16q-27 0 -45 25.5t-18 74.5z" />
<glyph unicode="&#xb3;" horiz-adv-x="921" d="M143 952q0 55 27 87t74 32q39 0 56 -18.5t36 -67.5q14 -39 51 -61.5t115 -22.5q63 0 110 26.5t47 78.5q0 57 -43 83.5t-131 34.5q-35 2 -53 26t-18 54q0 41 14 59.5t51 24.5q104 18 151.5 66.5t47.5 115.5q0 39 -30 61.5t-87 22.5q-139 0 -168 -102q-14 -47 -36.5 -66.5 t-61.5 -19.5q-47 0 -71.5 26.5t-24.5 71.5q0 68 47 129.5t136 99.5t206 38q164 0 251 -63.5t87 -188.5q0 -82 -62.5 -153t-163.5 -105q86 -13 146.5 -72t60.5 -152q0 -129 -112.5 -200.5t-278.5 -71.5q-186 0 -279.5 64.5t-93.5 162.5z" />
<glyph unicode="&#xb4;" horiz-adv-x="1228" d="M549 1163q0 14 10 39l191 426q18 41 48 60.5t66 19.5q51 0 91.5 -37t40.5 -92q0 -57 -46 -115l-264 -340q-27 -35 -65 -34q-29 0 -50.5 21.5t-21.5 51.5z" />
<glyph unicode="&#xb5;" horiz-adv-x="946" d="M57 -442q0 455 35 782q31 307 94 500q20 61 57.5 87.5t116.5 26.5q45 0 62.5 -14t17.5 -43q0 -16 -22 -111q-20 -76 -33 -137q-41 -215 -41 -287q0 -43 10.5 -60t32.5 -17q31 0 77 61.5t98 186t102 307.5q16 61 50 87.5t101 26.5q47 0 65.5 -11t18.5 -42q0 -51 -51 -280 q-57 -262 -57 -324q0 -39 16 -60.5t43 -21.5q41 0 97.5 50t150.5 163q25 29 55 29q27 0 42 -24.5t15 -67.5q0 -82 -39 -127q-88 -109 -189 -178.5t-230 -69.5q-98 0 -144.5 75.5t-46.5 213.5q-33 -137 -100.5 -211t-151.5 -78q-4 -109 -4 -258l2 -156q0 -66 -39 -92.5 t-92 -26.5q-57 0 -88 22.5t-31 78.5z" />
<glyph unicode="&#xb6;" horiz-adv-x="1513" d="M205 1294q0 217 182 332t494 115q186 0 304 -18.5t184.5 -73t66.5 -156.5q0 -39 -50 -326l-28 -168l-45 -268q-23 -137 -46.5 -318.5t-31.5 -279.5q-6 -76 -43 -109.5t-107 -33.5q-137 0 -137 123q0 66 19.5 199.5t58.5 361.5l8 53l47 268q18 111 54 371q2 8 2 25 q0 76 -68 75h-88q-33 -141 -86 -467l-45 -268q-23 -137 -46.5 -318.5t-31.5 -279.5q-6 -76 -43 -109.5t-106 -33.5q-74 0 -106 31.5t-32 91.5q0 66 19.5 199.5t58.5 361.5l8 53q6 51 23 125q2 23 10 63q-78 0 -172 43t-160.5 129.5t-66.5 206.5z" />
<glyph unicode="&#xb7;" horiz-adv-x="526" d="M96 479q0 92 52.5 147.5t146.5 55.5q90 0 136 -44t46 -130q0 -94 -53 -150.5t-145 -56.5q-90 0 -136.5 49t-46.5 129z" />
<glyph unicode="&#xb8;" horiz-adv-x="1228" d="M119 -412q0 92 82 93q16 0 27 -3q55 -8 108 -8q82 0 128 34t46 103q0 51 -44 81t-120 30q-53 0 -81.5 14.5t-28.5 49.5q0 12 2 18q8 41 32.5 60.5t75.5 19.5h54q141 0 225 -67.5t84 -188.5q0 -96 -46 -173t-133 -120t-204 -43q-78 0 -127 10q-80 14 -80 90z" />
<glyph unicode="&#xb9;" horiz-adv-x="921" d="M215 1540q4 31 24.5 52.5t86 47t202.5 62.5l72 18q35 10 76 11q102 0 102 -101q0 -10 -4 -43q-27 -131 -104 -758q-12 -106 -135 -106q-48 0 -80.5 29.5t-26.5 95.5q18 176 45 366.5t45 292.5l-215 -63q-16 -4 -22 -4q-33 0 -51.5 31.5t-14.5 68.5z" />
<glyph unicode="&#xba;" horiz-adv-x="835" d="M170 1282q0 131 49 233.5t135 159t195 56.5q106 0 180 -50.5t111 -132.5t37 -176q0 -129 -50.5 -231.5t-137.5 -159.5t-193 -57q-107 0 -179.5 50t-109.5 132t-37 176zM395 1298q0 -98 34 -144t85 -46q57 0 97 63.5t40 184.5q0 94 -33.5 142t-80.5 48q-61 0 -101.5 -62.5 t-40.5 -185.5z" />
<glyph unicode="&#xbb;" horiz-adv-x="1259" d="M90 195q0 51 49 84l264 182l-266 227q-31 25 -31 62q0 43 42 79.5t92 36.5q37 0 59 -20l287 -244q78 -66 78 -135q0 -43 -14.5 -80t-43.5 -55l-327 -221q-37 -25 -74 -25q-47 0 -81 33t-34 76zM635 197q0 49 47 82l264 182l-266 227q-31 25 -31 62q0 43 42 79.5t91 36.5 q37 0 60 -20l288 -244q76 -63 76 -135q0 -43 -14 -80t-43 -55l-326 -221q-36 -25 -73 -25q-47 0 -81 34t-34 77z" />
<glyph unicode="&#xbc;" horiz-adv-x="1955" d="M215 1540q4 31 24.5 52.5t86 47t202.5 62.5l72 18q35 10 76 11q102 0 102 -101q0 -10 -4 -43q-27 -131 -104 -758q-12 -106 -135 -106q-48 0 -80.5 29.5t-26.5 95.5q18 176 45 366.5t45 292.5l-215 -63q-16 -4 -22 -4q-33 0 -51.5 31.5t-14.5 68.5zM578 319q0 35 24 78 l617 1018q45 76 110 76q43 0 76 -35t33 -82q0 -33 -18 -63l-639 -1053q-33 -53 -89 -53q-45 0 -79.5 32.5t-34.5 81.5zM1118 313q0 35 10 63q70 205 226 498q31 59 65.5 84t110.5 25q37 0 56.5 -16.5t19.5 -45.5q0 -25 -17 -57l-37 -68q-74 -141 -117.5 -231t-78.5 -185h180 q25 176 55 291q14 55 45 83t86 28q96 0 97 -76q0 -10 -5 -35q-31 -141 -53 -291h53q48 0 68.5 -20.5t20.5 -60.5q0 -63 -34 -89t-108 -26h-24q-4 -29 -9 -90q-4 -78 -34.5 -105.5t-100.5 -27.5q-90 0 -90 110l2 29l8 84q-90 2 -292 2q-39 0 -71 36t-32 91z" />
<glyph unicode="&#xbd;" horiz-adv-x="2097" d="M215 1540q4 31 24.5 52.5t86 47t202.5 62.5l72 18q35 10 76 11q102 0 102 -101q0 -10 -4 -43q-27 -131 -104 -758q-12 -106 -135 -106q-48 0 -80.5 29.5t-26.5 95.5q18 176 45 366.5t45 292.5l-215 -63q-16 -4 -22 -4q-33 0 -51.5 31.5t-14.5 68.5zM578 319q0 35 24 78 l617 1018q45 76 110 76q43 0 76 -35t33 -82q0 -33 -18 -63l-639 -1053q-33 -53 -89 -53q-45 0 -79.5 32.5t-34.5 81.5zM1204 71q0 53 26.5 83t79.5 54q117 51 215.5 131t157.5 172.5t59 176.5q0 57 -27.5 87.5t-80.5 30.5q-76 0 -121 -38.5t-45 -106.5q0 -100 -100 -100 q-49 0 -76 26.5t-27 79.5q0 84 45 157t134.5 116t215.5 43q154 0 241 -78t87 -213q0 -127 -107.5 -265.5t-310.5 -244.5l369 6q35 0 54.5 -25.5t19.5 -62.5q0 -47 -29 -84t-76 -37q-41 0 -120.5 4t-122.5 6q-193 12 -256 13q-14 0 -37 -6.5t-31 -8.5q-49 -16 -74 -16 q-27 0 -45 25.5t-18 74.5z" />
<glyph unicode="&#xbe;" horiz-adv-x="2119" d="M143 952q0 55 27 87t74 32q39 0 56 -18.5t36 -67.5q14 -39 51 -61.5t115 -22.5q63 0 110 26.5t47 78.5q0 57 -43 83.5t-131 34.5q-35 2 -53 26t-18 54q0 41 14 59.5t51 24.5q104 18 151.5 66.5t47.5 115.5q0 39 -30 61.5t-87 22.5q-139 0 -168 -102q-14 -47 -36.5 -66.5 t-61.5 -19.5q-47 0 -71.5 26.5t-24.5 71.5q0 68 47 129.5t136 99.5t206 38q164 0 251 -63.5t87 -188.5q0 -82 -62.5 -153t-163.5 -105q86 -13 146.5 -72t60.5 -152q0 -129 -112.5 -200.5t-278.5 -71.5q-186 0 -279.5 64.5t-93.5 162.5zM742 319q0 35 24 78l617 1018 q45 76 110 76q43 0 76 -35t33 -82q0 -33 -18 -63l-639 -1053q-33 -53 -89 -53q-45 0 -79.5 32.5t-34.5 81.5zM1282 313q0 35 10 63q70 205 226 498q31 59 65.5 84t110.5 25q37 0 56.5 -16.5t19.5 -45.5q0 -25 -17 -57l-37 -68q-74 -141 -117.5 -231t-78.5 -185h180 q25 176 55 291q14 55 45 83t86 28q96 0 97 -76q0 -10 -5 -35q-31 -141 -53 -291h53q48 0 68.5 -20.5t20.5 -60.5q0 -63 -34 -89t-108 -26h-24q-4 -29 -9 -90q-4 -78 -34.5 -105.5t-100.5 -27.5q-90 0 -90 110l2 29l8 84q-90 2 -292 2q-39 0 -71 36t-32 91z" />
<glyph unicode="&#xbf;" horiz-adv-x="974" d="M-90 -451q0 129 65.5 233.5t196.5 217.5q111 94 168 153.5t83 103.5t42 101q14 53 46 79t73 26q37 0 59.5 -21.5t20.5 -70.5q-8 -129 -61.5 -229.5t-178.5 -225.5q-117 -115 -168 -194.5t-51 -165.5q0 -141 157 -142q94 0 143.5 42t49.5 106l-2 84q0 35 25.5 60.5 t80.5 25.5q63 0 97.5 -38t34.5 -108q0 -102 -50.5 -187t-153 -136t-251.5 -51q-203 0 -314.5 87t-111.5 250zM463 745q0 94 53 150.5t146 56.5q90 0 136 -49t46 -129q0 -92 -52.5 -147.5t-146.5 -55.5q-90 0 -136 44t-46 130z" />
<glyph unicode="&#xc0;" horiz-adv-x="1609" d="M115 573q0 311 133 576.5t393 426.5t625 161q94 0 201.5 -14.5t195.5 -43.5q57 -16 57 -82q0 -53 -40 -100t-93 -47q-16 0 -24 2q-106 25 -182 36t-160 11q-260 0 -442.5 -126t-272.5 -332.5t-90 -446.5q0 -174 68.5 -269.5t179.5 -95.5q125 0 219 102.5t172 332 t153 622.5q12 57 49 77.5t99 20.5q145 0 145 -94q0 -16 -6 -41q-53 -199 -97 -439.5t-44 -365.5q0 -111 32.5 -161t100.5 -50q66 0 125 44.5t149 150.5q25 29 56 29q27 0 42 -24.5t15 -67.5q0 -80 -39 -127q-100 -121 -196.5 -184.5t-235.5 -63.5q-143 0 -231.5 83 t-110.5 234q-152 -317 -447 -317q-141 0 -254.5 69.5t-179 201.5t-65.5 312zM668 2222q0 53 38.5 91t92.5 38q49 0 90 -35l352 -301q39 -33 39 -74q0 -31 -22.5 -52t-55.5 -21q-25 0 -43 10l-383 198q-109 57 -108 146z" />
<glyph unicode="&#xc1;" horiz-adv-x="1609" d="M115 573q0 311 133 576.5t393 426.5t625 161q94 0 201.5 -14.5t195.5 -43.5q57 -16 57 -82q0 -53 -40 -100t-93 -47q-16 0 -24 2q-106 25 -182 36t-160 11q-260 0 -442.5 -126t-272.5 -332.5t-90 -446.5q0 -174 68.5 -269.5t179.5 -95.5q125 0 219 102.5t172 332 t153 622.5q12 57 49 77.5t99 20.5q145 0 145 -94q0 -16 -6 -41q-53 -199 -97 -439.5t-44 -365.5q0 -111 32.5 -161t100.5 -50q66 0 125 44.5t149 150.5q25 29 56 29q27 0 42 -24.5t15 -67.5q0 -80 -39 -127q-100 -121 -196.5 -184.5t-235.5 -63.5q-143 0 -231.5 83 t-110.5 234q-152 -317 -447 -317q-141 0 -254.5 69.5t-179 201.5t-65.5 312zM1151 1941q0 41 39 74l352 301q41 35 90 35q53 0 92 -38t39 -91q0 -88 -108 -146l-383 -198q-18 -10 -43 -10q-33 0 -55.5 21.5t-22.5 51.5z" />
<glyph unicode="&#xc2;" horiz-adv-x="1609" d="M115 573q0 311 133 576.5t393 426.5t625 161q94 0 201.5 -14.5t195.5 -43.5q57 -16 57 -82q0 -53 -40 -100t-93 -47q-16 0 -24 2q-106 25 -182 36t-160 11q-260 0 -442.5 -126t-272.5 -332.5t-90 -446.5q0 -174 68.5 -269.5t179.5 -95.5q125 0 219 102.5t172 332 t153 622.5q12 57 49 77.5t99 20.5q145 0 145 -94q0 -16 -6 -41q-53 -199 -97 -439.5t-44 -365.5q0 -111 32.5 -161t100.5 -50q66 0 125 44.5t149 150.5q25 29 56 29q27 0 42 -24.5t15 -67.5q0 -80 -39 -127q-100 -121 -196.5 -184.5t-235.5 -63.5q-143 0 -231.5 83 t-110.5 234q-152 -317 -447 -317q-141 0 -254.5 69.5t-179 201.5t-65.5 312zM874 1952q0 35 27 75l188 281q76 115 215 115q63 0 101.5 -33t68.5 -109l97 -248q12 -31 12 -57q0 -49 -35 -78.5t-82 -29.5q-35 0 -64.5 19t-39.5 54l-84 297l-164 -291q-23 -41 -59.5 -61.5 t-75.5 -20.5q-43 0 -74 24t-31 63z" />
<glyph unicode="&#xc3;" horiz-adv-x="1609" d="M115 573q0 311 133 576.5t393 426.5t625 161q94 0 201.5 -14.5t195.5 -43.5q57 -16 57 -82q0 -53 -40 -100t-93 -47q-16 0 -24 2q-106 25 -182 36t-160 11q-260 0 -442.5 -126t-272.5 -332.5t-90 -446.5q0 -174 68.5 -269.5t179.5 -95.5q125 0 219 102.5t172 332 t153 622.5q12 57 49 77.5t99 20.5q145 0 145 -94q0 -16 -6 -41q-53 -199 -97 -439.5t-44 -365.5q0 -111 32.5 -161t100.5 -50q66 0 125 44.5t149 150.5q25 29 56 29q27 0 42 -24.5t15 -67.5q0 -80 -39 -127q-100 -121 -196.5 -184.5t-235.5 -63.5q-143 0 -231.5 83 t-110.5 234q-152 -317 -447 -317q-141 0 -254.5 69.5t-179 201.5t-65.5 312zM803 1978q0 55 75 166q90 131 199 131q35 0 62.5 -10t72.5 -43l219 -152l91 129q16 23 41.5 34t52.5 11q39 0 66.5 -20.5t27.5 -59.5q0 -27 -16.5 -60.5t-59.5 -104.5q-41 -68 -92 -99.5 t-106 -31.5q-33 0 -62 11t-74 42l-219 151l-90 -129q-16 -23 -41.5 -34t-52.5 -11q-39 0 -66.5 20.5t-27.5 59.5z" />
<glyph unicode="&#xc4;" horiz-adv-x="1609" d="M115 573q0 311 133 576.5t393 426.5t625 161q94 0 201.5 -14.5t195.5 -43.5q57 -16 57 -82q0 -53 -40 -100t-93 -47q-16 0 -24 2q-106 25 -182 36t-160 11q-260 0 -442.5 -126t-272.5 -332.5t-90 -446.5q0 -174 68.5 -269.5t179.5 -95.5q125 0 219 102.5t172 332 t153 622.5q12 57 49 77.5t99 20.5q145 0 145 -94q0 -16 -6 -41q-53 -199 -97 -439.5t-44 -365.5q0 -111 32.5 -161t100.5 -50q66 0 125 44.5t149 150.5q25 29 56 29q27 0 42 -24.5t15 -67.5q0 -80 -39 -127q-100 -121 -196.5 -184.5t-235.5 -63.5q-143 0 -231.5 83 t-110.5 234q-152 -317 -447 -317q-141 0 -254.5 69.5t-179 201.5t-65.5 312zM883 2019q0 84 45 131t120 47q66 0 105 -38t39 -113q0 -84 -45 -131t-121 -47q-66 0 -104.5 37.5t-38.5 113.5zM1309 2019q0 84 45 131t120 47q66 0 105 -38t39 -113q0 -84 -45 -131t-121 -47 q-66 0 -104.5 37.5t-38.5 113.5z" />
<glyph unicode="&#xc5;" horiz-adv-x="1609" d="M115 573q0 311 133 576.5t393 426.5t625 161q94 0 201.5 -14.5t195.5 -43.5q57 -16 57 -82q0 -53 -40 -100t-93 -47q-16 0 -24 2q-106 25 -182 36t-160 11q-260 0 -442.5 -126t-272.5 -332.5t-90 -446.5q0 -174 68.5 -269.5t179.5 -95.5q125 0 219 102.5t172 332 t153 622.5q12 57 49 77.5t99 20.5q145 0 145 -94q0 -16 -6 -41q-53 -199 -97 -439.5t-44 -365.5q0 -111 32.5 -161t100.5 -50q66 0 125 44.5t149 150.5q25 29 56 29q27 0 42 -24.5t15 -67.5q0 -80 -39 -127q-100 -121 -196.5 -184.5t-235.5 -63.5q-143 0 -231.5 83 t-110.5 234q-152 -317 -447 -317q-141 0 -254.5 69.5t-179 201.5t-65.5 312zM987 2138q0 92 40 160.5t106.5 105.5t142.5 37q109 0 186.5 -72.5t77.5 -197.5q0 -92 -40 -161t-106.5 -105.5t-142.5 -36.5q-108 0 -186 72.5t-78 197.5zM1169 2148q0 -45 27 -72.5t63 -27.5 q41 0 70 30.5t29 81.5q0 45 -27 73t-63 28q-41 0 -70 -31t-29 -82z" />
<glyph unicode="&#xc6;" horiz-adv-x="2078" d="M115 573q0 299 119.5 550t332.5 410t480 191q16 2 43 2q133 0 133 -129q0 -43 -19.5 -70.5t-58.5 -31.5q-233 -27 -398 -151.5t-248 -320.5t-83 -429q0 -174 68.5 -269.5t179.5 -95.5q170 0 273 169t189 485l166 606q31 113 101.5 170t175.5 61l106 6q258 12 406 13 q74 0 102.5 -25.5t28.5 -85.5q0 -63 -37 -108t-111 -45q-137 0 -281.5 -6.5t-209.5 -14.5q-49 -147 -119 -465q94 4 135 4q219 10 371 11q61 0 84.5 -26t23.5 -75q0 -63 -35.5 -105t-99.5 -44l-231 -6q-106 -4 -297 -9q-23 -100 -23 -178q0 -326 383 -325q106 0 217 33.5 t252 103.5q18 10 41 10q29 0 45.5 -23.5t16.5 -60.5q0 -47 -19.5 -85t-66.5 -73q-92 -66 -242.5 -108.5t-290.5 -42.5q-252 0 -399.5 99t-192.5 265q-162 -365 -487 -364q-154 0 -272.5 69.5t-185 201.5t-66.5 312z" />
<glyph unicode="&#xc7;" horiz-adv-x="1404" d="M131 713q0 301 113.5 534.5t308.5 361.5t432 128q221 0 336 -114t115 -300q0 -125 -44 -200.5t-126 -75.5q-57 0 -90 26.5t-33 77.5q0 18 8 68q12 61 12 98q0 186 -198 186q-135 0 -258 -88t-199 -259t-76 -406q0 -246 137.5 -380t405.5 -134q133 0 269 33.5t302 103.5 q31 12 51 12q33 0 49.5 -24.5t16.5 -63.5q0 -125 -135 -184q-145 -63 -302 -93t-298 -30q-244 0 -424 89t-276.5 253t-96.5 381zM418 -414q0 49 20.5 72t61.5 23q16 0 27 -3q55 -8 108 -8q82 0 128 34t46 103q0 51 -44 81t-120 30q-53 0 -81.5 14.5t-28.5 49.5q0 12 2 18 q8 41 32.5 60.5t75.5 19.5h54q145 0 231 -67.5t86 -188.5q0 -154 -105.5 -249t-285.5 -95q-78 0 -127 10q-41 8 -60.5 30.5t-19.5 65.5z" />
<glyph unicode="&#xc8;" horiz-adv-x="1404" d="M63 440q0 176 114 300t335 180q-121 35 -185.5 122.5t-64.5 196.5q0 147 93.5 261t251 175.5t345.5 61.5q254 0 381 -109.5t127 -284.5q0 -121 -44 -195.5t-126 -74.5q-57 0 -90 25.5t-33 77.5q0 35 11 75q10 68 10 92q0 74 -55.5 120t-184.5 46q-174 0 -278.5 -73.5 t-104.5 -198.5q0 -96 79 -158.5t257 -68.5q45 -2 63.5 -20.5t18.5 -61.5q0 -135 -123 -137q-170 -4 -281.5 -47.5t-161.5 -110t-50 -141.5q0 -127 118.5 -191.5t376.5 -64.5q170 0 359.5 39.5t324.5 97.5q31 12 51 12q33 0 49.5 -24.5t16.5 -63.5q0 -61 -29.5 -104 t-101.5 -78q-121 -57 -313.5 -91t-378.5 -34q-258 0 -432.5 58t-259.5 160.5t-85 231.5zM410 2222q0 53 38.5 91t92.5 38q49 0 90 -35l352 -301q39 -33 39 -74q0 -31 -22.5 -52t-55.5 -21q-25 0 -43 10l-383 198q-109 57 -108 146z" />
<glyph unicode="&#xc9;" horiz-adv-x="1404" d="M63 440q0 176 114 300t335 180q-121 35 -185.5 122.5t-64.5 196.5q0 147 93.5 261t251 175.5t345.5 61.5q254 0 381 -109.5t127 -284.5q0 -121 -44 -195.5t-126 -74.5q-57 0 -90 25.5t-33 77.5q0 35 11 75q10 68 10 92q0 74 -55.5 120t-184.5 46q-174 0 -278.5 -73.5 t-104.5 -198.5q0 -96 79 -158.5t257 -68.5q45 -2 63.5 -20.5t18.5 -61.5q0 -135 -123 -137q-170 -4 -281.5 -47.5t-161.5 -110t-50 -141.5q0 -127 118.5 -191.5t376.5 -64.5q170 0 359.5 39.5t324.5 97.5q31 12 51 12q33 0 49.5 -24.5t16.5 -63.5q0 -61 -29.5 -104 t-101.5 -78q-121 -57 -313.5 -91t-378.5 -34q-258 0 -432.5 58t-259.5 160.5t-85 231.5zM893 1941q0 41 39 74l352 301q41 35 90 35q53 0 92 -38t39 -91q0 -88 -108 -146l-383 -198q-18 -10 -43 -10q-33 0 -55.5 21.5t-22.5 51.5z" />
<glyph unicode="&#xca;" horiz-adv-x="1404" d="M63 440q0 176 114 300t335 180q-121 35 -185.5 122.5t-64.5 196.5q0 147 93.5 261t251 175.5t345.5 61.5q254 0 381 -109.5t127 -284.5q0 -121 -44 -195.5t-126 -74.5q-57 0 -90 25.5t-33 77.5q0 35 11 75q10 68 10 92q0 74 -55.5 120t-184.5 46q-174 0 -278.5 -73.5 t-104.5 -198.5q0 -96 79 -158.5t257 -68.5q45 -2 63.5 -20.5t18.5 -61.5q0 -135 -123 -137q-170 -4 -281.5 -47.5t-161.5 -110t-50 -141.5q0 -127 118.5 -191.5t376.5 -64.5q170 0 359.5 39.5t324.5 97.5q31 12 51 12q33 0 49.5 -24.5t16.5 -63.5q0 -61 -29.5 -104 t-101.5 -78q-121 -57 -313.5 -91t-378.5 -34q-258 0 -432.5 58t-259.5 160.5t-85 231.5zM616 1952q0 35 27 75l188 281q76 115 215 115q63 0 101.5 -33t68.5 -109l97 -248q12 -31 12 -57q0 -49 -35 -78.5t-82 -29.5q-35 0 -64.5 19t-39.5 54l-84 297l-164 -291 q-23 -41 -59.5 -61.5t-75.5 -20.5q-43 0 -74 24t-31 63z" />
<glyph unicode="&#xcb;" horiz-adv-x="1404" d="M63 440q0 176 114 300t335 180q-121 35 -185.5 122.5t-64.5 196.5q0 147 93.5 261t251 175.5t345.5 61.5q254 0 381 -109.5t127 -284.5q0 -121 -44 -195.5t-126 -74.5q-57 0 -90 25.5t-33 77.5q0 35 11 75q10 68 10 92q0 74 -55.5 120t-184.5 46q-174 0 -278.5 -73.5 t-104.5 -198.5q0 -96 79 -158.5t257 -68.5q45 -2 63.5 -20.5t18.5 -61.5q0 -135 -123 -137q-170 -4 -281.5 -47.5t-161.5 -110t-50 -141.5q0 -127 118.5 -191.5t376.5 -64.5q170 0 359.5 39.5t324.5 97.5q31 12 51 12q33 0 49.5 -24.5t16.5 -63.5q0 -61 -29.5 -104 t-101.5 -78q-121 -57 -313.5 -91t-378.5 -34q-258 0 -432.5 58t-259.5 160.5t-85 231.5zM625 2019q0 84 45 131t120 47q66 0 105 -38t39 -113q0 -84 -45 -131t-121 -47q-66 0 -104.5 37.5t-38.5 113.5zM1051 2019q0 84 45 131t120 47q66 0 105 -38t39 -113q0 -84 -45 -131 t-121 -47q-66 0 -104.5 37.5t-38.5 113.5z" />
<glyph unicode="&#xcc;" horiz-adv-x="1013" d="M-35 59q0 74 65.5 115t184.5 43l96 2l6 45q49 328 72 463l45 268q41 238 74 490l-172 -2q-74 0 -101.5 23.5t-27.5 66.5q0 139 201 149q94 4 229 4l375 -2q53 0 90 -25.5t37 -62.5q0 -66 -41 -105.5t-117 -39.5q-119 0 -180 -2q-4 -25 -37 -221q-37 -219 -45 -269 l-43 -268q-45 -301 -72 -504q43 2 117 2q109 0 147.5 -28.5t38.5 -85.5q0 -53 -42 -90t-117 -37q-51 0 -162 4q-102 4 -135 4q-129 0 -283 -23q-68 -10 -96 -10q-45 0 -76 24.5t-31 71.5zM148 2222q0 53 38.5 91t92.5 38q49 0 90 -35l352 -301q39 -33 39 -74 q0 -31 -22.5 -52t-55.5 -21q-25 0 -43 10l-383 198q-109 57 -108 146z" />
<glyph unicode="&#xcd;" horiz-adv-x="1013" d="M-35 59q0 74 65.5 115t184.5 43l96 2l6 45q49 328 72 463l45 268q41 238 74 490l-172 -2q-74 0 -101.5 23.5t-27.5 66.5q0 139 201 149q94 4 229 4l375 -2q53 0 90 -25.5t37 -62.5q0 -66 -41 -105.5t-117 -39.5q-119 0 -180 -2q-4 -25 -37 -221q-37 -219 -45 -269 l-43 -268q-45 -301 -72 -504q43 2 117 2q109 0 147.5 -28.5t38.5 -85.5q0 -53 -42 -90t-117 -37q-51 0 -162 4q-102 4 -135 4q-129 0 -283 -23q-68 -10 -96 -10q-45 0 -76 24.5t-31 71.5zM631 1941q0 41 39 74l352 301q41 35 90 35q53 0 92 -38t39 -91q0 -88 -108 -146 l-383 -198q-18 -10 -43 -10q-33 0 -55.5 21.5t-22.5 51.5z" />
<glyph unicode="&#xce;" horiz-adv-x="1013" d="M-35 59q0 74 65.5 115t184.5 43l96 2l6 45q49 328 72 463l45 268q41 238 74 490l-172 -2q-74 0 -101.5 23.5t-27.5 66.5q0 139 201 149q94 4 229 4l375 -2q53 0 90 -25.5t37 -62.5q0 -66 -41 -105.5t-117 -39.5q-119 0 -180 -2q-4 -25 -37 -221q-37 -219 -45 -269 l-43 -268q-45 -301 -72 -504q43 2 117 2q109 0 147.5 -28.5t38.5 -85.5q0 -53 -42 -90t-117 -37q-51 0 -162 4q-102 4 -135 4q-129 0 -283 -23q-68 -10 -96 -10q-45 0 -76 24.5t-31 71.5zM354 1952q0 35 27 75l188 281q76 115 215 115q63 0 101.5 -33t68.5 -109l97 -248 q12 -31 12 -57q0 -49 -35 -78.5t-82 -29.5q-35 0 -64.5 19t-39.5 54l-84 297l-164 -291q-23 -41 -59.5 -61.5t-75.5 -20.5q-43 0 -74 24t-31 63z" />
<glyph unicode="&#xcf;" horiz-adv-x="1013" d="M-35 59q0 74 65.5 115t184.5 43l96 2l6 45q49 328 72 463l45 268q41 238 74 490l-172 -2q-74 0 -101.5 23.5t-27.5 66.5q0 139 201 149q94 4 229 4l375 -2q53 0 90 -25.5t37 -62.5q0 -66 -41 -105.5t-117 -39.5q-119 0 -180 -2q-4 -25 -37 -221q-37 -219 -45 -269 l-43 -268q-45 -301 -72 -504q43 2 117 2q109 0 147.5 -28.5t38.5 -85.5q0 -53 -42 -90t-117 -37q-51 0 -162 4q-102 4 -135 4q-129 0 -283 -23q-68 -10 -96 -10q-45 0 -76 24.5t-31 71.5zM363 2019q0 84 45 131t120 47q66 0 105 -38t39 -113q0 -84 -45 -131t-121 -47 q-66 0 -104.5 37.5t-38.5 113.5zM789 2019q0 84 45 131t120 47q66 0 105 -38t39 -113q0 -84 -45 -131t-121 -47q-66 0 -104.5 37.5t-38.5 113.5z" />
<glyph unicode="&#xd0;" horiz-adv-x="1681" d="M31 879q0 84 60.5 119.5t191.5 35.5h47q74 317 168 600q14 41 35.5 66.5t62.5 36.5q100 25 272 24q244 0 419 -93t266.5 -262t91.5 -394q0 -293 -124 -525.5t-359.5 -364.5t-559.5 -132q-135 0 -285 20q-80 10 -110.5 43t-24.5 107q27 283 92 624h-141q-102 0 -102 95z M479 227q63 -6 150 -6q239 0 400 105.5t237.5 281.5t76.5 393q0 264 -137 397.5t-364 133.5q-68 0 -90 -2q-68 -205 -138 -498q59 -2 187 -2q131 0 177 -26.5t46 -85.5q0 -63 -26.5 -100.5t-102.5 -37.5q-66 0 -225 4l-107 2q-61 -307 -84 -559z" />
<glyph unicode="&#xd1;" horiz-adv-x="1810" d="M-2 1307q0 35 12.5 66.5t44.5 76.5q100 137 223 212t259 75q113 0 169 -70t56 -203q0 -119 -33 -344q102 303 260 460t371 157q168 0 253 -95.5t85 -255.5q0 -90 -27 -219l-125 -585q-20 -102 -20 -176q0 -86 40 -129.5t111 -43.5q68 0 132.5 45.5t152.5 149.5 q25 29 55 29q27 0 42.5 -24.5t15.5 -67.5q0 -80 -39 -127q-106 -129 -211 -188.5t-219 -59.5q-174 0 -272.5 103.5t-98.5 277.5q0 68 11 147.5t38 202.5l82 375q4 18 14.5 65t16.5 89t6 83q0 66 -37 105t-104 39q-123 0 -246 -131.5t-227.5 -423t-163.5 -746.5 q-14 -104 -42 -145t-108 -41q-76 0 -108.5 33.5t-32.5 128.5q0 63 12 153t43 273q4 25 33 199.5t51 367.5q20 164 21 246q0 92 -68 92q-51 0 -128 -54.5t-165 -173.5q-29 -39 -63 -38q-29 0 -50.5 27.5t-21.5 62.5zM719 1978q0 55 75 166q90 131 199 131q35 0 62.5 -10 t72.5 -43l219 -152l91 129q16 23 41.5 34t52.5 11q39 0 66.5 -20.5t27.5 -59.5q0 -27 -16.5 -60.5t-59.5 -104.5q-41 -68 -92 -99.5t-106 -31.5q-33 0 -62 11t-74 42l-219 151l-90 -129q-16 -23 -41.5 -34t-52.5 -11q-39 0 -66.5 20.5t-27.5 59.5z" />
<glyph unicode="&#xd2;" horiz-adv-x="1671" d="M131 692q0 311 113.5 549t309.5 367t433 129q182 0 328.5 -82t232.5 -241t86 -380q0 -311 -113.5 -548.5t-309 -366.5t-433.5 -129q-182 0 -328.5 82t-232.5 240.5t-86 379.5zM432 727q0 -244 102.5 -370t264.5 -126q159 0 281 98.5t187.5 273.5t65.5 396 q0 244 -102.5 370t-263.5 126q-158 0 -279 -97.5t-188.5 -272.5t-67.5 -398zM445 2222q0 53 38.5 91t92.5 38q49 0 90 -35l352 -301q39 -33 39 -74q0 -31 -22.5 -52t-55.5 -21q-25 0 -43 10l-383 198q-109 57 -108 146z" />
<glyph unicode="&#xd3;" horiz-adv-x="1671" d="M131 692q0 311 113.5 549t309.5 367t433 129q182 0 328.5 -82t232.5 -241t86 -380q0 -311 -113.5 -548.5t-309 -366.5t-433.5 -129q-182 0 -328.5 82t-232.5 240.5t-86 379.5zM432 727q0 -244 102.5 -370t264.5 -126q159 0 281 98.5t187.5 273.5t65.5 396 q0 244 -102.5 370t-263.5 126q-158 0 -279 -97.5t-188.5 -272.5t-67.5 -398zM928 1941q0 41 39 74l352 301q41 35 90 35q53 0 92 -38t39 -91q0 -88 -108 -146l-383 -198q-18 -10 -43 -10q-33 0 -55.5 21.5t-22.5 51.5z" />
<glyph unicode="&#xd4;" horiz-adv-x="1671" d="M131 692q0 311 113.5 549t309.5 367t433 129q182 0 328.5 -82t232.5 -241t86 -380q0 -311 -113.5 -548.5t-309 -366.5t-433.5 -129q-182 0 -328.5 82t-232.5 240.5t-86 379.5zM432 727q0 -244 102.5 -370t264.5 -126q159 0 281 98.5t187.5 273.5t65.5 396 q0 244 -102.5 370t-263.5 126q-158 0 -279 -97.5t-188.5 -272.5t-67.5 -398zM651 1952q0 35 27 75l188 281q76 115 215 115q63 0 101.5 -33t68.5 -109l97 -248q12 -31 12 -57q0 -49 -35 -78.5t-82 -29.5q-35 0 -64.5 19t-39.5 54l-84 297l-164 -291q-23 -41 -59.5 -61.5 t-75.5 -20.5q-43 0 -74 24t-31 63z" />
<glyph unicode="&#xd5;" horiz-adv-x="1671" d="M131 692q0 311 113.5 549t309.5 367t433 129q182 0 328.5 -82t232.5 -241t86 -380q0 -311 -113.5 -548.5t-309 -366.5t-433.5 -129q-182 0 -328.5 82t-232.5 240.5t-86 379.5zM432 727q0 -244 102.5 -370t264.5 -126q159 0 281 98.5t187.5 273.5t65.5 396 q0 244 -102.5 370t-263.5 126q-158 0 -279 -97.5t-188.5 -272.5t-67.5 -398zM580 1978q0 55 75 166q90 131 199 131q35 0 62.5 -10t72.5 -43l219 -152l91 129q16 23 41.5 34t52.5 11q39 0 66.5 -20.5t27.5 -59.5q0 -27 -16.5 -60.5t-59.5 -104.5q-41 -68 -92 -99.5 t-106 -31.5q-33 0 -62 11t-74 42l-219 151l-90 -129q-16 -23 -41.5 -34t-52.5 -11q-39 0 -66.5 20.5t-27.5 59.5z" />
<glyph unicode="&#xd6;" horiz-adv-x="1671" d="M131 692q0 311 113.5 549t309.5 367t433 129q182 0 328.5 -82t232.5 -241t86 -380q0 -311 -113.5 -548.5t-309 -366.5t-433.5 -129q-182 0 -328.5 82t-232.5 240.5t-86 379.5zM432 727q0 -244 102.5 -370t264.5 -126q159 0 281 98.5t187.5 273.5t65.5 396 q0 244 -102.5 370t-263.5 126q-158 0 -279 -97.5t-188.5 -272.5t-67.5 -398zM660 2019q0 84 45 131t120 47q66 0 105 -38t39 -113q0 -84 -45 -131t-121 -47q-66 0 -104.5 37.5t-38.5 113.5zM1086 2019q0 84 45 131t120 47q66 0 105 -38t39 -113q0 -84 -45 -131t-121 -47 q-66 0 -104.5 37.5t-38.5 113.5z" />
<glyph unicode="&#xd7;" d="M225 236q0 49 45 88l295 264l-231 264q-25 31 -25 63q0 51 43 94.5t94 43.5q43 0 72 -35l234 -266l299 268q38 33 77 33q45 0 77 -33t32 -78q0 -51 -43 -88l-299 -266l233 -266q25 -31 25 -64q0 -51 -44 -92t-95 -41q-41 0 -72 33l-233 266l-295 -264q-39 -33 -80 -33 q-43 0 -76 33t-33 76z" />
<glyph unicode="&#xd8;" horiz-adv-x="1671" d="M131 692q0 311 113.5 549t309.5 367t433 129h14l39 149q8 29 36 43.5t65 14.5q45 0 80.5 -24t35.5 -65q0 -10 -4 -26l-34 -129q188 -68 301.5 -239t113.5 -427q0 -311 -113.5 -548.5t-309 -366.5t-433.5 -129h-14l-43 -162q-8 -29 -36 -43t-64 -14q-45 0 -80 23.5 t-35 62.5q0 10 4 26l39 144q-190 66 -304 237.5t-114 427.5zM432 727q0 -166 49 -278.5t135 -167.5l177 651l145 563q-150 -8 -264.5 -109.5t-178 -272.5t-63.5 -386zM825 231q154 9 268.5 110t177 272t62.5 386q0 166 -49 279t-135 168l-143 -522z" />
<glyph unicode="&#xd9;" horiz-adv-x="1822" d="M-2 1307q0 63 57 143q209 287 490 287q125 0 195.5 -76t70.5 -223q0 -104 -14.5 -192.5t-48.5 -239.5l-84 -375q-4 -18 -14.5 -65.5t-16.5 -89.5t-6 -83q0 -66 36.5 -104.5t104.5 -38.5q123 0 249 131t233.5 423t166.5 746q14 104 42 145.5t108 41.5q72 0 106.5 -43 t34.5 -140q0 -55 -13.5 -145t-39.5 -252q-55 -313 -88 -575q-16 -119 -17 -176q0 -84 38 -128.5t102 -44.5q68 0 132 45.5t152 149.5q25 29 56 29q27 0 42 -24.5t15 -67.5q0 -80 -39 -127q-106 -129 -210.5 -188.5t-219.5 -59.5q-170 0 -260 87t-90 226q0 78 32 303 q-102 -301 -258.5 -458.5t-361.5 -157.5q-172 0 -260 95t-88 255q0 90 26 219l127 586q4 16 19.5 90t15.5 160q0 49 -19.5 73.5t-51.5 24.5q-61 0 -143.5 -58.5t-172.5 -179.5q-29 -39 -63 -38q-29 0 -50.5 27.5t-21.5 62.5zM547 2222q0 53 38.5 91t92.5 38q49 0 90 -35 l352 -301q39 -33 39 -74q0 -31 -22.5 -52t-55.5 -21q-25 0 -43 10l-383 198q-109 57 -108 146z" />
<glyph unicode="&#xda;" horiz-adv-x="1822" d="M-2 1307q0 63 57 143q209 287 490 287q125 0 195.5 -76t70.5 -223q0 -104 -14.5 -192.5t-48.5 -239.5l-84 -375q-4 -18 -14.5 -65.5t-16.5 -89.5t-6 -83q0 -66 36.5 -104.5t104.5 -38.5q123 0 249 131t233.5 423t166.5 746q14 104 42 145.5t108 41.5q72 0 106.5 -43 t34.5 -140q0 -55 -13.5 -145t-39.5 -252q-55 -313 -88 -575q-16 -119 -17 -176q0 -84 38 -128.5t102 -44.5q68 0 132 45.5t152 149.5q25 29 56 29q27 0 42 -24.5t15 -67.5q0 -80 -39 -127q-106 -129 -210.5 -188.5t-219.5 -59.5q-170 0 -260 87t-90 226q0 78 32 303 q-102 -301 -258.5 -458.5t-361.5 -157.5q-172 0 -260 95t-88 255q0 90 26 219l127 586q4 16 19.5 90t15.5 160q0 49 -19.5 73.5t-51.5 24.5q-61 0 -143.5 -58.5t-172.5 -179.5q-29 -39 -63 -38q-29 0 -50.5 27.5t-21.5 62.5zM1030 1941q0 41 39 74l352 301q41 35 90 35 q53 0 92 -38t39 -91q0 -88 -108 -146l-383 -198q-18 -10 -43 -10q-33 0 -55.5 21.5t-22.5 51.5z" />
<glyph unicode="&#xdb;" horiz-adv-x="1822" d="M-2 1307q0 63 57 143q209 287 490 287q125 0 195.5 -76t70.5 -223q0 -104 -14.5 -192.5t-48.5 -239.5l-84 -375q-4 -18 -14.5 -65.5t-16.5 -89.5t-6 -83q0 -66 36.5 -104.5t104.5 -38.5q123 0 249 131t233.5 423t166.5 746q14 104 42 145.5t108 41.5q72 0 106.5 -43 t34.5 -140q0 -55 -13.5 -145t-39.5 -252q-55 -313 -88 -575q-16 -119 -17 -176q0 -84 38 -128.5t102 -44.5q68 0 132 45.5t152 149.5q25 29 56 29q27 0 42 -24.5t15 -67.5q0 -80 -39 -127q-106 -129 -210.5 -188.5t-219.5 -59.5q-170 0 -260 87t-90 226q0 78 32 303 q-102 -301 -258.5 -458.5t-361.5 -157.5q-172 0 -260 95t-88 255q0 90 26 219l127 586q4 16 19.5 90t15.5 160q0 49 -19.5 73.5t-51.5 24.5q-61 0 -143.5 -58.5t-172.5 -179.5q-29 -39 -63 -38q-29 0 -50.5 27.5t-21.5 62.5zM753 1952q0 35 27 75l188 281q76 115 215 115 q63 0 101.5 -33t68.5 -109l97 -248q12 -31 12 -57q0 -49 -35 -78.5t-82 -29.5q-35 0 -64.5 19t-39.5 54l-84 297l-164 -291q-23 -41 -59.5 -61.5t-75.5 -20.5q-43 0 -74 24t-31 63z" />
<glyph unicode="&#xdc;" horiz-adv-x="1822" d="M-2 1307q0 63 57 143q209 287 490 287q125 0 195.5 -76t70.5 -223q0 -104 -14.5 -192.5t-48.5 -239.5l-84 -375q-4 -18 -14.5 -65.5t-16.5 -89.5t-6 -83q0 -66 36.5 -104.5t104.5 -38.5q123 0 249 131t233.5 423t166.5 746q14 104 42 145.5t108 41.5q72 0 106.5 -43 t34.5 -140q0 -55 -13.5 -145t-39.5 -252q-55 -313 -88 -575q-16 -119 -17 -176q0 -84 38 -128.5t102 -44.5q68 0 132 45.5t152 149.5q25 29 56 29q27 0 42 -24.5t15 -67.5q0 -80 -39 -127q-106 -129 -210.5 -188.5t-219.5 -59.5q-170 0 -260 87t-90 226q0 78 32 303 q-102 -301 -258.5 -458.5t-361.5 -157.5q-172 0 -260 95t-88 255q0 90 26 219l127 586q4 16 19.5 90t15.5 160q0 49 -19.5 73.5t-51.5 24.5q-61 0 -143.5 -58.5t-172.5 -179.5q-29 -39 -63 -38q-29 0 -50.5 27.5t-21.5 62.5zM762 2019q0 84 45 131t120 47q66 0 105 -38 t39 -113q0 -84 -45 -131t-121 -47q-66 0 -104.5 37.5t-38.5 113.5zM1188 2019q0 84 45 131t120 47q66 0 105 -38t39 -113q0 -84 -45 -131t-121 -47q-66 0 -104.5 37.5t-38.5 113.5z" />
<glyph unicode="&#xdd;" horiz-adv-x="1742" d="M-2 1307q0 63 57 143q209 287 490 287q125 0 195.5 -76t70.5 -223q0 -106 -19.5 -218t-58.5 -284q-25 -102 -37 -164.5t-12 -103.5q0 -104 37 -149.5t129 -45.5q111 0 226.5 122t208.5 369.5t134 606.5q10 90 47 128t107 38q143 0 143 -144q0 -25 -2 -39 q-43 -305 -80 -550q-20 -147 -43.5 -303t-46.5 -316q150 41 316 74q11 4 36 4q70 0 70 -90q0 -49 -21.5 -83t-66.5 -42q-186 -35 -367 -78l-6 -49q-57 -403 -228 -597t-427 -194q-170 0 -263 83t-93 212q0 215 192.5 383t583.5 297l41 289q8 49 20 131q-96 -254 -245.5 -379 t-333.5 -125q-176 0 -268.5 107.5t-92.5 277.5q0 76 16.5 167t51.5 247q31 141 46 225t15 150q0 98 -76 98q-59 0 -140 -58.5t-171 -179.5q-29 -39 -63 -38q-29 0 -50.5 27.5t-21.5 62.5zM743 -328q0 -57 36 -95t102 -38q285 0 356 537l2 14q-496 -172 -496 -418zM1057 1941 q0 41 39 74l352 301q41 35 90 35q53 0 92 -38t39 -91q0 -88 -108 -146l-383 -198q-18 -10 -43 -10q-33 0 -55.5 21.5t-22.5 51.5z" />
<glyph unicode="&#xde;" horiz-adv-x="1589" d="M86 414q0 272 75 489t216 360.5t334 200.5l49 348q6 55 53 82t105 27q70 0 99.5 -23.5t29.5 -72.5q0 -23 -3 -35l-38 -289q193 -4 325.5 -65.5t200 -165t67.5 -234.5q0 -162 -88 -299t-260 -223t-417 -94q-29 -162 -68 -359q-29 -145 -94.5 -214.5t-179.5 -69.5 q-113 0 -206 80t-146.5 224t-53.5 333zM313 424q0 -141 31 -266t80 -125q51 0 78 141q33 176 47 262q-12 0 -29 4q-61 10 -77.5 36t-16.5 69q0 49 23.5 75.5t68.5 26.5q20 0 31 -2l35 -6q53 322 92 588q-178 -82 -270.5 -288t-92.5 -515zM870 631q230 20 326 123.5t96 242.5 q0 125 -76.5 200t-242.5 83q-49 -342 -103 -649z" />
<glyph unicode="&#xdf;" horiz-adv-x="1220" d="M88 -375q0 354 21 881q23 571 208 832t478 261q119 0 203.5 -44t130 -119.5t45.5 -167.5q0 -121 -56.5 -200t-163.5 -150q-80 -57 -109.5 -89t-29.5 -69q0 -43 33 -75t102 -77q33 -20 49 -33q127 -4 233.5 -24.5t180.5 -50.5q66 -29 66 -92q0 -94 -62 -95q-25 0 -45 11 q-111 47 -209 67q18 -45 19 -106q0 -141 -110.5 -224.5t-291.5 -83.5q-180 0 -270 75t-90 184q0 90 59.5 164.5t163.5 119.5q-102 92 -102 215q0 88 52 155.5t173 149.5q84 55 124 103.5t40 109.5q0 70 -44 111t-122 41q-176 0 -281.5 -216t-120.5 -661q-10 -377 -10 -710 v-185q0 -39 -42 -61.5t-99 -22.5q-49 0 -86 19.5t-37 56.5zM653 248q0 -41 36 -71t99 -30q58 0 99 28t41 77q0 43 -30 76.5t-87 72.5q-78 -20 -118 -62t-40 -91z" />
<glyph unicode="&#xe0;" horiz-adv-x="962" d="M72 324q0 164 75.5 310t201.5 235t267 89q45 0 60.5 -17t25.5 -62q43 8 91 8q100 0 100 -72q0 -43 -31 -205q-47 -236 -47 -327q0 -31 15.5 -49.5t39.5 -18.5q39 0 94.5 50t149.5 163q25 29 55 29q27 0 42.5 -24.5t15.5 -67.5q0 -82 -39 -127q-84 -104 -178.5 -176 t-182.5 -72q-68 0 -124 46t-85 126q-106 -172 -268 -172q-127 0 -202.5 92t-75.5 242zM262 1579q0 57 40 94t91 37q35 0 65.5 -20.5t49.5 -61.5l190 -426q8 -18 8 -39q0 -31 -21.5 -52t-49.5 -21q-37 -1 -64 34l-264 340q-45 57 -45 115zM328 322q0 -63 25.5 -94t70.5 -31 t86 53t59 141l76 377q-86 -2 -158.5 -64.5t-115.5 -165t-43 -216.5z" />
<glyph unicode="&#xe1;" horiz-adv-x="962" d="M72 324q0 164 75.5 310t201.5 235t267 89q45 0 60.5 -17t25.5 -62q43 8 91 8q100 0 100 -72q0 -43 -31 -205q-47 -236 -47 -327q0 -31 15.5 -49.5t39.5 -18.5q39 0 94.5 50t149.5 163q25 29 55 29q27 0 42.5 -24.5t15.5 -67.5q0 -82 -39 -127q-84 -104 -178.5 -176 t-182.5 -72q-68 0 -124 46t-85 126q-106 -172 -268 -172q-127 0 -202.5 92t-75.5 242zM328 322q0 -63 25.5 -94t70.5 -31t86 53t59 141l76 377q-86 -2 -158.5 -64.5t-115.5 -165t-43 -216.5zM563 1163q0 14 10 39l191 426q18 41 48 60.5t66 19.5q51 0 91.5 -37t40.5 -92 q0 -57 -46 -115l-264 -340q-27 -35 -65 -34q-29 0 -50.5 21.5t-21.5 51.5z" />
<glyph unicode="&#xe2;" horiz-adv-x="962" d="M72 324q0 164 75.5 310t201.5 235t267 89q45 0 60.5 -17t25.5 -62q43 8 91 8q100 0 100 -72q0 -43 -31 -205q-47 -236 -47 -327q0 -31 15.5 -49.5t39.5 -18.5q39 0 94.5 50t149.5 163q25 29 55 29q27 0 42.5 -24.5t15.5 -67.5q0 -82 -39 -127q-84 -104 -178.5 -176 t-182.5 -72q-68 0 -124 46t-85 126q-106 -172 -268 -172q-127 0 -202.5 92t-75.5 242zM285 1165q0 35 22 74l229 395q37 63 83.5 95t109.5 32q61 0 96 -36.5t54 -116.5l90 -369q6 -25 6 -45q0 -51 -34 -79t-81 -28t-75.5 24t-37.5 87l-47 363l-178 -363q-31 -63 -65.5 -85.5 t-77.5 -22.5t-68.5 19t-25.5 56zM328 322q0 -63 25.5 -94t70.5 -31t86 53t59 141l76 377q-86 -2 -158.5 -64.5t-115.5 -165t-43 -216.5z" />
<glyph unicode="&#xe3;" horiz-adv-x="962" d="M72 324q0 164 75.5 310t201.5 235t267 89q45 0 60.5 -17t25.5 -62q43 8 91 8q100 0 100 -72q0 -43 -31 -205q-47 -236 -47 -327q0 -31 15.5 -49.5t39.5 -18.5q39 0 94.5 50t149.5 163q25 29 55 29q27 0 42.5 -24.5t15.5 -67.5q0 -82 -39 -127q-84 -104 -178.5 -176 t-182.5 -72q-68 0 -124 46t-85 126q-106 -172 -268 -172q-127 0 -202.5 92t-75.5 242zM215 1200q0 47 76 158q47 68 92 99.5t98 31.5q35 0 62.5 -10.5t72.5 -42.5l219 -152l91 129q33 45 92 45q37 0 62.5 -21.5t25.5 -58.5q0 -29 -19.5 -64.5t-56.5 -92.5q-47 -68 -92 -99.5 t-98 -31.5q-33 0 -62 11t-74 42l-219 151l-90 -129q-33 -45 -92 -45q-37 0 -62.5 21.5t-25.5 58.5zM328 322q0 -63 25.5 -94t70.5 -31t86 53t59 141l76 377q-86 -2 -158.5 -64.5t-115.5 -165t-43 -216.5z" />
<glyph unicode="&#xe4;" horiz-adv-x="962" d="M72 324q0 164 75.5 310t201.5 235t267 89q45 0 60.5 -17t25.5 -62q43 8 91 8q100 0 100 -72q0 -43 -31 -205q-47 -236 -47 -327q0 -31 15.5 -49.5t39.5 -18.5q39 0 94.5 50t149.5 163q25 29 55 29q27 0 42.5 -24.5t15.5 -67.5q0 -82 -39 -127q-84 -104 -178.5 -176 t-182.5 -72q-68 0 -124 46t-85 126q-106 -172 -268 -172q-127 0 -202.5 92t-75.5 242zM291 1237q0 82 44 128t117 46q66 0 103 -36t37 -111q0 -82 -44 -128t-118 -46q-66 0 -102.5 35.5t-36.5 111.5zM328 322q0 -63 25.5 -94t70.5 -31t86 53t59 141l76 377 q-86 -2 -158.5 -64.5t-115.5 -165t-43 -216.5zM717 1237q0 82 44 128t117 46q66 0 103 -36t37 -111q0 -82 -44 -128t-118 -46q-66 0 -102.5 35.5t-36.5 111.5z" />
<glyph unicode="&#xe5;" horiz-adv-x="962" d="M72 324q0 164 75.5 310t201.5 235t267 89q45 0 60.5 -17t25.5 -62q43 8 91 8q100 0 100 -72q0 -43 -31 -205q-47 -236 -47 -327q0 -31 15.5 -49.5t39.5 -18.5q39 0 94.5 50t149.5 163q25 29 55 29q27 0 42.5 -24.5t15.5 -67.5q0 -82 -39 -127q-84 -104 -178.5 -176 t-182.5 -72q-68 0 -124 46t-85 126q-106 -172 -268 -172q-127 0 -202.5 92t-75.5 242zM328 322q0 -63 25.5 -94t70.5 -31t86 53t59 141l76 377q-86 -2 -158.5 -64.5t-115.5 -165t-43 -216.5zM391 1360q0 92 40 160.5t106.5 105.5t142.5 37q109 0 186.5 -72.5t77.5 -197.5 q0 -92 -40 -161t-106.5 -105.5t-142.5 -36.5q-108 0 -186 72.5t-78 197.5zM573 1370q0 -45 27 -72.5t63 -27.5q41 0 70 30.5t29 81.5q0 45 -27 73t-63 28q-41 0 -70 -31t-29 -82z" />
<glyph unicode="&#xe6;" horiz-adv-x="1337" d="M74 348q0 168 75.5 307.5t215 221t323.5 81.5q45 0 63.5 -20t30.5 -82q51 47 125 72.5t156 25.5q119 0 190.5 -70.5t71.5 -191.5q0 -141 -101.5 -242.5t-342.5 -160.5q51 -94 194 -94q92 0 210 64.5t204 168.5q25 29 55 29q27 0 42.5 -24.5t15.5 -67.5q0 -82 -39 -127 q-76 -92 -214.5 -170t-295.5 -78q-137 0 -234.5 48t-152.5 136q-41 -86 -120 -135t-173 -49q-139 0 -219 97t-80 261zM328 358q0 -76 26.5 -118.5t73.5 -42.5q51 0 92 55t62 160l20 102q29 144 90 244q-168 -2 -266 -107.5t-98 -292.5zM848 449q121 29 190.5 86t69.5 133 q0 39 -21.5 62.5t-58.5 23.5q-76 0 -128 -88t-52 -213v-4z" />
<glyph unicode="&#xe7;" horiz-adv-x="753" d="M66 403q0 166 65.5 291t170 192.5t218.5 67.5q113 0 175.5 -66.5t62.5 -170.5q0 -86 -38 -145.5t-99 -59.5q-39 0 -62.5 18.5t-23.5 51.5q0 14 4 32.5t6 26.5q10 31 10 57q0 27 -13.5 41.5t-37.5 14.5q-47 0 -88 -42t-65.5 -114t-24.5 -158q0 -238 206 -237 q84 0 181.5 56t191.5 169q25 29 56 29q27 0 42 -24.5t15 -67.5q0 -78 -39 -127q-96 -119 -230.5 -183.5t-259.5 -64.5q-200 0 -311.5 113.5t-111.5 299.5zM119 -412q0 92 82 93q16 0 27 -3q55 -8 108 -8q82 0 128 34t46 103q0 51 -44 81t-120 30q-53 0 -81.5 14.5 t-28.5 49.5q0 12 2 18q8 41 32.5 60.5t75.5 19.5h54q141 0 225 -67.5t84 -188.5q0 -96 -46 -173t-133 -120t-204 -43q-78 0 -127 10q-80 14 -80 90z" />
<glyph unicode="&#xe8;" horiz-adv-x="804" d="M68 426q0 141 59 263t164.5 193.5t238.5 71.5q119 0 191 -70.5t72 -191.5q0 -141 -101.5 -242.5t-343.5 -160.5q51 -94 195 -94q92 0 209.5 64.5t203.5 168.5q25 29 56 29q26 0 41.5 -24.5t15.5 -67.5q0 -82 -39 -127q-76 -92 -214 -170t-296 -78q-215 0 -333.5 116.5 t-118.5 319.5zM176 1579q0 57 40 94t91 37q35 0 65.5 -20.5t49.5 -61.5l190 -426q8 -18 8 -39q0 -31 -21.5 -52t-49.5 -21q-37 -1 -64 34l-264 340q-45 57 -45 115zM315 449q121 29 190.5 86t69.5 133q0 39 -21.5 62.5t-57.5 23.5q-76 0 -128.5 -88t-52.5 -213v-4z" />
<glyph unicode="&#xe9;" horiz-adv-x="804" d="M68 426q0 141 59 263t164.5 193.5t238.5 71.5q119 0 191 -70.5t72 -191.5q0 -141 -101.5 -242.5t-343.5 -160.5q51 -94 195 -94q92 0 209.5 64.5t203.5 168.5q25 29 56 29q26 0 41.5 -24.5t15.5 -67.5q0 -82 -39 -127q-76 -92 -214 -170t-296 -78q-215 0 -333.5 116.5 t-118.5 319.5zM315 449q121 29 190.5 86t69.5 133q0 39 -21.5 62.5t-57.5 23.5q-76 0 -128.5 -88t-52.5 -213v-4zM477 1163q0 14 10 39l191 426q18 41 48 60.5t66 19.5q51 0 91.5 -37t40.5 -92q0 -57 -46 -115l-264 -340q-27 -35 -65 -34q-29 0 -50.5 21.5t-21.5 51.5z" />
<glyph unicode="&#xea;" horiz-adv-x="804" d="M68 426q0 141 59 263t164.5 193.5t238.5 71.5q119 0 191 -70.5t72 -191.5q0 -141 -101.5 -242.5t-343.5 -160.5q51 -94 195 -94q92 0 209.5 64.5t203.5 168.5q25 29 56 29q26 0 41.5 -24.5t15.5 -67.5q0 -82 -39 -127q-76 -92 -214 -170t-296 -78q-215 0 -333.5 116.5 t-118.5 319.5zM199 1165q0 35 22 74l229 395q37 63 83.5 95t109.5 32q61 0 96 -36.5t54 -116.5l90 -369q6 -25 6 -45q0 -51 -34 -79t-81 -28t-75.5 24t-37.5 87l-47 363l-178 -363q-31 -63 -65.5 -85.5t-77.5 -22.5t-68.5 19t-25.5 56zM315 449q121 29 190.5 86t69.5 133 q0 39 -21.5 62.5t-57.5 23.5q-76 0 -128.5 -88t-52.5 -213v-4z" />
<glyph unicode="&#xeb;" horiz-adv-x="804" d="M68 426q0 141 59 263t164.5 193.5t238.5 71.5q119 0 191 -70.5t72 -191.5q0 -141 -101.5 -242.5t-343.5 -160.5q51 -94 195 -94q92 0 209.5 64.5t203.5 168.5q25 29 56 29q26 0 41.5 -24.5t15.5 -67.5q0 -82 -39 -127q-76 -92 -214 -170t-296 -78q-215 0 -333.5 116.5 t-118.5 319.5zM205 1237q0 82 44 128t117 46q66 0 103 -36t37 -111q0 -82 -44 -128t-118 -46q-66 0 -102.5 35.5t-36.5 111.5zM315 449q121 29 190.5 86t69.5 133q0 39 -21.5 62.5t-57.5 23.5q-76 0 -128.5 -88t-52.5 -213v-4zM631 1237q0 82 44 128t117 46q66 0 103 -36 t37 -111q0 -82 -44 -128t-118 -46q-66 0 -102.5 35.5t-36.5 111.5z" />
<glyph unicode="&#xec;" horiz-adv-x="503" d="M-27 1579q0 57 40 94t91 37q35 0 65.5 -20.5t49.5 -61.5l190 -426q8 -18 8 -39q0 -31 -21.5 -52t-49.5 -21q-37 -1 -64 34l-264 340q-45 57 -45 115zM96 334q0 92 23.5 236.5t60.5 269.5q18 66 49 90t99 24q104 0 104 -69q0 -51 -39 -238q-49 -225 -49 -305 q0 -61 16.5 -94t55.5 -33q37 0 92 51t147 162q25 29 56 29q27 0 42 -24.5t15 -67.5q0 -82 -39 -127q-203 -248 -379 -248q-133 0 -193.5 94t-60.5 250z" />
<glyph unicode="&#xed;" horiz-adv-x="503" d="M96 334q0 92 23.5 236.5t60.5 269.5q18 66 49 90t99 24q104 0 104 -69q0 -51 -39 -238q-49 -225 -49 -305q0 -61 16.5 -94t55.5 -33q37 0 92 51t147 162q25 29 56 29q27 0 42 -24.5t15 -67.5q0 -82 -39 -127q-203 -248 -379 -248q-133 0 -193.5 94t-60.5 250zM274 1163 q0 14 10 39l191 426q18 41 48 60.5t66 19.5q51 0 91.5 -37t40.5 -92q0 -57 -46 -115l-264 -340q-27 -35 -65 -34q-29 0 -50.5 21.5t-21.5 51.5z" />
<glyph unicode="&#xee;" horiz-adv-x="503" d="M-4 1165q0 35 22 74l229 395q37 63 83.5 95t109.5 32q61 0 96 -36.5t54 -116.5l90 -369q6 -25 6 -45q0 -51 -34 -79t-81 -28t-75.5 24t-37.5 87l-47 363l-178 -363q-31 -63 -65.5 -85.5t-77.5 -22.5t-68.5 19t-25.5 56zM96 334q0 92 23.5 236.5t60.5 269.5q18 66 49 90 t99 24q104 0 104 -69q0 -51 -39 -238q-49 -225 -49 -305q0 -61 16.5 -94t55.5 -33q37 0 92 51t147 162q25 29 56 29q27 0 42 -24.5t15 -67.5q0 -82 -39 -127q-203 -248 -379 -248q-133 0 -193.5 94t-60.5 250z" />
<glyph unicode="&#xef;" horiz-adv-x="503" d="M2 1237q0 82 44 128t117 46q66 0 103 -36t37 -111q0 -82 -44 -128t-118 -46q-66 0 -102.5 35.5t-36.5 111.5zM96 334q0 92 23.5 236.5t60.5 269.5q18 66 49 90t99 24q104 0 104 -69q0 -51 -39 -238q-49 -225 -49 -305q0 -61 16.5 -94t55.5 -33q37 0 92 51t147 162 q25 29 56 29q27 0 42 -24.5t15 -67.5q0 -82 -39 -127q-203 -248 -379 -248q-133 0 -193.5 94t-60.5 250zM428 1237q0 82 44 128t117 46q66 0 103 -36t37 -111q0 -82 -44 -128t-118 -46q-66 0 -102.5 35.5t-36.5 111.5z" />
<glyph unicode="&#xf0;" horiz-adv-x="923" d="M68 420q0 156 59 277.5t160.5 190t222.5 68.5q96 0 162 -41q-12 240 -76 414l-184 -96q-18 -10 -41 -10q-43 0 -75 40t-32 80q0 33 25 48q84 47 221 118q-78 137 -205 271q-12 16 -12 30q0 33 41 58.5t92 25.5q33 0 59 -14q41 -20 101.5 -91t122.5 -167q53 33 102 72 q82 59 125 84q23 14 45 14q39 0 63 -43q17 -28 17 -57q0 -49 -59.5 -106.5t-196.5 -139.5q59 -133 92 -292t33 -329q0 -246 -54.5 -434t-163 -294.5t-263.5 -106.5q-123 0 -209 60.5t-129 158.5t-43 211zM324 438q0 -111 43 -171t98 -60q74 0 133 116.5t72 348.5 q-33 33 -70 50t-70 17q-98 0 -152 -76.5t-54 -224.5z" />
<glyph unicode="&#xf1;" horiz-adv-x="1015" d="M102 334q0 266 76 506q18 59 60.5 86.5t117.5 27.5q41 0 57.5 -10t16.5 -39q0 -33 -31 -147q-20 -82 -32.5 -143.5t-20.5 -151.5q68 176 152 286.5t164.5 157.5t148.5 47q133 0 133 -133q0 -80 -45 -289q-39 -178 -39 -235q0 -82 60 -82q41 0 97 50t150 163q25 29 56 29 q27 0 42 -24.5t15 -67.5q0 -82 -39 -127q-88 -109 -189.5 -178.5t-230.5 -69.5q-104 0 -157.5 60.5t-53.5 174.5q0 57 29 205q27 129 27 178q0 33 -23 33q-27 0 -75 -68.5t-98 -181t-81 -237.5q-23 -96 -52.5 -130t-92.5 -34q-78 0 -110 82t-32 262zM227 1200q0 47 76 158 q47 68 92 99.5t98 31.5q35 0 62.5 -10.5t72.5 -42.5l219 -152l91 129q33 45 92 45q37 0 62.5 -21.5t25.5 -58.5q0 -29 -19.5 -64.5t-56.5 -92.5q-47 -68 -92 -99.5t-98 -31.5q-33 0 -62 11t-74 42l-219 151l-90 -129q-33 -45 -92 -45q-37 0 -62.5 21.5t-25.5 58.5z" />
<glyph unicode="&#xf2;" horiz-adv-x="923" d="M68 420q0 156 59 277.5t163.5 190t231.5 68.5q156 0 251 -107.5t112 -264.5q96 6 229 41q16 4 29 4q26 0 40.5 -27t14.5 -67q0 -98 -59 -117q-123 -43 -271 -49q-39 -172 -153.5 -275.5t-259.5 -103.5q-123 0 -210 59.5t-132 157.5t-45 213zM168 1579q0 57 40 94t91 37 q35 0 65.5 -20.5t49.5 -61.5l190 -426q8 -18 8 -39q0 -31 -21.5 -52t-49.5 -21q-37 -1 -64 34l-264 340q-45 57 -45 115zM324 438q0 -113 44 -172t103 -59q66 0 114 53t64 154q-63 43 -97 112.5t-34 147.5q0 33 6 65h-10q-82 0 -136 -78.5t-54 -222.5z" />
<glyph unicode="&#xf3;" horiz-adv-x="923" d="M68 420q0 156 59 277.5t163.5 190t231.5 68.5q156 0 251 -107.5t112 -264.5q96 6 229 41q16 4 29 4q26 0 40.5 -27t14.5 -67q0 -98 -59 -117q-123 -43 -271 -49q-39 -172 -153.5 -275.5t-259.5 -103.5q-123 0 -210 59.5t-132 157.5t-45 213zM324 438q0 -113 44 -172 t103 -59q66 0 114 53t64 154q-63 43 -97 112.5t-34 147.5q0 33 6 65h-10q-82 0 -136 -78.5t-54 -222.5zM469 1163q0 14 10 39l191 426q18 41 48 60.5t66 19.5q51 0 91.5 -37t40.5 -92q0 -57 -46 -115l-264 -340q-27 -35 -65 -34q-29 0 -50.5 21.5t-21.5 51.5z" />
<glyph unicode="&#xf4;" horiz-adv-x="923" d="M68 420q0 156 59 277.5t163.5 190t231.5 68.5q156 0 251 -107.5t112 -264.5q96 6 229 41q16 4 29 4q26 0 40.5 -27t14.5 -67q0 -98 -59 -117q-123 -43 -271 -49q-39 -172 -153.5 -275.5t-259.5 -103.5q-123 0 -210 59.5t-132 157.5t-45 213zM191 1165q0 35 22 74l229 395 q37 63 83.5 95t109.5 32q61 0 96 -36.5t54 -116.5l90 -369q6 -25 6 -45q0 -51 -34 -79t-81 -28t-75.5 24t-37.5 87l-47 363l-178 -363q-31 -63 -65.5 -85.5t-77.5 -22.5t-68.5 19t-25.5 56zM324 438q0 -113 44 -172t103 -59q66 0 114 53t64 154q-63 43 -97 112.5t-34 147.5 q0 33 6 65h-10q-82 0 -136 -78.5t-54 -222.5z" />
<glyph unicode="&#xf5;" horiz-adv-x="923" d="M68 420q0 156 59 277.5t163.5 190t231.5 68.5q156 0 251 -107.5t112 -264.5q96 6 229 41q16 4 29 4q26 0 40.5 -27t14.5 -67q0 -98 -59 -117q-123 -43 -271 -49q-39 -172 -153.5 -275.5t-259.5 -103.5q-123 0 -210 59.5t-132 157.5t-45 213zM121 1200q0 47 76 158 q47 68 92 99.5t98 31.5q35 0 62.5 -10.5t72.5 -42.5l219 -152l91 129q33 45 92 45q37 0 62.5 -21.5t25.5 -58.5q0 -29 -19.5 -64.5t-56.5 -92.5q-47 -68 -92 -99.5t-98 -31.5q-33 0 -62 11t-74 42l-219 151l-90 -129q-33 -45 -92 -45q-37 0 -62.5 21.5t-25.5 58.5zM324 438 q0 -113 44 -172t103 -59q66 0 114 53t64 154q-63 43 -97 112.5t-34 147.5q0 33 6 65h-10q-82 0 -136 -78.5t-54 -222.5z" />
<glyph unicode="&#xf6;" horiz-adv-x="923" d="M68 420q0 156 59 277.5t163.5 190t231.5 68.5q156 0 251 -107.5t112 -264.5q96 6 229 41q16 4 29 4q26 0 40.5 -27t14.5 -67q0 -98 -59 -117q-123 -43 -271 -49q-39 -172 -153.5 -275.5t-259.5 -103.5q-123 0 -210 59.5t-132 157.5t-45 213zM197 1237q0 82 44 128t117 46 q66 0 103 -36t37 -111q0 -82 -44 -128t-118 -46q-66 0 -102.5 35.5t-36.5 111.5zM324 438q0 -113 44 -172t103 -59q66 0 114 53t64 154q-63 43 -97 112.5t-34 147.5q0 33 6 65h-10q-82 0 -136 -78.5t-54 -222.5zM623 1237q0 82 44 128t117 46q66 0 103 -36t37 -111 q0 -82 -44 -128t-118 -46q-66 0 -102.5 35.5t-36.5 111.5z" />
<glyph unicode="&#xf7;" d="M170 543q0 51 34 92t91 41h901q47 0 71.5 -29t24.5 -69q0 -51 -33.5 -93.5t-91.5 -42.5h-901q-47 0 -71.5 30t-24.5 71zM508 139q0 76 43 122t121 46q154 0 153 -145q0 -80 -44 -126t-122 -46q-75 0 -113 41t-38 108zM610 969q0 76 43 122t121 46q154 0 154 -146 q0 -80 -44 -126t-122 -46q-76 0 -114 41t-38 109z" />
<glyph unicode="&#xf8;" horiz-adv-x="940" d="M68 420q0 152 57 272.5t155.5 190t221.5 73.5l35 203q4 25 28.5 38t55.5 13t50 -13t15 -38l-41 -221q115 -35 182.5 -132t79.5 -222q94 8 223 41q12 4 29 4q27 0 41 -27t14 -67q0 -98 -59 -117q-123 -43 -264 -49q-39 -164 -151.5 -266.5t-260.5 -112.5l-35 -205 q-4 -25 -28.5 -38t-55.5 -13t-50 13t-15 38l41 221q-131 39 -199.5 154.5t-68.5 259.5zM317 438q1 -141 60 -200l51 278l37 223q-63 -18 -105.5 -93t-42.5 -208zM516 207q74 18 114 95t40 206q0 143 -66 203l-35 -189z" />
<glyph unicode="&#xf9;" horiz-adv-x="946" d="M98 287q0 154 20.5 281.5t67.5 271.5q20 61 57.5 87.5t116.5 26.5q45 0 62.5 -14t17.5 -43q0 -16 -22 -111q-20 -76 -33 -137q-41 -215 -41 -287q0 -43 10.5 -60t32.5 -17q31 0 77 61.5t98 186t102 307.5q16 61 50 87.5t101 26.5q47 0 65.5 -11t18.5 -42q0 -51 -51 -280 q-57 -262 -57 -324q0 -39 16 -60.5t43 -21.5q41 0 97.5 50t150.5 163q25 29 55 29q27 0 42 -24.5t15 -67.5q0 -82 -39 -127q-88 -109 -189 -178.5t-230 -69.5q-98 0 -144.5 75.5t-46.5 213.5q-35 -139 -104.5 -214t-149.5 -75q-92 0 -150.5 85t-58.5 212zM233 1579 q0 57 40 94t91 37q35 0 65.5 -20.5t49.5 -61.5l190 -426q8 -18 8 -39q0 -31 -21.5 -52t-49.5 -21q-37 -1 -64 34l-264 340q-45 57 -45 115z" />
<glyph unicode="&#xfa;" horiz-adv-x="946" d="M98 287q0 154 20.5 281.5t67.5 271.5q20 61 57.5 87.5t116.5 26.5q45 0 62.5 -14t17.5 -43q0 -16 -22 -111q-20 -76 -33 -137q-41 -215 -41 -287q0 -43 10.5 -60t32.5 -17q31 0 77 61.5t98 186t102 307.5q16 61 50 87.5t101 26.5q47 0 65.5 -11t18.5 -42q0 -51 -51 -280 q-57 -262 -57 -324q0 -39 16 -60.5t43 -21.5q41 0 97.5 50t150.5 163q25 29 55 29q27 0 42 -24.5t15 -67.5q0 -82 -39 -127q-88 -109 -189 -178.5t-230 -69.5q-98 0 -144.5 75.5t-46.5 213.5q-35 -139 -104.5 -214t-149.5 -75q-92 0 -150.5 85t-58.5 212zM534 1163 q0 14 10 39l191 426q18 41 48 60.5t66 19.5q51 0 91.5 -37t40.5 -92q0 -57 -46 -115l-264 -340q-27 -35 -65 -34q-29 0 -50.5 21.5t-21.5 51.5z" />
<glyph unicode="&#xfb;" horiz-adv-x="946" d="M98 287q0 154 20.5 281.5t67.5 271.5q20 61 57.5 87.5t116.5 26.5q45 0 62.5 -14t17.5 -43q0 -16 -22 -111q-20 -76 -33 -137q-41 -215 -41 -287q0 -43 10.5 -60t32.5 -17q31 0 77 61.5t98 186t102 307.5q16 61 50 87.5t101 26.5q47 0 65.5 -11t18.5 -42q0 -51 -51 -280 q-57 -262 -57 -324q0 -39 16 -60.5t43 -21.5q41 0 97.5 50t150.5 163q25 29 55 29q27 0 42 -24.5t15 -67.5q0 -82 -39 -127q-88 -109 -189 -178.5t-230 -69.5q-98 0 -144.5 75.5t-46.5 213.5q-35 -139 -104.5 -214t-149.5 -75q-92 0 -150.5 85t-58.5 212zM256 1165 q0 35 22 74l229 395q37 63 83.5 95t109.5 32q61 0 96 -36.5t54 -116.5l90 -369q6 -25 6 -45q0 -51 -34 -79t-81 -28t-75.5 24t-37.5 87l-47 363l-178 -363q-31 -63 -65.5 -85.5t-77.5 -22.5t-68.5 19t-25.5 56z" />
<glyph unicode="&#xfc;" horiz-adv-x="946" d="M98 287q0 154 20.5 281.5t67.5 271.5q20 61 57.5 87.5t116.5 26.5q45 0 62.5 -14t17.5 -43q0 -16 -22 -111q-20 -76 -33 -137q-41 -215 -41 -287q0 -43 10.5 -60t32.5 -17q31 0 77 61.5t98 186t102 307.5q16 61 50 87.5t101 26.5q47 0 65.5 -11t18.5 -42q0 -51 -51 -280 q-57 -262 -57 -324q0 -39 16 -60.5t43 -21.5q41 0 97.5 50t150.5 163q25 29 55 29q27 0 42 -24.5t15 -67.5q0 -82 -39 -127q-88 -109 -189 -178.5t-230 -69.5q-98 0 -144.5 75.5t-46.5 213.5q-35 -139 -104.5 -214t-149.5 -75q-92 0 -150.5 85t-58.5 212zM262 1237 q0 82 44 128t117 46q66 0 103 -36t37 -111q0 -82 -44 -128t-118 -46q-66 0 -102.5 35.5t-36.5 111.5zM688 1237q0 82 44 128t117 46q66 0 103 -36t37 -111q0 -82 -44 -128t-118 -46q-66 0 -102.5 35.5t-36.5 111.5z" />
<glyph unicode="&#xfd;" horiz-adv-x="980" d="M-8 -698q0 96 44 196.5t163.5 230.5t339.5 298l6 47q14 76 33 217q-41 -147 -115 -224t-156 -77q-92 0 -150.5 85t-58.5 212q0 154 20.5 281.5t67.5 271.5q20 61 57.5 87.5t116.5 26.5q45 0 62.5 -14t17.5 -43q0 -16 -22 -111q-20 -76 -33 -137q-16 -84 -28.5 -160.5 t-12.5 -126.5q0 -78 43 -77q31 0 77 61.5t98 186t102 307.5q16 61 50 87.5t101 26.5q47 0 65.5 -12t18.5 -41q0 -51 -53 -352l-53 -330q158 119 307 217q27 16 47 17q27 0 42 -26t15 -65q0 -47 -14 -73.5t-45 -46.5l-393 -265q-78 -424 -204 -666.5t-321 -242.5 q-104 0 -169.5 64.5t-65.5 169.5zM193 -653q0 -35 13 -57.5t44 -22.5q51 0 114.5 118.5t127.5 395.5q-158 -133 -228.5 -242.5t-70.5 -191.5zM534 1163q0 14 10 39l191 426q18 41 48 60.5t66 19.5q51 0 91.5 -37t40.5 -92q0 -57 -46 -115l-264 -340q-27 -35 -65 -34 q-29 0 -50.5 21.5t-21.5 51.5z" />
<glyph unicode="&#xfe;" horiz-adv-x="1040" d="M49 -586q0 213 11.5 507t37.5 546q47 449 162 991q16 82 54 115t94 33q68 0 98.5 -20.5t30.5 -65.5q0 -12 -9 -54q-100 -410 -174 -886q78 180 180.5 277t213.5 97q92 0 154.5 -76.5t62.5 -220.5q0 -256 -138 -428q43 -14 78 -14q68 0 129.5 49t157.5 164q25 29 55 29 q27 0 42.5 -24.5t15.5 -67.5q0 -82 -39 -127q-88 -109 -189.5 -178.5t-230.5 -69.5q-119 0 -189 92q-145 -84 -350 -105q-4 -193 -4 -282l2 -262q0 -66 -40 -92.5t-97 -26.5t-88 22.5t-31 77.5zM338 184q178 23 273.5 127.5t95.5 253.5q0 123 -62 123q-47 0 -105.5 -70.5 t-112.5 -186.5t-89 -247z" />
<glyph unicode="&#xff;" horiz-adv-x="980" d="M-8 -698q0 96 44 196.5t163.5 230.5t339.5 298l6 47q14 76 33 217q-41 -147 -115 -224t-156 -77q-92 0 -150.5 85t-58.5 212q0 154 20.5 281.5t67.5 271.5q20 61 57.5 87.5t116.5 26.5q45 0 62.5 -14t17.5 -43q0 -16 -22 -111q-20 -76 -33 -137q-16 -84 -28.5 -160.5 t-12.5 -126.5q0 -78 43 -77q31 0 77 61.5t98 186t102 307.5q16 61 50 87.5t101 26.5q47 0 65.5 -12t18.5 -41q0 -51 -53 -352l-53 -330q158 119 307 217q27 16 47 17q27 0 42 -26t15 -65q0 -47 -14 -73.5t-45 -46.5l-393 -265q-78 -424 -204 -666.5t-321 -242.5 q-104 0 -169.5 64.5t-65.5 169.5zM193 -653q0 -35 13 -57.5t44 -22.5q51 0 114.5 118.5t127.5 395.5q-158 -133 -228.5 -242.5t-70.5 -191.5zM262 1237q0 82 44 128t117 46q66 0 103 -36t37 -111q0 -82 -44 -128t-118 -46q-66 0 -102.5 35.5t-36.5 111.5zM688 1237 q0 82 44 128t117 46q66 0 103 -36t37 -111q0 -82 -44 -128t-118 -46q-66 0 -102.5 35.5t-36.5 111.5z" />
<glyph unicode="&#x152;" horiz-adv-x="2301" d="M131 692q0 311 113.5 549t309.5 367t433 129q170 0 304 -74t214 -215l11 41q31 113 101.5 170t174.5 61l106 6q258 12 406 13q74 0 102.5 -25.5t28.5 -85.5q0 -63 -37 -108t-110 -45q-137 0 -281.5 -6.5t-210.5 -14.5q-49 -147 -119 -465q94 4 135 4q219 10 371 11 q61 0 85 -26t24 -75q0 -63 -36 -105t-99 -44l-232 -6q-106 -4 -297 -9q-23 -100 -22 -178q0 -326 383 -325q109 0 221 33.5t248 103.5q18 10 41 10q29 0 45 -23.5t16 -60.5q0 -47 -19.5 -85t-66.5 -73q-90 -66 -241.5 -108.5t-290.5 -42.5q-229 0 -370.5 82t-201.5 223 q-111 -145 -263.5 -225t-328.5 -80q-182 0 -328.5 82t-232.5 240.5t-86 379.5zM432 727q0 -244 102.5 -370t264.5 -126q159 0 281 98.5t187.5 273.5t65.5 396q0 244 -102.5 370t-263.5 126q-156 0 -278 -99.5t-189.5 -273.5t-67.5 -395z" />
<glyph unicode="&#x153;" horiz-adv-x="1368" d="M68 420q0 156 59 277.5t160.5 190t222.5 68.5q172 0 274 -147q59 70 138 107.5t165 37.5q123 0 196 -70.5t73 -191.5q0 -141 -101.5 -242.5t-343.5 -160.5q51 -94 195 -94q92 0 210 64.5t204 168.5q25 29 55 29q27 0 42 -24.5t15 -67.5q0 -82 -39 -127q-76 -92 -214 -170 t-296 -78q-117 0 -204.5 39t-145.5 108q-57 -70 -134 -108.5t-161 -38.5q-117 0 -200.5 60.5t-126.5 158.5t-43 211zM324 438q0 -115 35.5 -173t97.5 -58q75 0 125.5 80t50.5 221q0 111 -41 171t-94 60q-74 0 -124 -79.5t-50 -221.5zM879 449q121 29 190.5 86t69.5 133 q0 39 -21.5 62.5t-58.5 23.5q-76 0 -128 -88t-52 -213v-4z" />
<glyph unicode="&#x178;" horiz-adv-x="1742" d="M-2 1307q0 63 57 143q209 287 490 287q125 0 195.5 -76t70.5 -223q0 -106 -19.5 -218t-58.5 -284q-25 -102 -37 -164.5t-12 -103.5q0 -104 37 -149.5t129 -45.5q111 0 226.5 122t208.5 369.5t134 606.5q10 90 47 128t107 38q143 0 143 -144q0 -25 -2 -39 q-43 -305 -80 -550q-20 -147 -43.5 -303t-46.5 -316q150 41 316 74q11 4 36 4q70 0 70 -90q0 -49 -21.5 -83t-66.5 -42q-186 -35 -367 -78l-6 -49q-57 -403 -228 -597t-427 -194q-170 0 -263 83t-93 212q0 215 192.5 383t583.5 297l41 289q8 49 20 131q-96 -254 -245.5 -379 t-333.5 -125q-176 0 -268.5 107.5t-92.5 277.5q0 76 16.5 167t51.5 247q31 141 46 225t15 150q0 98 -76 98q-59 0 -140 -58.5t-171 -179.5q-29 -39 -63 -38q-29 0 -50.5 27.5t-21.5 62.5zM743 -328q0 -57 36 -95t102 -38q285 0 356 537l2 14q-496 -172 -496 -418zM789 2019 q0 84 45 131t120 47q66 0 105 -38t39 -113q0 -84 -45 -131t-121 -47q-66 0 -104.5 37.5t-38.5 113.5zM1215 2019q0 84 45 131t120 47q66 0 105 -38t39 -113q0 -84 -45 -131t-121 -47q-66 0 -104.5 37.5t-38.5 113.5z" />
<glyph unicode="&#x2c6;" horiz-adv-x="1228" d="M273 1165q0 35 22 74l229 395q37 63 83.5 95t109.5 32q61 0 96 -36.5t54 -116.5l90 -369q6 -25 6 -45q0 -51 -34 -79t-81 -28t-75.5 24t-37.5 87l-47 363l-178 -363q-31 -63 -65.5 -85.5t-77.5 -22.5t-68.5 19t-25.5 56z" />
<glyph unicode="&#x2dc;" horiz-adv-x="1228" d="M201 1200q0 47 76 158q47 68 92 99.5t98 31.5q35 0 62.5 -10.5t72.5 -42.5l219 -152l91 129q33 45 92 45q37 0 62.5 -21.5t25.5 -58.5q0 -29 -19.5 -64.5t-56.5 -92.5q-47 -68 -92 -99.5t-98 -31.5q-33 0 -62 11t-74 42l-219 151l-90 -129q-33 -45 -92 -45 q-37 0 -62.5 21.5t-25.5 58.5z" />
<glyph unicode="&#x2000;" horiz-adv-x="1220" />
<glyph unicode="&#x2001;" horiz-adv-x="2441" />
<glyph unicode="&#x2002;" horiz-adv-x="1220" />
<glyph unicode="&#x2003;" horiz-adv-x="2441" />
<glyph unicode="&#x2004;" horiz-adv-x="813" />
<glyph unicode="&#x2005;" horiz-adv-x="610" />
<glyph unicode="&#x2006;" horiz-adv-x="406" />
<glyph unicode="&#x2007;" horiz-adv-x="406" />
<glyph unicode="&#x2008;" horiz-adv-x="305" />
<glyph unicode="&#x2009;" horiz-adv-x="488" />
<glyph unicode="&#x200a;" horiz-adv-x="135" />
<glyph unicode="&#x2010;" horiz-adv-x="825" d="M117 625q0 55 27.5 81.5t80.5 30.5l420 41q51 4 79 -25.5t28 -86.5q0 -111 -107 -121l-420 -41q-49 -4 -78.5 28.5t-29.5 92.5z" />
<glyph unicode="&#x2011;" horiz-adv-x="825" d="M117 625q0 55 27.5 81.5t80.5 30.5l420 41q51 4 79 -25.5t28 -86.5q0 -111 -107 -121l-420 -41q-49 -4 -78.5 28.5t-29.5 92.5z" />
<glyph unicode="&#x2012;" horiz-adv-x="825" d="M117 625q0 55 27.5 81.5t80.5 30.5l420 41q51 4 79 -25.5t28 -86.5q0 -111 -107 -121l-420 -41q-49 -4 -78.5 28.5t-29.5 92.5z" />
<glyph unicode="&#x2013;" horiz-adv-x="991" d="M113 625q0 55 28.5 83.5t79.5 28.5h588q106 0 106 -112q0 -57 -27.5 -89t-78.5 -32h-588q-51 0 -79.5 31.5t-28.5 89.5z" />
<glyph unicode="&#x2014;" horiz-adv-x="1269" d="M113 625q0 55 28.5 83.5t79.5 28.5h866q106 0 107 -112q0 -57 -27.5 -89t-79.5 -32h-866q-51 0 -79.5 31.5t-28.5 89.5z" />
<glyph unicode="&#x2018;" horiz-adv-x="485" d="M211 1366q0 72 43 190.5t104 231.5q41 76 64.5 100.5t62.5 24.5q45 0 72 -20.5t27 -65.5q0 -18 -6 -43q-23 -94 -34.5 -174t-11.5 -178q0 -102 -48 -157.5t-124 -55.5q-73 0 -111 39.5t-38 107.5z" />
<glyph unicode="&#x2019;" horiz-adv-x="483" d="M231 1305q0 18 7 43q23 94 34 174t11 178q0 102 48 157.5t124 55.5q74 0 111.5 -40t37.5 -108q0 -72 -43 -190.5t-104 -231.5q-41 -76 -64.5 -100t-62.5 -24q-45 0 -72 20.5t-27 65.5z" />
<glyph unicode="&#x201a;" horiz-adv-x="526" d="M33 -238q0 18 6 43q23 94 34 174t11 179q0 102 48 157.5t124 55.5q74 0 112 -40t38 -108q0 -72 -43.5 -190.5t-104.5 -231.5q-41 -76 -64.5 -100.5t-62.5 -24.5q-45 0 -71.5 20.5t-26.5 65.5z" />
<glyph unicode="&#x201c;" horiz-adv-x="935" d="M211 1366q0 72 43 190.5t104 231.5q41 76 64.5 100.5t62.5 24.5q45 0 72 -20.5t27 -65.5q0 -18 -6 -43q-23 -94 -34.5 -174t-11.5 -178q0 -102 -48 -157.5t-124 -55.5q-73 0 -111 39.5t-38 107.5zM662 1366q0 72 43 190.5t104 231.5q41 76 64.5 100.5t62.5 24.5 q45 0 72 -20.5t27 -65.5q0 -18 -6 -43q-23 -94 -34.5 -174t-11.5 -178q0 -102 -48 -157.5t-124 -55.5q-73 0 -111 39.5t-38 107.5z" />
<glyph unicode="&#x201d;" horiz-adv-x="933" d="M231 1305q0 18 7 43q23 94 34 174t11 178q0 102 48 157.5t124 55.5q74 0 111.5 -40t37.5 -108q0 -72 -43 -190.5t-104 -231.5q-41 -76 -64.5 -100t-62.5 -24q-45 0 -72 20.5t-27 65.5zM682 1305q0 18 7 43q23 94 34 174t11 178q0 102 48 157.5t124 55.5q74 0 111.5 -40 t37.5 -108q0 -72 -43 -190.5t-104 -231.5q-41 -76 -64.5 -100t-62.5 -24q-45 0 -72 20.5t-27 65.5z" />
<glyph unicode="&#x201e;" horiz-adv-x="976" d="M33 -238q0 18 6 43q23 94 34 174t11 179q0 102 48 157.5t124 55.5q74 0 112 -40t38 -108q0 -72 -43.5 -190.5t-104.5 -231.5q-41 -76 -64.5 -100.5t-62.5 -24.5q-45 0 -71.5 20.5t-26.5 65.5zM484 -238q0 18 6 43q23 94 34 174t11 179q0 102 48 157.5t124 55.5 q74 0 112 -40t38 -108q0 -72 -43.5 -190.5t-104.5 -231.5q-41 -76 -64.5 -100.5t-62.5 -24.5q-45 0 -71.5 20.5t-26.5 65.5z" />
<glyph unicode="&#x2022;" horiz-adv-x="1048" d="M209 469q0 156 87 247t245 91q152 0 228.5 -75t76.5 -216q0 -158 -88 -251t-244 -93q-149 0 -227 82t-78 215z" />
<glyph unicode="&#x2026;" horiz-adv-x="1591" d="M57 168q0 92 52.5 147.5t146.5 55.5q90 0 136 -44t46 -130q0 -94 -53 -150.5t-145 -56.5q-90 0 -136.5 49t-46.5 129zM589 168q0 92 52.5 147.5t146.5 55.5q90 0 136 -44t46 -130q0 -94 -53 -150.5t-145 -56.5q-90 0 -136.5 49t-46.5 129zM1122 168q0 92 52.5 147.5 t146.5 55.5q90 0 136 -44t46 -130q0 -94 -53 -150.5t-145 -56.5q-90 0 -136.5 49t-46.5 129z" />
<glyph unicode="&#x202f;" horiz-adv-x="488" />
<glyph unicode="&#x2039;" horiz-adv-x="716" d="M55 485q0 43 14.5 80t43.5 56l325 221q37 25 74 24q47 0 81 -33.5t34 -76.5q0 -49 -47 -82l-265 -182l267 -228q31 -25 30 -61q0 -43 -42 -80t-91 -37q-37 0 -59 20l-289 244q-76 63 -76 135z" />
<glyph unicode="&#x203a;" horiz-adv-x="716" d="M92 197q0 49 47 82l264 182l-266 227q-31 25 -31 62q0 43 42 79.5t92 36.5q37 0 59 -20l289 -244q76 -63 76 -135q0 -43 -14.5 -80t-43.5 -55l-325 -221q-37 -25 -74 -25q-47 0 -81 34t-34 77z" />
<glyph unicode="&#x205f;" horiz-adv-x="610" />
<glyph unicode="&#x20ac;" horiz-adv-x="1130" d="M35 446q0 29 20.5 53.5t53.5 24.5h67q0 45 6 84h-65q-27 0 -41.5 16.5t-14.5 39.5q0 29 19.5 52t52.5 23h74q57 213 209.5 335t349.5 122q119 0 196.5 -44t113.5 -113.5t36 -147.5q0 -213 -137 -213q-51 0 -76 21.5t-25 72.5q0 16 2.5 29.5t4.5 23.5q8 45 8 62 q0 55 -33 80.5t-104 25.5q-111 0 -185.5 -69.5t-109.5 -184.5l239 2q27 0 42.5 -17t15.5 -42q0 -31 -19.5 -53.5t-54.5 -22.5l-250 2q-4 -49 -4 -78v-6l246 2q27 0 42 -17t15 -42q0 -31 -20.5 -54.5t-55.5 -21.5l-213 2q25 -98 86.5 -144t145.5 -46q172 0 315 143 q23 23 41 23q20 0 32.5 -26t12.5 -64q0 -66 -33 -111q-68 -88 -169 -133t-212 -45q-188 0 -317 104.5t-158 298.5h-94q-27 0 -41 15.5t-14 37.5z" />
<glyph unicode="&#x2122;" horiz-adv-x="2355" d="M207 1645q-2 33 16.5 53t52.5 24q143 18 291 19q201 0 291 -6q113 -6 117 -86q0 -31 -20.5 -44.5t-69.5 -13.5q-70 0 -209 4q-23 -115 -62 -340q-14 -74 -24 -160.5t-12 -136.5q-6 -59 -111 -59q-90 0 -94 59q0 25 9 88.5t32 206.5q16 109 59 340q-68 0 -174 -10 q-92 -10 -92 62zM973 967q6 86 34.5 302t59.5 419q4 29 29.5 43t79.5 14q47 0 65.5 -10.5t18.5 -36.5q0 -14 -3 -23q-4 -37 -32 -188q57 133 135 193.5t192 60.5q90 0 137.5 -45t51.5 -129q4 -37 -6 -80q51 131 130 192.5t197 61.5q95 0 144 -44t53 -126q0 -59 -25 -193 l-22 -123q-20 -92 -37 -288q-2 -37 -24.5 -52.5t-77.5 -15.5q-102 0 -103 59q-2 53 41 293l23 133q12 61 12 99q0 92 -64 92q-106 0 -185 -155.5t-109 -440.5q-4 -47 -27 -63.5t-82 -16.5q-57 0 -76.5 17.5t-19.5 60.5q0 59 37 258q35 193 34 244q0 51 -16 73.5t-55 22.5 q-119 0 -201 -159t-108 -447q-4 -35 -28 -52.5t-75 -17.5q-53 0 -76.5 16.5t-21.5 51.5z" />
<glyph unicode="&#x25fc;" horiz-adv-x="962" d="M0 0v963h963v-963h-963z" />
</font>
</defs>
</svg>
