<?xml version="1.0" standalone="no"?>
<!DOCTYPE svg PUBLIC "-//W3C//DTD SVG 1.1//EN" "http://www.w3.org/Graphics/SVG/1.1/DTD/svg11.dtd" >
<svg xmlns="http://www.w3.org/2000/svg" xmlns:xlink="http://www.w3.org/1999/xlink" version="1.1">
<metadata></metadata>
<defs>
<font id="cinzelregular" horiz-adv-x="1357" >
<font-face units-per-em="2048" ascent="1638" descent="-410" />
<missing-glyph horiz-adv-x="512" />
<glyph horiz-adv-x="0" />
<glyph unicode="&#xd;" horiz-adv-x="681" />
<glyph unicode=" "  horiz-adv-x="512" />
<glyph unicode="&#x09;" horiz-adv-x="512" />
<glyph unicode="&#xa0;" horiz-adv-x="512" />
<glyph unicode="!" horiz-adv-x="471" d="M143 84q0 39 27 65.5t65.5 26.5t65.5 -26.5t27 -65.5t-27 -65.5t-65.5 -26.5t-65.5 26.5t-27 65.5zM158 1438h153l-24 -613l-43 -477h-21l-41 477z" />
<glyph unicode="&#x22;" horiz-adv-x="645" d="M102 1034q37 174 37 255t-4 145l144 28v-43t-11.5 -107.5t-49.5 -164.5t-97 -123zM369 1034q37 174 37 255t-5 145l144 28v-43t-11.5 -107.5t-49.5 -164.5t-97 -123z" />
<glyph unicode="#" horiz-adv-x="1097" d="M41 444v62h231l78 450h-219v62h231l72 416h66l-72 -416h344l72 416h65l-71 -416h219v-62h-232l-77 -450h219v-62h-232l-78 -444h-65l78 444h-344l-78 -444h-66l78 444h-219zM338 506h344l78 450h-344z" />
<glyph unicode="$" horiz-adv-x="960" d="M113 194.5q0 81.5 30 174.5h19q-2 -23 -2 -43q0 -111 57 -191t172 -98l51 657l-182 168q-111 102 -111 256q0 94 45.5 173t126 125t179.5 46l12 152l61 -2l-10 -152q66 -6 125 -18h78v-252h-19q0 115 -90 172q-43 27 -100 35l-43 -574l236 -219q102 -94 102 -231 t-47 -223q-98 -176 -357 -179l-14 -180l-61 6l14 180q-182 21 -264 107q-8 29 -8 110.5zM262 1155q0 -102 84 -178l107 -100l41 522q-97 -4 -164.5 -73t-67.5 -171zM451 33h6q116 4 195 80.5t79 193.5t-80 191l-153 143z" />
<glyph unicode="%" horiz-adv-x="1400" d="M90 975q0 250 133 387q92 96 221 100q37 0 75 -10t118 -57q90 -49 144.5 -49t100.5 15t110.5 52t70.5 39l45 -18l-764 -1457l-51 23l729 1384q-8 -4 -29.5 -15t-32 -16t-34 -16.5t-34.5 -14.5t-37 -10t-41 -5t-44 0q-55 4 -133 45q33 -63 33 -131q0 -246 -135 -385 q-94 -96 -219.5 -96.5t-184.5 96.5q-41 66 -41 139zM197 977q0 -66 16 -111q31 -86 110.5 -86t140 86.5t87.5 233.5q12 70 12 129t-16 106q-31 86 -111 86q-109 0 -176 -149q-63 -137 -63 -295zM733 207q0 252 133 389q97 98 221.5 98t184.5 -98q41 -66 41 -137 q0 -252 -133 -389q-96 -98 -221 -98.5t-185 98.5q-41 66 -41 137zM840 203.5q0 -60.5 16 -105.5q31 -86 111 -86t140 86.5t87 233.5q12 70 12 130t-16 105q-31 86 -111 86t-140 -86t-87 -235q-12 -68 -12 -128.5z" />
<glyph unicode="&#x26;" horiz-adv-x="1323" d="M61 459q0 254 248 379q-78 125 -78 274q0 152 111 250q115 100 301 100q104 0 198.5 -40t149.5 -105l-37 -232h-20q0 147 -80 232q-80 84 -204 84t-200.5 -82t-76.5 -205t75.5 -231.5t297 -305t323.5 -282.5q43 94 43 194.5t-44 189.5t-130 89h-31v20h408v-20h-31 q-43 0 -60.5 -21.5t-17.5 -41t9.5 -64.5t9.5 -119q0 -162 -76 -295q74 -63 117 -97t112.5 -69.5t128.5 -40.5v-20h-33.5h-45t-49.5 2t-58.5 7t-59 13.5t-65.5 22.5q-74 33 -129 76q-145 -141 -379 -141q-299 0 -463 124.5t-164 354.5zM211 467.5q0 -197.5 126 -312 t351 -114.5q188 0 309 139q-524 432 -655 608q-131 -123 -131 -320.5z" />
<glyph unicode="'" horiz-adv-x="348" d="M72 1034q37 174 37 255t-5 145l144 28v-43t-11.5 -107.5t-49 -164.5t-97.5 -123z" />
<glyph unicode="(" horiz-adv-x="692" d="M184 687q0 290 127 519.5t310 292.5l12 -16q-129 -61 -217 -282.5t-88 -508t91 -541.5t210 -337l-13 -19q-176 92 -303 344q-129 258 -129 548z" />
<glyph unicode=")" horiz-adv-x="692" d="M61 1483l13 16q182 -63 309 -292.5t127 -510.5q0 -299 -129 -554t-303 -347l-12 19q119 82 206 331q94 260 94.5 547t-89 508t-216.5 283z" />
<glyph unicode="*" horiz-adv-x="790" d="M74 1348l49 55l188 -88l78 -60l-33 93l-28 206l67 29l68 -29l-25 -206l-32 -93l75 60l189 90l49 -55l-6 -74l-205 -39l-98 2l79 -53l146 -152l-39 -63l-72 -17l-100 183l-27 94l-28 -94l-99 -183l-71 17l-39 61l143 154l80 53l-96 -2l-207 39z" />
<glyph unicode="+" horiz-adv-x="985" d="M82 588v92h364v367h93v-367h366v-92h-366v-365h-93v365h-364z" />
<glyph unicode="," horiz-adv-x="378" d="M92 -166q55 18 74.5 51t19.5 49q0 51 -41 97q-31 37 -34 51q-6 29 4 53q18 41 67 41q61 0 84 -56.5t23 -90.5q0 -106 -76 -166q-51 -43 -117 -45z" />
<glyph unicode="-" horiz-adv-x="778" d="M70 598l12 45h614l13 -45l-13 -47h-614z" />
<glyph unicode="." horiz-adv-x="366" d="M92 84q0 39 26.5 65.5t65.5 26.5t65.5 -26.5t26.5 -65.5t-26.5 -65.5t-65.5 -26.5t-65.5 26.5t-26.5 65.5z" />
<glyph unicode="/" horiz-adv-x="831" d="M14 10l740 1452l63 -37l-739 -1454z" />
<glyph unicode="0" horiz-adv-x="1220" d="M129 717q0 346 129 545.5t352.5 199.5t352.5 -199.5t129 -545.5t-129 -546t-352.5 -200t-352.5 200t-129 546zM272 716.5q0 -317.5 90.5 -500.5t248 -183t247.5 183t90 500.5t-90 501t-247.5 183.5t-248 -183.5t-90.5 -501z" />
<glyph unicode="1" horiz-adv-x="704" d="M123 1311v20q96 12 161.5 39t121.5 92h20v-1331q0 -47 33 -79t80 -32h43v-20h-445l2 20h43q45 0 79 33t34 78v1079q0 100 -94 101h-78z" />
<glyph unicode="2" horiz-adv-x="1132" d="M123 0v20q217 201 432 476q113 145 185.5 293.5t72.5 259.5q0 166 -78 259t-211 93q-150 0 -234.5 -80t-80.5 -223l-21 -2l-36 233q80 80 231 117q69 16 135 16q205 0 327 -108.5t122 -296.5q0 -117 -58 -238q-63 -131 -126.5 -211t-104.5 -129t-94.5 -105.5t-91 -95 t-88 -89l-74.5 -74.5h471q88 0 136 36.5t103 137.5h21l-98 -289h-840z" />
<glyph unicode="3" horiz-adv-x="1030" d="M123 -66l4 21h20q150 0 284 59.5t218 175t84 271t-114.5 240.5t-305.5 85l4 21h2q143 0 259 90q55 43 84.5 107.5t29.5 134.5q0 113 -65.5 185.5t-189.5 72.5t-190.5 -73t-66.5 -181v-21h-20l-35 191q129 145 352 145q160 0 265.5 -84t105.5 -215t-88 -233.5t-193 -112.5 q131 -23 225.5 -120t94.5 -233t-62 -241q-129 -219 -409 -280q-78 -16 -150.5 -16.5t-142.5 11.5z" />
<glyph unicode="4" horiz-adv-x="1193" d="M82 510v20l749 932h21v-839h88q53 0 72.5 8t40.5 33h20l-43 -154h-178v-381q0 -45 33 -77t80 -32h22v-20h-405l2 20h20q47 0 80 31t35 76v383h-637zM236 623h483v598z" />
<glyph unicode="5" horiz-adv-x="1019" d="M102 -63l4 20h26t80 14.5t121.5 42t130 74.5t118.5 107q131 143 131 340q0 115 -72 198q-88 102 -268 103q-106 0 -238 -39l-18 8l159 555l406 31q111 0 162 102h20l-67 -215l-482 -31l-94 -323q115 25 208 24.5t173 -28.5q264 -94 264 -377q0 -115 -37.5 -208 t-93 -153.5t-125 -109.5t-141.5 -76q-182 -63 -268 -64q-49 0 -99 5z" />
<glyph unicode="6" horiz-adv-x="1146" d="M133 541q0 223 76 436q74 205 227 350q156 150 385 176l8 -14q-143 -45 -248.5 -137t-168.5 -219q-125 -246 -125 -576q0 -240 82 -383t227 -143t215 109.5t70 260.5q0 223 -127 308q-62 43 -148 43q-147 0 -227 -107l-12 19q63 76 147 119.5t170 43.5t162 -36.5 t129 -126.5q59 -109 59 -264.5t-114 -290.5q-117 -139 -323 -139.5t-335 154.5t-129 417z" />
<glyph unicode="7" horiz-adv-x="1028" d="M72 1198l57 232h819l-221 -590q-61 -166 -150.5 -429.5t-123.5 -410.5h-144q231 582 334 848l180 473h-577q-59 0 -94 -29.5t-60 -93.5h-20z" />
<glyph unicode="8" horiz-adv-x="1130" d="M123 350q0 141 75.5 236.5t219.5 163.5q-221 160 -221 370q0 147 100 244q102 98 268 98t267.5 -92t101.5 -254q0 -123 -65.5 -216t-186.5 -136q186 -92 256 -184q70 -96 70 -222q0 -172 -121 -279.5t-323 -107.5t-321.5 107.5t-119.5 271.5zM276 344q0 -141 77 -226 t215.5 -85t212 87t73.5 210q0 74 -17.5 109.5t-30.5 56t-34.5 40t-38 33t-44 28.5t-44 24.5t-47.5 23.5q-72 37 -119 66q-203 -138 -203 -367zM350 1147q0 -201 211 -322l45 -24q174 129 174 332q0 123 -57 195.5t-157.5 72.5t-158 -75t-57.5 -179z" />
<glyph unicode="9" horiz-adv-x="1146" d="M115 1006q0 199 118 323q123 129 327 129t329 -154.5t125 -435.5q0 -209 -74 -415q-72 -207 -225 -357q-158 -152 -389 -172l-7 15q139 39 246 130t170 218q125 248 125 535.5t-80 431t-227 143.5t-216 -106.5t-69 -265.5t73 -254t210 -95t219 106l10 -18 q-59 -76 -143 -118t-168 -42q-207 0 -301 166q-53 96 -53 236z" />
<glyph unicode=":" horiz-adv-x="348" d="M92 84q0 39 26.5 65.5t65.5 26.5t65.5 -26.5t26.5 -65.5t-26.5 -65.5t-65.5 -26.5t-65.5 26.5t-26.5 65.5zM92 867q0 38 26.5 66t65.5 28t65.5 -28t26.5 -66t-26.5 -64.5t-65.5 -26.5t-65.5 26.5t-26.5 64.5z" />
<glyph unicode=";" horiz-adv-x="1228" d="M92 -166q55 18 74.5 51t19.5 49q0 51 -41 97q-31 37 -34 51q-6 29 4 53q18 41 67 41q61 0 84 -56.5t23 -90.5q0 -106 -76 -166q-51 -43 -117 -45zM92 927q0 38 26.5 64.5t65.5 26.5t65.5 -26.5t26.5 -64.5t-26.5 -65.5t-65.5 -27.5t-65.5 27.5t-26.5 65.5z" />
<glyph unicode="&#x3c;" horiz-adv-x="985" d="M82 588v92l823 391v-98l-702 -338l702 -340v-98z" />
<glyph unicode="=" horiz-adv-x="985" d="M82 387v92h823v-92h-823zM82 745v93h823v-93h-823z" />
<glyph unicode="&#x3e;" horiz-adv-x="985" d="M82 197v98l700 340l-700 338v98l823 -391v-92z" />
<glyph unicode="?" horiz-adv-x="845" d="M41 1280q47 86 126 134t177 48q186 0 292.5 -92t106.5 -256q0 -127 -81 -227q-68 -84 -136 -146q-121 -111 -145 -194q-14 -41 -14 -91t34 -98l-12 -10q-90 84 -90 197q0 92 102 211q43 49 86 102q102 125 103 256q0 182 -115 252q-55 35 -131 35q-123 0 -192.5 -83 t-69.5 -220v-13h-21zM276 84q0 39 28 65.5t66 26.5t64.5 -26.5t26.5 -65.5t-26.5 -65.5t-64.5 -26.5t-66 26.5t-28 65.5z" />
<glyph unicode="@" horiz-adv-x="2000" d="M121 491.5q0 151.5 65 317.5q133 315 424 481q225 129 496 129q426 0 633 -268q139 -182 139 -420q0 -168 -51 -316.5t-121 -255t-162 -190.5q-190 -174 -479 -213q-55 -8 -133 -8q-244 0 -535 123l-8 20q250 -92 463 -92q100 0 192 21q287 63 472.5 281t224.5 532 q6 61 6 119q0 213 -102 366q-160 238 -512 238q-231 0 -431 -115q-252 -147 -383 -442q-84 -186 -83 -348q0 -92 30 -154q41 -86 127 -86q123 0 287 219q23 29 64.5 89.5t54.5 76.5l260 354q96 117 112 158h15l84 -827q6 -47 29.5 -72t54.5 -25h10l-2 -14h-324l2 14h15 q27 0 55.5 21.5t28.5 54.5l-13 219h-335q-123 -172 -211 -250q-88 -80 -194.5 -79.5t-185.5 95.5t-79 246.5zM823 526h301l-22 398z" />
<glyph unicode="A" horiz-adv-x="1458" d="M-20 0v20h18q51 0 100 33t80 97l463 1101q76 166 76 211h18l549 -1312q29 -63 78 -96.5t102 -33.5h17v-20h-461v20h18q43 0 64.5 28t21.5 52.5t-8 49.5l-131 348h-553l-137 -351q-8 -25 -8 -48t21.5 -51t64.5 -28h18v-20h-411zM457 559h504l-246 658z" />
<glyph unicode="B" horiz-adv-x="1200" d="M123 0l2 20h25q53 0 91 37t40 90v1139q0 53 -39 90t-92 37h-25l-2 21h407q211 0 328 -93.5t117 -248.5q0 -123 -65.5 -204t-159.5 -108q162 -25 256 -133t94 -273t-126 -269.5t-351 -104.5h-500zM414 74h200h4q156 0 242 85t86 240q0 88 -29.5 155t-74.5 105 q-119 98 -357 99h-2v18h19.5t50.5 4t74 14.5t73.5 33t61.5 53.5q59 68 59 202t-76.5 209.5t-222.5 75.5h-108v-1294z" />
<glyph unicode="C" horiz-adv-x="1556" d="M123 718q0 335 203.5 539.5t539.5 204.5q274 0 486 -139l41 -289h-19q-45 176 -182 271.5t-326 95.5q-268 0 -429 -186.5t-161 -493.5t159 -494.5t419 -193.5q229 0 383 125q166 135 201 440h16l-24 -322q-186 -305 -576 -305q-324 2 -527.5 207t-203.5 540z" />
<glyph unicode="D" horiz-adv-x="1652" d="M123 0v20h27q53 0 91 38t40 92v1146q0 49 -40 83t-91 34h-25l-2 21h694q328 0 531.5 -198t203.5 -519.5t-203.5 -519t-531.5 -197.5h-694zM414 61h403q172 0 304 82t205 230.5t73 343.5q0 295 -161 475t-421 180h-403v-1311z" />
<glyph unicode="E" horiz-adv-x="1181" d="M123 0v20h27q53 0 91 38t40 92v1146q-6 49 -43 83t-88 34h-25l-2 21h600q63 0 138 12t106 24v-258h-21v37q0 49 -33.5 84t-81.5 37h-417v-633h346q41 2 69.5 31t28.5 72v28h21v-323h-21v30q0 41 -27.5 70t-68.5 31h-348v-613h293q152 0 231.5 68t132.5 201h21l-119 -332 h-850z" />
<glyph unicode="F" horiz-adv-x="1107" d="M123 0v20h27q53 0 91 38t40 92v1146q0 49 -40 83t-91 34h-25l-2 21h600q63 0 138 12t106 24v-59v-172h-21v31q0 41 -28.5 70.5t-71.5 29.5h-432v-633h346q41 2 69.5 31t28.5 70v30h21v-323h-21v30q0 41 -27.5 70t-68.5 31h-348v-526q0 -53 39 -91.5t92 -38.5h26v-20h-448 z" />
<glyph unicode="G" horiz-adv-x="1634" d="M123 717q0 334 203.5 539.5t531.5 205.5q283 0 498 -139l41 -289h-19q-45 176 -181 271.5t-339 95.5q-260 0 -421 -188.5t-161 -495.5t161 -494.5t421 -189.5q133 0 253 47t210 131v362q0 45 -27.5 69t-76.5 24h-33v20h401v-20h-31q-51 0 -78 -24q-24 -22 -24 -63v-6 v-337q-53 -70 -127 -125.5t-197.5 -97.5t-269.5 -42q-328 2 -531.5 207t-203.5 539z" />
<glyph unicode="H" horiz-adv-x="1665" d="M123 0v20h27q53 0 91 38t40 92v1136q-2 53 -40 90t-91 37h-27v21h448v-21h-26q-53 0 -91 -37t-40 -90v-547h837v547q-2 74 -65 111q-31 16 -66 16h-26v21h448v-21h-26q-53 0 -91.5 -38t-40.5 -91v-1134q2 -53 40 -91.5t92 -38.5h26v-20h-448v20h26q53 0 91 37t40 90v531 h-837v-528q0 -53 39 -91.5t92 -38.5h26v-20h-448z" />
<glyph unicode="I" horiz-adv-x="692" d="M123 0v20h27q53 0 91 38t40 92v1136q-2 53 -40 90t-91 37h-27v21h448v-21h-26q-53 0 -91 -37t-40 -90v-1136q0 -53 39 -91.5t92 -38.5h26v-20h-448z" />
<glyph unicode="J" horiz-adv-x="663" d="M41 -391q100 35 170 150.5t70 246.5v1278q-2 53 -40 91t-91 38h-27v21h448v-21h-26q-74 0 -113 -63q-16 -29 -18 -66v-1284q0 -172 -107.5 -291t-265.5 -119v19z" />
<glyph unicode="K" horiz-adv-x="1345" d="M123 0v20h27q53 0 91 38t40 92v1136q-2 53 -40 90t-91 37h-27v21h448v-21h-26q-53 0 -91 -37t-40 -90v-1136q0 -53 39 -91.5t92 -38.5h26v-20h-448zM479 713l484 606q16 20 16 36.5t-6 28.5q-16 31 -60 31h-20v19h432v-19h-8q-135 0 -221 -96l-482 -557l560 -658 q82 -82 194 -84v-20h-88q-209 0 -307 117z" />
<glyph unicode="L" horiz-adv-x="1150" d="M123 0v20h27q53 0 91 38t40 92v1134q-2 53 -40 91t-91 38h-27v21h448v-21h-26q-74 0 -113 -63q-18 -31 -18 -66v-1221h293q152 0 231.5 68t132.5 201h21l-119 -332h-850z" />
<glyph unicode="M" horiz-adv-x="1906" d="M31 0v20h32q57 0 99.5 35t50.5 95l154 1312h20l571 -1235l560 1235h18l158 -1312q10 -82 82 -115q30 -15 67 -15h33v-20h-444v18h30q36 0 60 28q21 24 21 51q0 4 -1 9l-92 1031l-430 -957q-57 -125 -70 -209h-20l-524 1137l-89 -1002q-1 -5 -1 -9q0 -27 22 -51 q24 -28 57 -28h33v-18h-397z" />
<glyph unicode="N" horiz-adv-x="1722" d="M92 0v20h39q51 0 88 36t37 89v1063q0 125 -14 224l-4 32h20l1116 -1192v1016q-2 53 -39 89t-88 36h-39v21h422v-21h-37q-51 0 -88 -36t-39 -87v-1057q0 -119 15 -225l4 -37h-19l-1116 1192v-1020q2 -72 64 -106q29 -16 61 -17h39v-20h-422z" />
<glyph unicode="O" horiz-adv-x="1716" d="M143 717q0 334 204 539.5t531.5 205.5t532.5 -205.5t205 -539.5t-205 -540t-532.5 -206t-531.5 206t-204 540zM301 717q0 -307 158.5 -495.5t420 -188.5t420 188.5t158.5 495.5q0 203 -71.5 358.5t-203.5 240.5t-304 85q-260 0 -419 -188.5t-159 -495.5z" />
<glyph unicode="P" horiz-adv-x="1181" d="M123 0v20h27q53 0 91 38t40 92v1144q-6 51 -43 85t-88 34h-25l-2 21h534q197 0 309.5 -106t112.5 -290q0 -90 -37 -168q-68 -145 -237 -202q-59 -20 -103 -21q-127 0 -219 47v21q50 -11 97 -11q95 0 180 44q113 57 153 188q12 41 12.5 78t0.5 45q-4 143 -76 228t-201 85 h-235v-1222q2 -53 40 -91.5t91 -38.5h26v-20h-448z" />
<glyph unicode="Q" horiz-adv-x="1714" d="M123 720q0 331 203.5 536.5t531.5 205.5t530.5 -205.5t202.5 -539.5q0 -285 -151.5 -479.5t-405.5 -247.5q223 -68 678 -262q217 -90 442 -90q127 0 256 30q180 47 302 160l8 -10q-16 -43 -67.5 -97.5t-145.5 -106.5t-190.5 -77.5t-170.5 -25.5q-238 0 -450 92 q-76 33 -256 125q-403 207 -604 243q-317 8 -515 213t-198 536zM276 717q0 -307 161 -495.5t422 -188.5t420 188.5t159 495.5q0 203 -72 358.5t-204 240.5t-304 85q-262 0 -422 -188.5t-160 -495.5z" />
<glyph unicode="R" horiz-adv-x="1386" d="M123 0v20h27q53 0 91 37t40 90v1137q-2 53 -40 91t-91 38h-27v21h553q186 0 292.5 -103.5t106.5 -268.5t-101.5 -285t-246.5 -120q31 -14 73 -56t74 -87q176 -252 229.5 -310.5t76 -80t49 -42t53.5 -32.5q59 -29 127 -29v-20h-113q-88 0 -163.5 31.5t-113.5 65.5 t-65.5 66t-152.5 212t-145.5 205.5t-43.5 50.5q-65 69 -129 69h-2v21q16 -2 43 -2t66 2q254 6 319 213q12 41 12.5 77t0.5 46q-4 137 -72 221t-182 90q-49 2 -123 2h-131v-1220q0 -53 37.5 -91.5t93.5 -38.5h24l2 -20h-448z" />
<glyph unicode="S" horiz-adv-x="972" d="M119 194.5q0 81.5 31 174.5h18q-2 -23 -2 -45q0 -125 75.5 -208t200.5 -83q129 0 212 77.5t83 195.5t-80 192l-393 364q-111 102 -111 246q0 146 98 250q97 104 263 104q78 0 176 -20h80v-252h-18q0 96 -67 153.5t-171 57.5t-175 -69.5t-71 -174t82 -180.5l404 -373 q102 -94 102 -258t-104.5 -269.5t-278.5 -105.5q-90 0 -191.5 28t-156.5 85q-6 29 -6 110.5z" />
<glyph unicode="T" horiz-adv-x="1265" d="M41 1214v259q31 -12 106.5 -24.5t139.5 -12.5h692q100 0 166.5 15t81.5 22v-259l-21 3v34q0 49 -34.5 85t-81.5 38h-390v-1227q2 -53 40 -90t91 -37h27v-20h-448v20h26q53 0 91 37t40 88v1229h-389q-49 -2 -83 -38t-34 -85v-34z" />
<glyph unicode="U" horiz-adv-x="1607" d="M102 1413v21h416v-21h-33q-45 0 -75.5 -27.5t-32.5 -70.5v-783q0 -223 119.5 -360t320.5 -137t326 130t125 341v809q-2 43 -33 70.5t-76 27.5h-33v21h379v-21h-32q-43 0 -75 -27.5t-34 -68.5v-811q0 -240 -151.5 -387.5t-403.5 -147.5t-408.5 146.5t-156.5 386.5v807 q0 61 -54 90q-25 12 -55 12h-33z" />
<glyph unicode="V" horiz-adv-x="1515" d="M-20 1413v21h460v-21h-18q-61 0 -82 -57q-4 -12 -4 -28.5t10 -41.5l428 -1073l447 1073q8 25 8 48.5t-21.5 51t-64.5 27.5h-19v21h412v-21h-18q-70 0 -127 -55q-33 -29 -52 -72l-493 -1104q-76 -166 -76 -211h-18l-576 1313q-29 66 -79 97.5t-101 31.5h-16z" />
<glyph unicode="W" horiz-adv-x="2011" d="M-20 1413v21h454v-21h-18q-43 0 -64.5 -27.5t-21.5 -52t6 -45.5l311 -997l381 1175l19 -2l403 -1132l274 958q6 23 6.5 46.5t-20 50t-63.5 26.5h-19v21h404v-21h-17q-76 0 -133 -55q-33 -29 -47 -72l-340 -1083q-41 -129 -45 -228h-18l-418 1172l-312 -944 q-39 -127 -43 -228h-18l-465 1313q-25 61 -76 93t-104 32h-16z" />
<glyph unicode="X" horiz-adv-x="1355" d="M-20 0v20h28q61 0 116.5 35t92.5 86l391 584l-358 567q-49 72 -125 105q-41 16 -82 16h-29v21h496v-21h-25q-43 0 -69 -41q-14 -23 -14.5 -43t10.5 -41l282 -442l279 440q12 20 12 42t-12 42q-25 43 -70 43h-24v21h460v-21h-28q-61 0 -115.5 -35t-91.5 -86l-359 -528 l398 -625q49 -70 125 -102q41 -17 82 -17h28v-20h-499v20h24q45 0 70 41q14 23 14 43.5t-10 40.5l-315 498l-316 -496q-12 -20 -12 -41.5t14 -42.5q27 -43 70 -43h26v-20h-464z" />
<glyph unicode="Y" horiz-adv-x="1353" d="M-20 1413v21h503v-21h-26q-45 0 -70 -41q-12 -23 -12 -44t10 -42l307 -573l328 575q10 20 10 41t-14 43q-25 41 -70 41h-24v21h454v-21h-28q-61 0 -115.5 -33.5t-91.5 -85.5l-404 -655v-489q0 -53 38 -91.5t93 -38.5h25v-20h-447v20h27q53 0 91 37t40 90v494l-391 653 q-31 49 -87 84t-118 35h-28z" />
<glyph unicode="Z" horiz-adv-x="1333" d="M123 0v18l860 1356h-690q-51 -2 -86 -36.5t-35 -86.5v-37h-20v259q31 -12 108.5 -24.5t109.5 -12.5h31h570q100 0 153.5 11t63.5 15v-18l-877 -1383h652q109 0 178 70t102 184h21l-68 -315h-1073z" />
<glyph unicode="[" horiz-adv-x="679" d="M246 -184v1663h346v-21l-213 -41v-1540l219 -41v-20h-352z" />
<glyph unicode="\" horiz-adv-x="831" d="M14 1425l64 37l739 -1452l-63 -39z" />
<glyph unicode="]" horiz-adv-x="679" d="M82 -164l219 41v1540l-213 41v21h346v-1663h-352v20z" />
<glyph unicode="^" horiz-adv-x="1071" d="M72 373l403 387h123l401 -387h-129l-333 315l-336 -315h-129z" />
<glyph unicode="_" horiz-adv-x="1024" d="M0 -123h1024v-61h-1024v61z" />
<glyph unicode="`" horiz-adv-x="899" d="M147 1702q29 57 84 108q130 -125 261 -268l-15 -14q-166 78 -330 174z" />
<glyph unicode="a" d="M-10 0v20h16q43 0 87 30t73 89q449 958 467 1004q35 86 37 114h18l506 -1118q60 -119 158 -119h16v-20h-420v20h17q39 0 59 27t20 50.5t-8 45.5l-112 273h-518l-113 -266q-10 -27 -10 -50.5t20.5 -51.5t61.5 -28h16v-20h-391zM432 477h467l-229 561z" />
<glyph unicode="b" horiz-adv-x="1167" d="M113 0v20h24q51 0 86 32t37 79v967q-2 68 -61 96q-27 14 -62 14h-24v21h417q306 0 396 -170q31 -58 31 -141q-1 -88 -69 -158t-157 -92q150 -16 247 -108.5t97 -202t-42 -179t-111 -106.5q-133 -72 -301 -72h-508zM389 61h229q139 0 225.5 71t86.5 212q0 305 -477 305v21 q360 0 360 252q0 245 -283 245h-2h-139v-1106z" />
<glyph unicode="c" horiz-adv-x="1443" d="M102 615q0 298 181.5 470t494.5 172q127 0 256 -32.5t223 -89.5l46 -291h-19q-88 352 -508 352q-244 0 -385 -155.5t-141 -426.5q0 -176 63.5 -306t184.5 -202q120 -72 278 -72h2q160 0 280 48.5t198.5 159t89.5 274.5h18l-23 -280q-80 -123 -231.5 -194t-331.5 -71 q-313 2 -494.5 174t-181.5 470z" />
<glyph unicode="d" horiz-adv-x="1556" d="M113 0v20h26q49 0 82 33t35 78v967q-2 49 -36 79.5t-83 30.5h-24v21h684q201 0 349 -74t228 -213.5t80 -327.5q0 -285 -177 -449.5t-480 -164.5h-684zM389 61h408q236 0 373 148.5t137 404.5t-137.5 404.5t-372.5 148.5h-408v-1106z" />
<glyph unicode="e" horiz-adv-x="1118" d="M113 0v20h28q49 0 83 32t36 77v973q0 45 -35 75.5t-84 30.5h-28v21h598q84 0 147.5 12t81.5 21v-234l-22 2v31q0 43 -29 73.5t-74 30.5h-426v-520h350q41 0 62.5 24.5t21.5 61.5v27h23v-287h-23v27q0 57 -43 77q-16 6 -35 9h-356v-521h322q94 0 158.5 33t98 78t68.5 119 h21l-113 -293h-831z" />
<glyph unicode="f" horiz-adv-x="1071" d="M113 0v20h28q49 0 84 32t37 77v973q-2 63 -59 92q-29 14 -62 14h-28v21h278h326q59 0 131 10t100 23v-234l-22 2v31q0 70 -60 96q-20 8 -43 8h-432v-520h357q41 0 61 24.5t20 61.5v27h25v-287h-25v27q0 49 -32 71q-18 12 -45 15h-361v-453q2 -55 49 -90q31 -20 72 -21h29 v-20h-428z" />
<glyph unicode="g" horiz-adv-x="1519" d="M102 615q0 296 183.5 469t473.5 173t492 -122l45 -291h-18q-43 180 -167 266t-350 86t-368.5 -156.5t-142.5 -425t143.5 -425t396 -156.5t435.5 178l2 272v5q0 34 -23 54q-26 21 -71 21h-29v21h375v-21h-29q-92 0 -92 -82v-245q-86 -106 -236.5 -185.5t-347.5 -79.5 q-305 2 -488.5 175t-183.5 469z" />
<glyph unicode="h" horiz-adv-x="1527" d="M113 0v20h24q49 0 83 33t36 78v967q-2 45 -37 77.5t-82 32.5h-24v21h417v-21h-24q-47 0 -82 -31.5t-37 -76.5v-463h756v461q0 45 -27 69q-43 41 -92 41h-25v21h418v-21h-24q-47 0 -82 -30.5t-37 -75.5v-973q2 -45 26 -68q45 -41 93 -41h24v-20h-418v20h25q47 0 82 32 t37 77v446h-756v-446q2 -45 37 -77t82 -32h24v-20h-417z" />
<glyph unicode="i" horiz-adv-x="688" d="M113 0v20h28q55 0 96.5 33t41.5 78v967q0 45 -41 77.5t-99 32.5h-26v21h462v-21h-26q-55 0 -95 -30.5t-44 -75.5v-973q2 -45 43 -77t96 -32h26l3 -20h-465z" />
<glyph unicode="j" horiz-adv-x="632" d="M27 -344q100 31 171.5 131t71.5 213v1106q-4 43 -42 72.5t-91 29.5h-24l-2 21h450v-21h-26q-76 0 -115 -55q-16 -25 -19 -55v-1098q0 -150 -111.5 -257.5t-262.5 -107.5v21z" />
<glyph unicode="k" horiz-adv-x="1277" d="M113 0v20h24q49 0 84 33t37 78v967q-2 45 -37 77.5t-84 32.5h-24v21h419v-21h-24q-66 0 -102 -53q-16 -25 -17 -55v-971q0 -45 36 -77t85 -32h22v-20h-419zM461 610l440 518q23 29 7.5 54.5t-52.5 25.5h-18v21h417v-21h-8q-125 0 -198 -73l-447 -478l508 -553 q37 -45 76 -63t102 -21v-20h-76q-201 0 -301 117z" />
<glyph unicode="l" horiz-adv-x="1097" d="M113 0v20h28q49 0 83 32t36 77v969q-2 45 -38 77.5t-85 32.5h-24v21h424v-21h-25q-49 0 -85 -32.5t-36 -77.5v-1035h320q94 0 159.5 33t99.5 78t66 119h21l-113 -293h-831z" />
<glyph unicode="m" horiz-adv-x="1798" d="M16 0v20h31q74 0 115 54q20 27 24 63l160 1120h21l540 -1040l523 1040h18l166 -1124q8 -51 47 -82t92 -31h31v-20h-426v18h31q31 0 54 24t19 56l-106 844l-387 -762q-57 -125 -72 -209h-20l-494 953l-92 -826q-4 -31 19.5 -55.5t56.5 -24.5h28v-18h-379z" />
<glyph unicode="n" horiz-adv-x="1595" d="M72 0v20h34q47 0 80 31t33 76v877q0 125 -14 223l-4 33l22 -3l1063 -1001v850q-4 43 -36.5 72.5t-78.5 29.5h-34v21h387v-21h-35q-45 0 -78 -29.5t-35 -72.5v-873q0 -119 15 -225l4 -37h-19l-1065 1010v-854q0 -45 33 -76t80 -31h35v-20h-387z" />
<glyph unicode="o" horiz-adv-x="1585" d="M102 638q0 163 93.5 310.5t251 228t347 80.5t347 -80.5t251 -228t93.5 -334t-93.5 -334t-251 -228.5t-323.5 -81t-293 47.5t-220 131t-147.5 204.5t-54.5 284zM254 614q0 -256 154.5 -418.5t384 -162.5t385 162.5t155.5 418.5t-155.5 419t-385 163t-384 -163t-154.5 -419 z" />
<glyph unicode="p" horiz-adv-x="1132" d="M113 0v20h28q49 0 83 32t36 77v971q-2 47 -36 77.5t-83 30.5h-28v21h479q215 0 341 -94.5t126 -253.5q0 -115 -53 -201q-104 -168 -324 -168q-109 0 -213 49v21q47 -12 86 -12.5t63.5 1.5t69.5 13.5t82 36.5q86 53 127 167q14 41 14 111q0 125 -86 196.5t-237 71.5h-199 v-1036q2 -66 60 -96q27 -14 59 -15h29v-20h-424z" />
<glyph unicode="q" horiz-adv-x="1591" d="M102 614q0 139 53.5 260t144.5 205t216 131t288 47t317.5 -80.5t244.5 -228t90 -334.5q0 -238 -142.5 -406.5t-369.5 -217.5q176 -51 608 -223q199 -80 400 -80q311 0 487 161l6 -8q-14 -37 -60 -84t-128 -96q-166 -94 -348 -94q-186 0 -369 78q-76 31 -225 108 q-356 186 -527 219q-293 0 -489.5 180.5t-196.5 462.5zM254 614q0 -256 150.5 -418.5t375 -162.5t376 162.5t151.5 418.5t-151.5 419t-376 163t-375 -163t-150.5 -419z" />
<glyph unicode="r" horiz-adv-x="1284" d="M113 0v20h28q47 0 81 32t34 77v973q0 45 -34 75.5t-81 30.5h-28v21h514q193 0 304 -88t111 -231.5t-90 -240t-229 -110.5q66 -29 158 -160q-2 0 70.5 -90t116.5 -140t73 -77q76 -72 174 -72v-20h-64q-162 0 -254 63q-70 47 -127 117q-12 16 -103 144.5t-97 136.5 q-111 137 -207 137v20q240 0 289 25q68 35 92 74q51 82 51 180q0 125 -73.5 192.5t-198.5 73.5q-55 2 -127 2h-109v-1034q2 -63 57 -96q27 -14 60 -15h26l2 -20h-419z" />
<glyph unicode="s" horiz-adv-x="946" d="M113 168.5q0 75.5 26 153.5h25q-2 -18 -2 -37q0 -111 72.5 -181.5t201.5 -70.5q135 0 211 62.5t76 161.5t-74 165l-409 315q-98 84 -99 226q0 80 44 147.5t123 107t185.5 39.5t188.5 -18h68l4 -223h-23q0 86 -59.5 133t-170 47t-182 -56.5t-71.5 -145.5t80 -154l413 -320 q95 -78 95 -218q0 -138 -106 -234t-257 -97q-100 0 -200.5 25t-153.5 72q-6 25 -6 100.5z" />
<glyph unicode="t" horiz-adv-x="1183" d="M31 1032v232q41 -16 115.5 -24.5t111.5 -8.5h668q147 0 229 33v-232h-22v33q0 43 -29 73.5t-74 30.5h-371v-1040q2 -63 62 -94q27 -14 59 -15h23v-20h-422v20h25q49 0 83.5 33t36.5 78v1038h-370q-47 0 -75 -30.5t-28 -73.5v-33h-22z" />
<glyph unicode="u" horiz-adv-x="1433" d="M82 1208v21h389v-21h-31q-41 0 -69.5 -25.5t-28.5 -62.5v-665q0 -199 101.5 -313.5t286.5 -114.5t297 108.5t112 296.5v688q-2 39 -30 63.5t-69 24.5h-30v21h352v-21h-31q-55 0 -84 -43q-12 -18 -14 -43v-690q0 -213 -136 -337t-374 -124t-375 123t-137 336v690 q0 37 -28.5 62.5t-69.5 25.5h-31z" />
<glyph unicode="v" d="M-10 1208v21h420v-21h-17q-39 0 -58.5 -27.5t-19.5 -50t7 -47.5l366 -893l377 889q10 27 10 50.5t-20.5 51t-61.5 27.5h-14v21h389v-21h-16q-45 0 -88 -29.5t-74 -88.5q-446 -958 -465 -1004q-35 -86 -37 -115h-18l-506 1116q-59 121 -158 121h-16z" />
<glyph unicode="w" horiz-adv-x="1841" d="M-16 1208v21h422v-21h-17q-37 0 -56.5 -22.5t-19.5 -45t6 -42.5l273 -834l346 998l20 -2l367 -934l229 759q10 29 10.5 51.5t-16 47t-55.5 24.5h-16v21h374v-21h-14q-123 0 -168 -121l-297 -884q-45 -129 -47 -228h-20l-381 975l-267 -747q-41 -127 -45 -228h-18 l-430 1121q-47 112 -162 112h-2h-16z" />
<glyph unicode="x" horiz-adv-x="1282" d="M-23 0v20h27q111 0 195 101l381 487l-347 498q-31 43 -85 72.5t-111 29.5h-27v21h482v-21h-25q-41 0 -60.5 -27.5t-19.5 -45t12 -35.5l260 -373l248 373q12 16 12.5 34.5t-19 46t-60.5 27.5h-25v21h455v-21h-29q-57 0 -109.5 -29.5t-87.5 -74.5l-329 -459l366 -524 q45 -59 101.5 -80t95.5 -21h27v-20h-486v20h25q41 0 60.5 28t19.5 45.5t-11 35.5l-282 406l-299 -404q-14 -18 -14.5 -36.5t19 -46.5t62.5 -28h25v-20h-447z" />
<glyph unicode="y" horiz-adv-x="1310" d="M-10 1208v21h475v-21h-25q-39 0 -56 -24.5t-17 -42t4 -31.5l299 -530l317 528q6 16 6 33.5t-17.5 42t-57.5 24.5h-25v21h428v-21h-25q-55 0 -105 -29.5t-83 -74.5l-393 -596v-377q0 -45 34.5 -78t84.5 -33h24v-20h-420v20h25q49 0 84 33t35 78v379l-379 596 q-70 102 -189 102h-24z" />
<glyph unicode="z" horiz-adv-x="1245" d="M102 0v18l764 1151h-610q-61 -2 -88 -53q-12 -24 -12 -51v-33h-23v232q27 -12 97.5 -21.5t131.5 -11.5h472q63 0 136.5 8t94.5 18v-18l-778 -1178h561q94 2 159.5 34t99.5 77t67 121h20l-111 -293h-981z" />
<glyph unicode="{" horiz-adv-x="690" d="M174 643v21q92 2 109 32q4 25 4 46.5t-4 54.5q-29 195 -29 256q0 203 88 325.5t264 122.5l4 -16q-139 -37 -182 -150q-41 -102 -41 -288l4 -179q0 -92 -12 -127q-29 -76 -90 -94q90 -20 100 -153q4 -35 4 -64l-6 -182q0 -184 32 -265t77 -117t114 -54l-4 -17 q-176 0 -264 123t-88 326q0 51 10 137q18 145 18.5 166.5t-6.5 50.5q-16 37 -102 45z" />
<glyph unicode="|" horiz-adv-x="501" d="M205 -369v1803h92v-1803h-92z" />
<glyph unicode="}" horiz-adv-x="690" d="M82 -188q137 35 182 147q39 104 39 289l-4 182q0 90 12 127q29 76 92 90q-88 27 -100 154q-4 38 -4 67l4 179q0 186 -30.5 267t-75.5 116.5t-115 54.5l4 16q119 0 199 -61q152 -113 151 -387q0 -78 -14 -164q-29 -168 -12 -193q14 -31 108 -32v-21q-88 -8 -104 -45 q-4 -29 -4 -50.5t13 -137t13 -166.5q0 -203 -87 -326t-263 -123z" />
<glyph unicode="~" horiz-adv-x="1009" d="M76 518q0 86 45 139q63 76 170 76q90 0 221 -100q137 -102 202.5 -102.5t106.5 51.5q27 31 27 67.5t-12 73.5h92q10 -45 10 -82q0 -80 -47 -131q-68 -72 -182 -72q-74 0 -177 70q-43 29 -83 59q-106 74 -166 74t-87.5 -39t-27.5 -80t6 -73h-92q-6 37 -6 69z" />
<glyph unicode="&#xa1;" horiz-adv-x="471" d="M143 1353q0 38 27 65.5t65.5 27.5t65.5 -27.5t27 -65.5t-27 -64.5t-65.5 -26.5t-65.5 26.5t-27 64.5zM160 0l24 612l43 471h21l41 -471l24 -612h-153z" />
<glyph unicode="&#xa2;" horiz-adv-x="1232" d="M102 721q0 248 158 395.5t428 147.5l14 172l62 -2l-12 -174q184 -18 315 -103l37 -250h-14q-63 264 -345 293l-79 -985q205 0 331.5 100.5t139.5 307.5h16l-16 -242q-68 -109 -191 -168t-287 -59l-14 -172l-59 6l14 170q-229 22 -363.5 168.5t-134.5 394.5zM256 709 q0 -281 160 -410q78 -61 188 -78l80 981q-205 0 -316.5 -128.5t-111.5 -364.5z" />
<glyph unicode="&#xa3;" horiz-adv-x="1181" d="M102 674l25 74h199q-2 45 -2 86q0 590 413 628q18 2 63.5 2t114 -30.5t113.5 -87.5l-55 -187h-21q4 27 4 53q0 90 -52 140.5t-138 50.5q-90 0 -147.5 -38t-88.5 -93q-63 -121 -63 -389q0 -63 2 -135h377l-27 -74h-350q-2 -260 -72 -385q-37 -66 -63.5 -98.5t-77.5 -79.5 q63 20 136 14t102 -10q143 -21 196 -21q295 0 412 232h20l-94 -277q-154 -70 -319 -69q-109 0 -301 55q-70 20 -141.5 20t-127.5 -55h-20v20q86 70 146.5 242t62.5 412h-226z" />
<glyph unicode="&#xa4;" horiz-adv-x="1107" d="M102 315l121 119q-109 123 -108.5 288t110.5 288l-123 123l43 43l123 -123q123 104 285 104t285 -106l125 125l45 -43l-127 -125q106 -123 106 -286t-104 -284l125 -123l-45 -45l-123 125q-123 -111 -287 -110.5t-287 106.5l-121 -121zM176 721q0 -156 110.5 -265.5 t265.5 -109.5t264.5 109.5t109.5 265.5t-109.5 265.5t-264.5 109.5t-265.5 -109.5t-110.5 -265.5z" />
<glyph unicode="&#xa5;" horiz-adv-x="1353" d="M-20 1413v21h503v-21h-26q-45 0 -70 -41q-12 -23 -12 -44t10 -42l307 -573l328 575q10 20 10 41t-14 43q-25 41 -70 41h-24v21h454v-21h-28q-61 0 -115.5 -33.5t-91.5 -85.5l-275 -444h260v-62h-297l-92 -149v-35h389v-61h-389v-396q0 -53 39 -90t92 -37h25v-20h-447v20 h27q53 0 91 38t40 92v393h-389v61h389v37l-88 147h-301v62h264l-266 444q-31 49 -87 84t-118 35h-28z" />
<glyph unicode="&#xa6;" horiz-adv-x="501" d="M205 348h92v-717h-92v717zM205 717v717h92v-717h-92z" />
<glyph unicode="&#xa7;" horiz-adv-x="1046" d="M133 887q0 150 88 305q63 106 158 174q127 90 257 90t191 -70q35 -37 35 -65q0 -43 -26.5 -63.5t-58.5 -4t-66 44.5q-90 82 -176 82q-45 0 -111 -46t-66 -111q0 -139 330 -471q227 -229 227 -506q0 -166 -92 -316q-78 -129 -202 -196q-92 -49 -206 -49t-177 67 q-35 37 -35 66q0 47 33 71q10 8 25 8.5t50 -21t78 -60.5q63 -53 124.5 -53.5t115.5 36.5q72 49 71 127q0 156 -333 477q-137 131 -185.5 259.5t-48.5 224.5zM213 940q0 -209 246 -432q311 -283 311 -477q0 -31 -10 -62q74 115 74 232q0 217 -242 448q-246 238 -293 387 q-16 53 -16 94t2 64q-72 -135 -72 -254z" />
<glyph unicode="&#xa8;" horiz-adv-x="1228" d="M301 1513.5q0 32.5 23.5 56t56.5 23.5t56.5 -23.5t23.5 -56t-23.5 -56t-56.5 -23.5t-56.5 23.5t-23.5 56zM688 1513.5q0 32.5 22.5 56t56.5 23.5t57.5 -23.5t23.5 -56t-23.5 -56t-57.5 -23.5t-56.5 23.5t-22.5 56z" />
<glyph unicode="&#xa9;" horiz-adv-x="1736" d="M123 717q0 309 218 527t527.5 218t527.5 -218t218 -527t-218 -527.5t-527.5 -218.5t-527.5 218.5t-218 527.5zM199 717q0 -182 89 -337t243.5 -244t337 -89t337 89t243.5 244t89 337t-89 336.5t-243.5 243.5t-337 89t-337 -89t-243.5 -243.5t-89 -336.5zM412 717.5 q0 195.5 134 326t327.5 130.5t330.5 -89l29 -204h-12q-27 111 -118 175t-228.5 64t-232.5 -115.5t-95 -286.5t95 -286t220 -117t206 31t133 108.5t61 192.5h12l-14 -198q-53 -88 -154.5 -138.5t-224.5 -50.5q-201 0 -335 131t-134 326.5z" />
<glyph unicode="&#xaa;" horiz-adv-x="753" d="M0 774v10h8q55 0 90 72l230 485q41 90 43 121h10l276 -602q37 -76 88 -76h9v-10h-252v10h10q31 0 43 35q4 16 -4 41l-53 135h-252l-60 -137q-12 -33 2.5 -53.5t36.5 -20.5h8v-10h-233zM266 1044h213l-102 263z" />
<glyph unicode="&#xab;" horiz-adv-x="927" d="M82 598l358 406l17 -11l-242 -395l244 -403l-19 -11zM430 598l358 406l17 -11l-242 -395l244 -403l-19 -11z" />
<glyph unicode="&#xac;" horiz-adv-x="1230" d="M82 721v92h1069v-414h-92v322h-977z" />
<glyph unicode="&#xad;" horiz-adv-x="778" d="M70 598l12 45h614l13 -45l-13 -47h-614z" />
<glyph unicode="&#xae;" horiz-adv-x="501" d="M20 1204q0 96 68 164t164 68t163.5 -68t67.5 -164t-67.5 -163.5t-163.5 -67.5t-164 67.5t-68 163.5zM61 1204q0 -78 55.5 -134t134.5 -56t135 56t56 134t-56 134.5t-135 56.5t-134.5 -56.5t-55.5 -134.5zM139 1090v4h4q20 0 23 20v195q-2 23 -23 22h-4v4h76h43 q39 0 62.5 -18.5t23.5 -46t-16.5 -47t-42.5 -23.5q16 -2 35.5 -32.5t33 -49t31.5 -24.5v-4h-25q-41 0 -57 16t-22.5 24.5t-16.5 26.5q-27 51 -35 51v4h21q41 8 40 55.5t-50 47.5l-25 2v-201q0 -23 21 -22h6v-4h-103z" />
<glyph unicode="&#xaf;" horiz-adv-x="1228" d="M348 1440v71h512v-71h-512z" />
<glyph unicode="&#xb0;" horiz-adv-x="526" d="M61 1159q0 84 59.5 142.5t142.5 58.5t142.5 -58.5t59.5 -142.5t-59.5 -143.5t-142.5 -59.5t-142.5 59.5t-59.5 143.5zM141 1159q0 -51 36 -86t86 -35t86 35t36 86t-36 86t-86 35t-86 -35t-36 -86z" />
<glyph unicode="&#xb1;" horiz-adv-x="985" d="M82 123v92h823v-92h-823zM82 731v92h364v367h93v-367h366v-92h-366v-364h-93v364h-364z" />
<glyph unicode="&#xb2;" horiz-adv-x="768" d="M61 631v14q25 23 105 91.5t125 112.5t102 107q113 129 113 238t-52.5 163t-134.5 54q-88 0 -145 -52t-55 -140h-15l-22 153q39 41 103.5 65.5t139 24.5t143.5 -30.5t109.5 -88t40.5 -126t-26.5 -131t-58 -107.5t-91.5 -98q-74 -66 -138 -113t-73 -51h283q70 0 107 37 q25 27 53 77h12l-63 -200h-562z" />
<glyph unicode="&#xb3;" horiz-adv-x="634" d="M61 586l2 14h19q158 0 262.5 76t104.5 219q0 176 -267 176l2 12q102 0 170 51.5t68 126t-41 111.5t-113 37q-150 0 -149 -143v-11h-15l-22 127q63 76 184 76t191.5 -51t70.5 -124t-54 -126t-122 -67q82 -10 143.5 -62.5t61.5 -128.5q0 -180 -143 -266q-96 -59 -224 -60 q-61 0 -129 13z" />
<glyph unicode="&#xb4;" horiz-adv-x="899" d="M412 1542q156 168 260 268q53 -55 84 -108q-133 -76 -330 -174z" />
<glyph unicode="&#xb6;" horiz-adv-x="1064" d="M102 1057q0 170 116 273.5t286 103.5h332h14h18t17.5 1t21.5 4t21.5 6t25 10t23.5 15q25 16 53 52l14 -13q-59 -133 -215 -137h-26v-1071q0 -121 -19.5 -188.5t-78.5 -139.5l-19 17q51 86 53 184q2 31 2 123v1075h-170v-1372q0 -190 -41 -272q-45 -88 -135 -136l-14 19 q84 86 104.5 154.5t20.5 138t-2 96.5v682q-174 0 -288 102.5t-114 272.5z" />
<glyph unicode="&#xb7;" horiz-adv-x="348" d="M82 717q0 39 26.5 65.5t65.5 26.5t65.5 -26.5t26.5 -65.5t-26.5 -65.5t-65.5 -26.5t-65.5 26.5t-26.5 65.5z" />
<glyph unicode="&#xb8;" horiz-adv-x="1228" d="M504 -367l2 21q74 0 129 30.5t55 94.5q0 90 -104 90q-35 0 -68 -16l-10 20l98 129h56l-84 -100q63 23 114 8q100 -27 100.5 -125t-90.5 -141q-53 -25 -103 -25t-95 14z" />
<glyph unicode="&#xb9;" horiz-adv-x="432" d="M82 1362v12q66 10 111 27.5t81 60.5h13v-745q0 -29 22.5 -50.5t52.5 -21.5h29v-14h-299v14h29q31 0 53.5 21.5t22.5 52.5v575q0 68 -64 68h-51z" />
<glyph unicode="&#xba;" horiz-adv-x="843" d="M61 1110q0 147 105.5 249.5t255 102.5t256 -102.5t106.5 -249.5t-106.5 -249.5t-256 -102.5t-255 102.5t-105.5 249.5zM174 1110q0 -133 70.5 -221t178 -88t178.5 88t71 221t-71 221t-178.5 88t-178 -88t-70.5 -221z" />
<glyph unicode="&#xbb;" horiz-adv-x="927" d="M123 195l244 403l-242 395l16 11l359 -406l-359 -414zM471 195l244 403l-242 395l16 11l359 -406l-359 -414z" />
<glyph unicode="&#xbc;" horiz-adv-x="1460" d="M123 1362v12q66 10 111 27.5t81 60.5h15v-745q0 -29 21.5 -50.5t51.5 -21.5h29v-14h-299v14h29q31 0 53.5 21.5t22.5 52.5v575q0 68 -64 68h-51zM205 4l979 1458l49 -35l-977 -1456zM801 266v13l450 550h13v-495h59q35 0 48 6t28 22h12l-29 -96h-118v-182 q2 -29 23.5 -50.5t51.5 -21.5h15v-14h-271v14h15q31 0 52 19.5t24 50.5v184h-373zM911 334h263v328z" />
<glyph unicode="&#xbd;" horiz-adv-x="1648" d="M123 1362v12q43 6 72 15q74 18 120 73h13v-745q0 -29 22.5 -50.5t52.5 -21.5h29v-14h-299v14h29q31 0 53.5 21.5t22.5 52.5v575q0 68 -64 68h-51zM203 4l979 1458l49 -35l-977 -1456zM942 0v14q27 25 87.5 77t100 88t93 91.5t86.5 100.5q78 111 77.5 206t-52.5 149 t-134 54q-88 0 -145.5 -52t-55.5 -140h-14l-24 153q41 41 105.5 65.5t127.5 24.5q129 0 217 -69.5t88 -179.5q0 -207 -268 -410q-35 -27 -73 -54.5t-46 -31.5h283q57 0 89 23.5t70 91.5h13l-64 -201h-561z" />
<glyph unicode="&#xbe;" horiz-adv-x="1460" d="M61 586l2 14h49.5t107 17.5t118.5 52.5q111 78 111 225q0 176 -267 176l2 12q102 0 170 51.5t68 126t-41 111.5t-113 37q-150 0 -149 -143v-11h-15l-22 127q63 76 184 76t191.5 -51t70.5 -124t-54 -126t-122 -67q115 -14 174 -99q31 -41 31 -92q0 -180 -143 -266 q-96 -59 -224 -60q-61 0 -129 13zM293 4l979 1458l49 -35l-977 -1456zM811 266v13l451 550h12v-495h59q35 0 48.5 6t25.5 22h14l-28 -96h-119v-182q0 -29 22.5 -50.5t53.5 -21.5h14v-14h-270v14h14q31 0 52.5 19.5t23.5 50.5v184h-373zM922 334h262v328z" />
<glyph unicode="&#xbf;" horiz-adv-x="886" d="M102 319q0 127 82 228q70 84 135 145q121 111 146 195q16 41 16 91t-37 97l13 10q92 -84 92 -196q0 -92 -105 -211q-43 -49 -86 -103q-102 -125 -102 -258t65.5 -208.5t185.5 -75.5t188.5 83t68.5 220v12h20l21 -194q-98 -182 -316 -183q-111 0 -200 41q-186 86 -187 307 zM385 1350q0 39 26.5 65.5t65.5 26.5t65.5 -26.5t26.5 -65.5t-26.5 -66t-65.5 -27t-65.5 27t-26.5 66z" />
<glyph unicode="&#xc0;" horiz-adv-x="1458" d="M-20 0v20h18q51 0 100 33t80 97l463 1101q76 166 76 211h18l549 -1312q39 -86 115 -117q30 -13 65 -13h17v-20h-461v20h18q43 0 64.5 28t21.5 52.5t-8 49.5l-131 348h-553l-137 -351q-29 -86 41 -118q18 -8 37 -9h18v-20h-411zM401 1739q29 57 84 108q129 -125 260 -268 l-14 -14q-166 78 -330 174zM457 559h504l-246 658z" />
<glyph unicode="&#xc1;" horiz-adv-x="1458" d="M-20 0v20h18q51 0 100 33t80 97l463 1101q76 166 76 211h18l549 -1312q29 -63 78 -96.5t102 -33.5h17v-20h-461v20h18q43 0 64.5 28t21.5 52.5t-8 49.5l-131 348h-553l-137 -351q-8 -25 -8 -48t21.5 -51t64.5 -28h18v-20h-411zM457 559h504l-246 658zM717 1579 q156 168 260 268q53 -55 82 -108q-131 -76 -328 -174z" />
<glyph unicode="&#xc2;" horiz-adv-x="1458" d="M-20 0v20h18q51 0 100 33t80 97l463 1101q76 166 76 211h18l549 -1312q29 -63 78 -96.5t102 -33.5h17v-20h-461v20h18q43 0 64.5 28t21.5 52.5t-8 49.5l-131 348h-553l-137 -351q-8 -25 -8 -48t21.5 -51t64.5 -28h18v-20h-411zM457 559h504l-246 658zM502 1579l217 244 h20l236 -244l-12 -16l-234 135l-215 -135z" />
<glyph unicode="&#xc3;" horiz-adv-x="1458" d="M-20 0v20h18q51 0 100 33t80 97l463 1101q76 166 76 211h18l549 -1312q29 -63 78 -96.5t102 -33.5h17v-20h-461v20h18q43 0 64.5 28t21.5 52.5t-8 49.5l-131 348h-553l-137 -351q-8 -25 -8 -48t21.5 -51t64.5 -28h18v-20h-411zM457 559h504l-246 658zM496 1571 q12 80 47 127t84 47t131.5 -44t115.5 -44q84 0 113 69h21q-10 -102 -70 -143q-29 -18 -70 -18t-126 45t-115 45q-76 0 -111 -84h-20z" />
<glyph unicode="&#xc4;" horiz-adv-x="1458" d="M-20 0v20h18q51 0 100 33t80 97l463 1101q76 166 76 211h18l549 -1312q29 -63 78 -96.5t102 -33.5h17v-20h-461v20h18q43 0 64.5 28t21.5 52.5t-8 49.5l-131 348h-553l-137 -351q-8 -25 -8 -48t21.5 -51t64.5 -28h18v-20h-411zM457 559h504l-246 658zM457 1644.5 q0 32.5 23.5 56t57 23.5t57 -23.5t23.5 -56t-23.5 -56t-57 -23.5t-57 23.5t-23.5 56zM844 1644.5q0 32.5 23.5 56t56 23.5t56.5 -23.5t24 -56t-24 -56t-56.5 -23.5t-56 23.5t-23.5 56z" />
<glyph unicode="&#xc5;" horiz-adv-x="1458" d="M-20 0v20h18q51 0 100 33t80 97l463 1101q57 123 72 187q-68 4 -113 42t-45 97t49 98t125 39t125 -37t49 -97t-44 -99t-111 -43l536 -1288q29 -63 78 -96.5t102 -33.5h17v-20h-461v20h18q43 0 64.5 28t21.5 52.5t-8 49.5l-131 348h-553l-137 -351q-29 -86 41 -118 q18 -8 37 -9h18v-20h-411zM457 559h504l-246 658zM637 1576q0 -50 25.5 -79t65.5 -29t65.5 29t25.5 79t-25.5 78.5t-65.5 28.5t-65.5 -28.5t-25.5 -78.5z" />
<glyph unicode="&#xc6;" horiz-adv-x="1847" d="M-20 0v20h14q49 0 103.5 38t84.5 87l766 1196q12 27 -1 49.5t-42 22.5h-8v21h498q63 0 139 12t104 24v-231h-20v31q0 41 -28.5 70.5t-69.5 29.5h-433v-653h347q41 2 69.5 30.5t28.5 71.5v29h20v-324h-20v31q0 41 -28.5 69.5t-67.5 30.5h-349v-592h336q221 2 314 222h20 l-115 -285h-811l3 20h18q41 0 70.5 29t31.5 70v536h-336l-307 -518q-14 -27 -14 -46t6 -36q16 -35 57 -35h7h20v-20h-407zM653 717h301v508z" />
<glyph unicode="&#xc7;" horiz-adv-x="1556" d="M123 721q0 332 203.5 536.5t539.5 204.5q274 0 486 -139l41 -289h-19q-45 176 -182 271.5t-326 95.5q-268 0 -429 -186.5t-161 -493.5t159 -494.5t419 -193.5q229 0 383 125q166 135 201 440h16l-24 -322q-178 -293 -545 -305l-78 -88q63 23 115 8q100 -27 100 -125 t-90 -141q-51 -25 -101.5 -24.5t-97.5 14.5l2 20q74 0 129.5 31t55.5 94q0 90 -105 90q-33 0 -67 -16l-11 21l90 116q-313 10 -508.5 214t-195.5 536z" />
<glyph unicode="&#xc8;" horiz-adv-x="1181" d="M123 0v20h27q53 0 91 38t40 92v1146q-6 49 -43 83t-88 34h-25l-2 21h600q88 0 156.5 14t87.5 22v-258h-21v37q0 49 -33.5 84t-81.5 37h-417v-633h346q41 2 69.5 31t28.5 72v28h21v-323h-21v30q0 41 -27.5 70t-68.5 31h-348v-613h293q152 0 231.5 68t132.5 201h21 l-119 -332h-850zM281 1739q31 57 84 108q131 -125 260 -268l-15 -14q-164 78 -329 174z" />
<glyph unicode="&#xc9;" horiz-adv-x="1181" d="M123 0v20h27q53 0 91 38t40 92v1146q-6 49 -43 83t-88 34h-25l-2 21h600q88 0 156.5 14t87.5 22v-258h-21v37q0 49 -33.5 84t-81.5 37h-417v-633h346q41 2 69.5 31t28.5 72v28h21v-323h-21v30q0 41 -27.5 70t-68.5 31h-348v-613h293q152 0 231.5 68t132.5 201h21 l-119 -332h-850zM596 1579q156 168 260 268q55 -55 84 -108q-131 -76 -330 -174z" />
<glyph unicode="&#xca;" horiz-adv-x="1181" d="M123 0v20h27q53 0 91 38t40 92v1146q-8 68 -68 103q-29 14 -63 14h-25l-2 21h600q88 0 156.5 14t87.5 22v-258h-21v37q0 49 -33.5 84t-81.5 37h-417v-633h346q41 2 69.5 31t28.5 72v28h21v-323h-21v30q0 41 -27.5 70t-68.5 31h-348v-613h293q152 0 231.5 68t132.5 201h21 l-119 -332h-850zM383 1579l217 244h21l233 -244l-12 -16l-232 135l-215 -135z" />
<glyph unicode="&#xcb;" horiz-adv-x="1181" d="M123 0v20h27q53 0 91 38t40 92v1146q-8 68 -68 103q-31 14 -63 14h-25l-2 21h600q88 0 156.5 14t87.5 22v-258h-21v37q0 49 -33.5 84t-81.5 37h-417v-633h346q41 2 69.5 31t28.5 72v28h21v-323h-21v30q0 63 -59 93q-16 8 -37 8h-348v-613h293q152 0 231.5 68t132.5 201 h21l-119 -332h-850zM338 1644.5q0 32.5 23.5 56t56.5 23.5t56.5 -23.5t23.5 -56t-23.5 -56t-56.5 -23.5t-56.5 23.5t-23.5 56zM723 1644.5q0 32.5 23.5 56t57.5 23.5t57.5 -23.5t23.5 -56t-23.5 -56t-57.5 -23.5t-57.5 23.5t-23.5 56z" />
<glyph unicode="&#xcc;" horiz-adv-x="692" d="M16 1739q31 57 84 108q131 -125 260 -268l-14 -14q-164 78 -330 174zM123 0v20h27q53 0 91 38t40 92v1136q-2 53 -40 90t-91 37h-27v21h448v-21h-26q-53 0 -91 -37t-40 -90v-1136q0 -53 39 -91.5t92 -38.5h26v-20h-448z" />
<glyph unicode="&#xcd;" horiz-adv-x="692" d="M123 0v20h27q53 0 91 38t40 92v1136q-2 53 -40 90t-91 37h-27v21h448v-21h-26q-53 0 -91 -37t-40 -90v-1136q0 -53 39 -91.5t92 -38.5h26v-20h-448zM332 1579q156 168 260 268q55 -55 84 -108q-131 -76 -330 -174z" />
<glyph unicode="&#xce;" horiz-adv-x="692" d="M119 1579l217 244h20l234 -244l-12 -16l-232 135l-215 -135zM123 0v20h27q53 0 91 38t40 92v1136q-2 53 -40 90t-91 37h-27v21h448v-21h-26q-53 0 -91 -37t-40 -90v-1136q0 -53 39 -91.5t92 -38.5h26v-20h-448z" />
<glyph unicode="&#xcf;" horiz-adv-x="692" d="M74 1644.5q0 32.5 23.5 56t56 23.5t56 -23.5t23.5 -56t-23.5 -56t-56 -23.5t-56 23.5t-23.5 56zM123 0v20h27q53 0 91 38t40 92v1136q-2 53 -40 90t-91 37h-27v21h448v-21h-26q-53 0 -91 -37t-40 -90v-1136q0 -53 39 -91.5t92 -38.5h26v-20h-448zM459 1644.5 q0 32.5 23.5 56t57 23.5t57.5 -23.5t24 -56t-24 -56t-57.5 -23.5t-57 23.5t-23.5 56z" />
<glyph unicode="&#xd0;" horiz-adv-x="1652" d="M123 686v62h168v548q0 49 -40 83t-91 34h-27v21h692q328 0 527.5 -198t199.5 -520.5t-199.5 -519t-527.5 -196.5h-692v20h27q53 0 91 38t40 92v536h-168zM424 61h401q262 0 423 180.5t161 475.5t-161 475t-423 180h-401v-624h334v-62h-334v-625z" />
<glyph unicode="&#xd1;" horiz-adv-x="1722" d="M92 0v20h39q51 0 88 36t37 89v1063q0 125 -14 224l-4 32h20l1116 -1192v1016q-2 53 -39 89t-88 36h-39v21h422v-21h-37q-51 0 -88 -36t-39 -87v-1057q0 -119 15 -225l4 -37h-19l-1116 1192v-1020q2 -72 64 -106q29 -16 61 -17h39v-20h-422zM637 1571q12 80 47 127t85 47 t132 -44t115 -44q86 0 114 69h21q-12 -102 -72 -143q-29 -18 -69.5 -18t-125.5 45t-114 45q-78 0 -113 -84h-20z" />
<glyph unicode="&#xd2;" horiz-adv-x="1716" d="M123 717q0 334 203.5 539.5t531.5 205.5t532.5 -205.5t204.5 -539.5t-204.5 -540t-532.5 -206t-531.5 206t-203.5 540zM281 717q0 -307 158.5 -495.5t419.5 -188.5t420 188.5t159 495.5q0 203 -72 358.5t-204 240.5t-304 85q-260 0 -418.5 -188.5t-158.5 -495.5z M528 1739q31 57 84 108q131 -125 260 -268l-14 -14q-164 78 -330 174z" />
<glyph unicode="&#xd3;" horiz-adv-x="1716" d="M143 717q0 334 204 539.5t531.5 205.5t532.5 -205.5t205 -539.5t-205 -540t-532.5 -206t-531.5 206t-204 540zM301 717q0 -307 158.5 -495.5t420 -188.5t420 188.5t158.5 495.5q0 203 -71.5 358.5t-203.5 240.5t-304 85q-260 0 -419 -188.5t-159 -495.5zM864 1579 q156 168 260 268q55 -55 84 -108q-132 -76 -329 -174z" />
<glyph unicode="&#xd4;" horiz-adv-x="1716" d="M143 717q0 334 204 539.5t531.5 205.5t532.5 -205.5t205 -539.5t-205 -540t-532.5 -206t-531.5 206t-204 540zM301 717q0 -307 158.5 -495.5t420 -188.5t420 188.5t158.5 495.5q0 203 -71.5 358.5t-203.5 240.5t-304 85q-260 0 -419 -188.5t-159 -495.5zM651 1579 l217 244h21l233 -244l-12 -16l-233 135l-213 -135z" />
<glyph unicode="&#xd5;" horiz-adv-x="1716" d="M143 717q0 334 204 539.5t531.5 205.5t532.5 -205.5t205 -539.5t-205 -540t-532.5 -206t-531.5 206t-204 540zM301 717q0 -307 158.5 -495.5t420 -188.5t420 188.5t158.5 495.5q0 203 -71.5 358.5t-203.5 240.5t-304 85q-260 0 -419 -188.5t-159 -495.5zM645 1571 q10 80 46 127t85 47t131 -44t115 -44q86 0 115 69h20q-12 -102 -72 -143q-27 -18 -68.5 -18t-125.5 45t-115 45q-78 0 -110 -84h-21z" />
<glyph unicode="&#xd6;" horiz-adv-x="1716" d="M143 717q0 334 204 539.5t531.5 205.5t532.5 -205.5t205 -539.5t-205 -540t-532.5 -206t-531.5 206t-204 540zM301 717q0 -307 158.5 -495.5t420 -188.5t420 188.5t158.5 495.5q0 203 -71.5 358.5t-203.5 240.5t-304 85q-260 0 -419 -188.5t-159 -495.5zM606 1644.5 q0 32.5 23.5 56t56.5 23.5t56.5 -23.5t23.5 -56t-23.5 -56t-56.5 -23.5t-56.5 23.5t-23.5 56zM991 1644.5q0 32.5 23.5 56t56.5 23.5t56.5 -23.5t23.5 -56t-23.5 -56t-56.5 -23.5t-56.5 23.5t-23.5 56z" />
<glyph unicode="&#xd7;" horiz-adv-x="849" d="M102 377l258 258l-258 258l66 65l258 -258l258 258l66 -65l-258 -258l258 -258l-66 -66l-258 258l-258 -258z" />
<glyph unicode="&#xd8;" horiz-adv-x="1695" d="M123 717q0 166 52 305t146.5 235.5t230.5 150.5t296 54q266 0 452 -139l132 156l53 -45l-131 -156q221 -207 221 -561q0 -221 -90 -391t-255 -262.5t-382 -92.5q-270 0 -459 146l-137 -164l-51 45l135 164q-213 207 -213 555zM270 728q0 -296 138 -480l831 997 q-156 156 -403.5 156t-406.5 -188.5t-159 -484.5zM453 195q156 -162 406.5 -162t409 188.5t158.5 487.5t-143 485z" />
<glyph unicode="&#xd9;" horiz-adv-x="1607" d="M102 1413v21h416v-21h-33q-45 0 -75.5 -27.5t-32.5 -70.5v-783q0 -223 119.5 -360t320.5 -137t326 130t125 341v809q-2 43 -33 70.5t-76 27.5h-33v21h379v-21h-32q-43 0 -75 -27.5t-34 -68.5v-811q0 -240 -151.5 -387.5t-403.5 -147.5t-408.5 146.5t-156.5 386.5v807 q0 61 -54 90q-25 12 -55 12h-33zM494 1739q29 57 84 108q129 -125 260 -268l-15 -14q-166 78 -329 174z" />
<glyph unicode="&#xda;" horiz-adv-x="1607" d="M102 1413v21h416v-21h-33q-61 0 -92 -47q-14 -23 -16 -51v-783q0 -223 119.5 -360t314.5 -137q207 0 332 130t125 341v809q-2 68 -66 90q-20 8 -43 8h-33v21h379v-21h-32q-43 0 -75 -27.5t-34 -68.5v-811q0 -240 -151.5 -387.5t-403.5 -147.5t-408.5 146.5t-156.5 386.5 v809q0 43 -32 71.5t-77 28.5h-33zM809 1579q156 168 260 268q53 -55 82 -108q-131 -76 -328 -174z" />
<glyph unicode="&#xdb;" horiz-adv-x="1607" d="M102 1413v21h416v-21h-33q-45 0 -75.5 -27.5t-32.5 -70.5v-783q0 -223 119.5 -360t320.5 -137t326 130t125 341v809q-2 68 -66 90q-20 8 -43 8h-33v21h379v-21h-32q-43 0 -75 -27.5t-34 -68.5v-811q0 -240 -151.5 -387.5t-403.5 -147.5t-408.5 146.5t-156.5 386.5v807 q0 45 -32 73.5t-77 28.5h-33zM594 1579l217 244h20l236 -244l-12 -16l-234 135l-215 -135z" />
<glyph unicode="&#xdc;" horiz-adv-x="1607" d="M102 1413v21h416v-21h-33q-61 0 -92 -47q-14 -23 -16 -51v-783q0 -223 119.5 -360t314.5 -137q207 0 332 130t125 341v809q-2 68 -66 90q-20 8 -43 8h-33v21h379v-21h-32q-43 0 -75 -27.5t-34 -68.5v-811q0 -240 -151.5 -387.5t-403.5 -147.5t-408.5 146.5t-156.5 386.5 v807q0 61 -54 90q-25 12 -55 12h-33zM549 1644.5q0 32.5 23.5 56t57.5 23.5t57.5 -23.5t23.5 -56t-23.5 -56t-57.5 -23.5t-57.5 23.5t-23.5 56zM936 1644.5q0 32.5 23.5 56t56.5 23.5t56.5 -23.5t23.5 -56t-23.5 -56t-56.5 -23.5t-56.5 23.5t-23.5 56z" />
<glyph unicode="&#xdd;" horiz-adv-x="1353" d="M-20 1413v21h503v-21h-26q-45 0 -70 -41q-12 -23 -12 -44t10 -42l307 -573l328 575q10 20 10 41t-14 43q-27 41 -70 41h-24v21h454v-21h-28q-61 0 -115.5 -33.5t-91.5 -85.5l-404 -655v-489q0 -53 38 -91.5t93 -38.5h25v-20h-447v20h27q53 0 91 37t40 90v494l-391 653 q-31 49 -87 84t-118 35h-28zM682 1579q156 168 260 268q55 -55 84 -108q-131 -76 -330 -174z" />
<glyph unicode="&#xde;" horiz-adv-x="1134" d="M88 0v20h25q55 0 93 38t40 92v1136q-2 53 -40 90t-91 37h-27v21h447v-21h-25q-53 0 -92 -37t-39 -90v-164h244q301 0 385 -231q26 -74 26 -165t-37 -167q-66 -145 -231 -203q-59 -20 -100 -20q-127 0 -217 47v20q147 -33 276 33q111 55 152 189q14 41 14 76.5v46.5 q-4 143 -76 228t-201 85h-235v-911q0 -76 65 -113q29 -16 66 -17h25v-20h-447z" />
<glyph unicode="&#xdf;" horiz-adv-x="1892" d="M113 168.5q0 75.5 26 153.5h25q-2 -18 -2 -37q0 -111 72.5 -181.5t201.5 -70.5q135 0 211 62.5t76 161.5t-74 165l-409 315q-98 84 -99 226q0 80 44 147.5t123 107t185.5 39.5t188.5 -18h68l4 -223h-23q0 86 -59.5 133t-170 47t-182 -56.5t-71.5 -145.5t80 -154l413 -320 q94 -78 94.5 -217t-105 -235.5t-257.5 -96.5q-100 0 -200.5 25t-153.5 72q-6 25 -6 100.5zM1059 168.5q0 75.5 26 153.5h25q-2 -18 -2 -37q0 -111 72.5 -181.5t201.5 -70.5q135 0 211 62.5t76 161.5t-74 165l-409 315q-98 84 -99 226q0 80 44.5 147.5t123 107t185 39.5 t188.5 -18h68l4 -223h-23q0 86 -59 133t-170 47t-182.5 -56.5t-71.5 -145.5t80 -154l416 -320q92 -78 92 -217t-105.5 -235.5t-257.5 -96.5q-100 0 -200.5 25t-153.5 72q-6 25 -6 100.5z" />
<glyph unicode="&#xe0;" d="M-10 0v20h16q43 0 87 30t73 89q424 907 462 989t42 129h18l506 -1118q60 -119 158 -119h16v-20h-420v20h17q39 0 59 27t20 50.5t-8 45.5l-112 273h-518l-113 -266q-10 -27 -10 -50.5t20.5 -51.5t61.5 -28h16v-20h-391zM350 1534q31 57 84 108q131 -125 260 -268l-14 -14 q-164 78 -330 174zM432 477h467l-229 561z" />
<glyph unicode="&#xe1;" d="M-10 0v20h16q43 0 87 30t73 89q449 958 467 1004q35 86 37 114h18l506 -1118q60 -119 158 -119h16v-20h-420v20h17q39 0 59 27t20 50.5t-8 45.5l-112 273h-518l-113 -266q-10 -27 -10 -50.5t20.5 -51.5t61.5 -28h16v-20h-391zM432 477h467l-229 561zM666 1374 q156 168 260 268q55 -55 84 -108q-131 -76 -330 -174z" />
<glyph unicode="&#xe2;" d="M-10 0v20h16q43 0 87 30t73 89q449 958 467 1004q35 86 37 114h18l506 -1118q60 -119 158 -119h16v-20h-420v20h17q39 0 59 27t20 50.5t-8 45.5l-112 273h-518l-113 -266q-8 -27 -8 -43.5t6 -36t26.5 -35t47.5 -15.5h16v-20h-391zM432 477h467l-229 561zM453 1374 l217 244h20l234 -244l-13 -16l-233 135l-213 -135z" />
<glyph unicode="&#xe3;" d="M-10 0v20h16q43 0 87 30t73 89q449 958 467 1004q35 86 37 114h18l506 -1118q60 -119 158 -119h16v-20h-420v20h17q39 0 59 27t20 50.5t-8 45.5l-112 273h-518l-113 -266q-8 -27 -8 -43.5t6 -36t26.5 -35t47.5 -15.5h16v-20h-391zM432 477h467l-229 561zM446 1366 q14 111 72 154q27 20 68 20t123.5 -44t113.5 -44q86 0 115 70h20q-12 -102 -71 -144q-27 -18 -68 -18t-126 45t-115 45q-78 0 -111 -84h-21z" />
<glyph unicode="&#xe4;" d="M-10 0v20h16q43 0 87 30t73 89q449 958 467 1004q35 86 37 114h18l506 -1118q60 -119 158 -119h16v-20h-420v20h17q39 0 59 27t20 50.5t-8 45.5l-112 273h-518l-113 -266q-10 -27 -10 -50.5t20.5 -51.5t61.5 -28h16v-20h-391zM408 1440q0 33 23.5 56.5t56 23.5t56 -23.5 t23.5 -56.5t-23.5 -56.5t-56 -23.5t-56 23.5t-23.5 56.5zM432 477h467l-229 561zM793 1440q0 33 23.5 56.5t56 23.5t56 -23.5t23.5 -56.5t-23.5 -56.5t-56 -23.5t-56 23.5t-23.5 56.5z" />
<glyph unicode="&#xe5;" d="M-10 0v20h16q43 0 87 30t73 89q424 907 462 989t42 129h18l506 -1118q60 -119 158 -119h16v-20h-420v20h17q39 0 59 27t20 50.5t-8 45.5l-112 273h-518l-113 -266q-10 -27 -10 -50.5t20.5 -51.5t61.5 -28h16v-20h-391zM432 477h467l-229 561zM489 1514.5 q0 66.5 54.5 109.5t137.5 43t137 -41t54 -98.5t-24 -91.5q-53 -76 -151.5 -76t-153 44t-54.5 110.5zM580 1513.5q0 -55.5 28.5 -86t72.5 -30.5t71.5 30.5t27.5 86t-27.5 87t-71.5 31.5t-72.5 -31.5t-28.5 -87z" />
<glyph unicode="&#xe6;" horiz-adv-x="1708" d="M-10 0v20h12q43 0 89 31t75 74h2l715 1026q10 23 -2.5 42t-36.5 19h-6v17h489q84 0 140.5 14t68.5 19v-211h-20v26q0 35 -25 60.5t-61 25.5h-410v-545h338q37 0 61.5 26t24.5 61v26h20v-282h-20v20q0 47 -41 74q-18 12 -43 12h-340v-494h332q184 2 264 193h22l-98 -254 h-758v20h17q37 0 61.5 24t26.5 58v453h-314l-286 -451q-16 -49 14 -71q16 -12 39 -13h16v-20h-366zM614 618h273v429z" />
<glyph unicode="&#xe7;" horiz-adv-x="1443" d="M102 618.5q0 294.5 181.5 466.5t494.5 172q127 0 256 -32.5t223 -89.5l46 -291h-19q-88 352 -508 352q-244 0 -385 -155.5t-141 -426.5q0 -176 63.5 -306t184.5 -202t280.5 -71.5t279.5 48.5t198.5 158.5t89.5 274.5h18l-23 -280q-76 -117 -217 -186.5t-313 -78.5 l-82 -96q63 23 115 8q100 -27 100 -125t-90 -141q-51 -25 -101.5 -25t-97.5 15l2 20q74 0 129.5 32t55.5 93q0 90 -105 90q-33 0 -67 -16l-11 20l97 125q-303 8 -478.5 180.5t-175.5 467z" />
<glyph unicode="&#xe8;" horiz-adv-x="1118" d="M113 0v20h28q49 0 83 32t36 77v973q0 45 -35 75.5t-84 30.5h-28v21h598q59 0 129.5 10t99.5 23v-234l-22 2v31q0 61 -50 90q-23 14 -53 14h-426v-520h350q55 2 76 43q8 20 8 43v27h23v-287h-23v27q0 35 -20.5 59.5t-57.5 26.5h-356v-521h322q94 0 158.5 33t98 78 t68.5 119h21l-113 -293h-831zM279 1534q31 57 83 108q130 -125 261 -268l-15 -14q-164 78 -329 174z" />
<glyph unicode="&#xe9;" horiz-adv-x="1118" d="M113 0v20h28q49 0 83 32t36 77v973q0 45 -35 75.5t-84 30.5h-28v21h598q59 0 129.5 10t99.5 23v-232h-22v31q0 61 -50 90q-23 14 -53 14h-426v-520h350q55 2 76 43q8 20 8 43v27h23v-287h-23v27q0 35 -20.5 59.5t-57.5 26.5h-356v-521h322q94 0 158.5 33t98 78t68.5 119 h21l-113 -293h-831zM594 1374q156 168 260 268q55 -55 84 -108q-133 -76 -330 -174z" />
<glyph unicode="&#xea;" horiz-adv-x="1118" d="M113 0v20h28q49 0 83 32t36 77v973q0 45 -35 75.5t-84 30.5h-28v21h598q59 0 129.5 10t99.5 23v-232h-22v31q0 61 -50 90q-23 14 -53 14h-424v-520h348q55 2 76 43q8 20 8 43v27h23v-287h-23v27q0 35 -20.5 59.5t-57.5 26.5h-354v-521h320q135 0 204.5 58.5t120.5 171.5 h21l-113 -293h-831zM381 1374l217 244h20l234 -244l-12 -16l-234 135l-213 -135z" />
<glyph unicode="&#xeb;" horiz-adv-x="1118" d="M113 0v20h28q49 0 83 32t36 77v973q0 45 -35 75.5t-84 30.5h-28v21h598q59 0 129.5 10t99.5 23v-234l-22 2v31q0 43 -29 73.5t-74 30.5h-426v-520h350q55 2 76 43q8 20 8 43v27h23v-287h-23v27q0 35 -20.5 59.5t-57.5 26.5h-356v-521h322q94 0 158.5 33t98 78t68.5 119 h21l-113 -293h-831zM336 1440q0 33 23.5 56.5t56.5 23.5t56.5 -23.5t23.5 -56.5t-23.5 -56.5t-56.5 -23.5t-56.5 23.5t-23.5 56.5zM721 1440q0 33 23.5 56.5t56.5 23.5t56.5 -23.5t23.5 -56.5t-23.5 -56.5t-56.5 -23.5t-56.5 23.5t-23.5 56.5z" />
<glyph unicode="&#xec;" horiz-adv-x="626" d="M-14 1534q29 57 84 108q129 -125 260 -268l-15 -14q-168 78 -329 174zM113 0v20h22q47 0 80 33t33 78v967q0 63 -58 96q-25 14 -55 14h-22v21h403l-2 -21h-22q-45 0 -78 -31.5t-35 -76.5v-971q2 -45 34.5 -77t80.5 -32h20l2 -20h-403z" />
<glyph unicode="&#xed;" horiz-adv-x="626" d="M113 0v20h22q47 0 80 33t33 78v967q0 45 -33 77.5t-80 32.5h-22v21h403l-2 -21h-20q-47 0 -80 -31.5t-35 -76.5v-971q2 -45 34.5 -77t80.5 -32h20l2 -20h-403zM301 1374q156 168 258 268q55 -55 84 -108q-131 -76 -328 -174z" />
<glyph unicode="&#xee;" horiz-adv-x="626" d="M86 1374l217 244h21l235 -244l-12 -16l-234 135l-215 -135zM113 0v20h22q47 0 80 33t33 78v967q0 63 -58 96q-25 14 -55 14h-22v21h403l-2 -21h-20q-47 0 -80 -31.5t-35 -76.5v-971q2 -45 34.5 -77t80.5 -32h20l2 -20h-403z" />
<glyph unicode="&#xef;" horiz-adv-x="626" d="M41 1440q0 33 23.5 56.5t57.5 23.5t56.5 -23.5t22.5 -56.5t-22.5 -56.5t-56.5 -23.5t-57.5 23.5t-23.5 56.5zM113 0v20h22q47 0 80 33t33 78v967q0 63 -58 96q-25 14 -55 14h-22v21h403l-2 -21h-22q-45 0 -78 -31.5t-35 -76.5v-971q2 -63 57 -94q27 -14 58 -15h20l2 -20 h-403zM428 1440q0 33 23.5 56.5t56.5 23.5t56.5 -23.5t23.5 -56.5t-23.5 -56.5t-56.5 -23.5t-56.5 23.5t-23.5 56.5z" />
<glyph unicode="&#xf0;" horiz-adv-x="1556" d="M113 0v20h26q49 0 82 33t35 78v453h-129v61h129v453q-2 49 -36 79.5t-83 30.5h-24v21h684q201 0 349 -74t228 -213.5t80 -327.5q0 -285 -177 -449.5t-480 -164.5h-684zM389 61h408q236 0 373 147.5t137 405.5q0 256 -137.5 404.5t-372.5 148.5h-408v-522h322v-61h-322 v-523z" />
<glyph unicode="&#xf1;" horiz-adv-x="1595" d="M72 0v20h34q47 0 80 31t33 76v877q0 125 -14 223l-4 33l22 -3l1063 -1001v850q-4 43 -36.5 72.5t-78.5 29.5h-34v21h387v-21h-35q-45 0 -78 -29.5t-35 -72.5v-873q0 -119 15 -225l4 -37h-19l-1065 1010v-854q0 -61 58 -92q25 -14 55 -15h35v-20h-387zM561 1366 q14 111 72 154q27 20 67.5 20t122.5 -44t115 -44q86 0 115 70h20q-10 -76 -46 -119t-86 -43t-134 45t-115 45q-78 0 -110 -84h-21z" />
<glyph unicode="&#xf2;" horiz-adv-x="1585" d="M102 614.5q0 186.5 93.5 334t251 228t347 80.5t347 -80.5t251 -228t93.5 -334t-93.5 -334t-251 -228.5t-347 -81t-347 81t-251 228.5t-93.5 334zM254 614q0 -256 154.5 -418.5t384 -162.5t385 162.5t155.5 418.5t-155.5 419t-385 163t-384 -163t-154.5 -419zM465 1534 q29 57 82 108q131 -125 260 -268l-14 -14q-164 78 -328 174z" />
<glyph unicode="&#xf3;" horiz-adv-x="1585" d="M102 614.5q0 186.5 93.5 334t251 228t347 80.5t347 -80.5t251 -228t93.5 -334t-93.5 -334t-251 -228.5t-347 -81t-347 81t-251 228.5t-93.5 334zM254 614q0 -256 154.5 -418.5t384 -162.5t385 162.5t155.5 418.5t-155.5 419t-385 163t-384 -163t-154.5 -419zM778 1374 q158 168 260 268q55 -55 84 -108q-130 -76 -329 -174z" />
<glyph unicode="&#xf4;" horiz-adv-x="1585" d="M102 638q0 163 93.5 310.5t251 228t347 80.5t347 -80.5t251 -228t93.5 -334t-93.5 -334t-251 -228.5t-323.5 -81t-293 47.5t-220 131t-147.5 204.5t-54.5 284zM254 614q0 -256 154.5 -418.5t384 -162.5t385 162.5t155.5 418.5t-155.5 419t-385 163t-384 -163t-154.5 -419 zM565 1374l217 244h21l233 -244l-12 -16l-231 135l-215 -135z" />
<glyph unicode="&#xf5;" horiz-adv-x="1585" d="M102 614.5q0 186.5 93.5 334t251 228t347 80.5t347 -80.5t251 -228t93.5 -334t-93.5 -334t-251 -228.5t-347 -81t-347 81t-251 228.5t-93.5 334zM254 614q0 -256 154.5 -418.5t384 -162.5t385 162.5t155.5 418.5t-155.5 419t-385 163t-384 -163t-154.5 -419zM559 1366 q16 111 72 154q27 20 67.5 20t123.5 -44t116 -44q84 0 113 70h20q-8 -76 -44 -119t-86 -43t-135 45t-116 45q-78 0 -110 -84h-21z" />
<glyph unicode="&#xf6;" horiz-adv-x="1585" d="M102 614.5q0 186.5 93.5 334t251 228t347 80.5t347 -80.5t251 -228t93.5 -334t-93.5 -334t-251 -228.5t-347 -81t-347 81t-251 228.5t-93.5 334zM254 614q0 -256 154.5 -418.5t384 -162.5t385 162.5t155.5 418.5t-155.5 419t-385 163t-384 -163t-154.5 -419zM520 1440 q0 33 23.5 56.5t56.5 23.5t56.5 -23.5t23.5 -56.5t-23.5 -56.5t-56.5 -23.5t-56.5 23.5t-23.5 56.5zM907 1440q0 33 22.5 56.5t56.5 23.5t57.5 -23.5t23.5 -56.5t-23.5 -56.5t-57.5 -23.5t-56.5 23.5t-22.5 56.5z" />
<glyph unicode="&#xf7;" horiz-adv-x="985" d="M82 588v92h823v-92h-823zM420 312.5q0 29.5 21.5 50t51 20.5t51 -20.5t21.5 -50t-21.5 -51t-51 -21.5t-51 21.5t-21.5 51zM420 959.5q0 29.5 21.5 50t51 20.5t51 -20.5t21.5 -50t-21.5 -51t-51 -21.5t-51 21.5t-21.5 51z" />
<glyph unicode="&#xf8;" horiz-adv-x="1585" d="M102 614q0 186 93.5 334t251 228.5t351 80.5t355.5 -88l102 123l54 -47l-95 -112q125 -86 198 -220.5t73 -309.5t-93.5 -322.5t-251 -228.5t-347.5 -81q-248 0 -435 135l-127 -153l-51 45l125 152q-203 182 -203 464zM254 630.5q0 -239.5 123 -397.5l721 869 q-133 94 -305 94q-229 0 -384 -163t-155 -402.5zM422 182q152 -150 376 -149.5t379.5 163t155.5 430t-180 433.5z" />
<glyph unicode="&#xf9;" horiz-adv-x="1433" d="M82 1208v21h389v-21h-31q-41 0 -69.5 -25.5t-28.5 -62.5v-665q0 -199 101.5 -313.5t286.5 -114.5t297 108.5t112 296.5v688q-2 39 -30 63.5t-69 24.5h-30v21h352v-21h-31q-39 0 -67.5 -24.5t-30.5 -61.5v-690q0 -213 -136 -337t-374 -124t-375 123t-137 336v690 q0 37 -28.5 62.5t-69.5 25.5h-31zM389 1534q29 57 84 108q129 -125 260 -268l-14 -14q-166 78 -330 174z" />
<glyph unicode="&#xfa;" horiz-adv-x="1433" d="M82 1208v21h389v-21h-31q-41 0 -69.5 -25.5t-28.5 -62.5v-665q0 -199 101.5 -313.5t286.5 -114.5t297 108.5t112 296.5v688q-2 39 -30 63.5t-69 24.5h-30v21h352v-21h-31q-55 0 -84 -43q-12 -18 -14 -43v-690q0 -213 -136 -337t-374 -124t-375 123t-137 336v690 q0 37 -28.5 62.5t-69.5 25.5h-31zM705 1374q156 168 258 268q55 -55 84 -108q-131 -76 -330 -174z" />
<glyph unicode="&#xfb;" horiz-adv-x="1433" d="M82 1208v21h389v-21h-31q-41 0 -69.5 -25.5t-28.5 -62.5v-665q0 -199 101.5 -313.5t286.5 -114.5t297 108.5t112 296.5v688q-2 59 -62 82q-16 6 -37 6h-30v21h352v-21h-31q-55 0 -84 -43q-12 -18 -14 -43v-690q0 -213 -136 -337t-374 -124t-375 123t-137 336v690 q0 37 -28.5 62.5t-69.5 25.5h-31zM489 1374l218 244h20l236 -244l-13 -16l-233 135l-215 -135z" />
<glyph unicode="&#xfc;" horiz-adv-x="1433" d="M82 1208v21h389v-21h-31q-41 0 -69.5 -25.5t-28.5 -62.5v-665q0 -199 101.5 -313.5t286.5 -114.5t297 108.5t112 296.5v688q-2 59 -62 82q-16 6 -37 6h-30v21h352v-21h-31q-55 0 -84 -43q-12 -18 -14 -43v-690q0 -213 -136 -337t-374 -124t-375 123t-137 336v690 q0 37 -28.5 62.5t-69.5 25.5h-31zM444 1440q0 33 24 56.5t57.5 23.5t56 -23.5t22.5 -56.5t-22.5 -56.5t-56 -23.5t-57.5 23.5t-24 56.5zM831 1440q0 33 24 56.5t56.5 23.5t56 -23.5t23.5 -56.5t-23.5 -56.5t-56 -23.5t-56.5 23.5t-24 56.5z" />
<glyph unicode="&#xfd;" horiz-adv-x="1310" d="M-10 1208v21h475v-21h-25q-39 0 -56 -24.5t-17 -42t4 -31.5l299 -530l317 528q6 16 6 33.5t-17.5 42t-57.5 24.5h-25v21h428v-21h-25q-55 0 -105 -29.5t-83 -74.5l-393 -596v-377q0 -45 34.5 -78t84.5 -33h24v-20h-420v20h25q49 0 84 33t35 78v379l-379 596 q-70 102 -189 102h-24zM668 1374q158 168 260 268q55 -55 84 -108q-131 -76 -330 -174z" />
<glyph unicode="&#xfe;" horiz-adv-x="1079" d="M109 0l2 20h24q45 0 77 32t34 77v971q-2 47 -33 77.5t-78 30.5h-24l-2 21h403v-21h-27q-45 0 -75.5 -29.5t-32.5 -74.5v-131h205q199 0 312.5 -93t113.5 -257q0 -113 -50 -199q-94 -168 -292 -168q-100 0 -197 51v19q92 -27 195 2q139 41 190 204q14 41 14 111 q0 125 -78.5 196.5t-216.5 71.5h-196v-780q0 -47 31.5 -79t76.5 -32h27v-20h-403z" />
<glyph unicode="&#xff;" horiz-adv-x="1310" d="M-10 1208v21h475v-21h-25q-39 0 -56 -24.5t-17 -42t4 -31.5l299 -530l317 528q6 16 6 33.5t-17.5 42t-57.5 24.5h-25v21h428v-21h-25q-55 0 -105 -29.5t-83 -74.5l-393 -596v-377q0 -45 34.5 -78t84.5 -33h24v-20h-420v20h25q49 0 84 33t35 78v379l-379 596 q-70 102 -189 102h-24zM410 1440q0 33 23.5 56.5t56 23.5t56 -23.5t23.5 -56.5t-23.5 -56.5t-56 -23.5t-56 23.5t-23.5 56.5zM797 1440q0 33 22.5 56.5t56 23.5t57 -23.5t23.5 -56.5t-23.5 -56.5t-57 -23.5t-56 23.5t-22.5 56.5z" />
<glyph unicode="&#x152;" horiz-adv-x="1970" d="M123 717q0 166 52 305t146.5 235.5t230.5 150.5t269 54t232.5 -14t163.5 -14h323q63 0 139 12t105 24v-258h-25v37q0 49 -32.5 84t-81.5 37h-422v-633h354q43 2 71.5 31t28.5 72v28h21v-323h-21v30q0 41 -28.5 70t-69.5 31h-356v-613h303q150 0 229.5 68t132.5 201h21 l-119 -332h-569q-82 0 -205 -14.5t-168 -14.5q-326 0 -525.5 205t-199.5 541zM270 717q0 -307 159 -495.5t419 -188.5q133 0 209 43q41 25 41 55v1172q0 51 -76 74.5t-174 23.5q-260 0 -419 -188.5t-159 -495.5z" />
<glyph unicode="&#x153;" horiz-adv-x="1812" d="M102 614q0 297 176.5 470t466.5 173q82 0 181.5 -14t163.5 -14h331q78 0 136.5 12t74.5 21v-232h-20v31q0 45 -28 74.5t-73 29.5h-415v-522h348q39 2 60.5 25.5t21.5 62.5v25h20v-287h-20v27q0 37 -21.5 61.5t-60.5 24.5h-348v-519h323q125 0 190.5 58.5t112.5 171.5h21 l-105 -293h-544q-88 0 -197 -14.5t-152 -14.5q-291 0 -467 173t-176 470zM248 614.5q0 -268.5 137 -426t360 -157.5q88 0 157 27.5t69 74.5v965q0 51 -66 75.5t-160 24.5q-223 0 -360 -157.5t-137 -426z" />
<glyph unicode="&#x178;" horiz-adv-x="1353" d="M-20 1413v21h503v-21h-26q-45 0 -70 -41q-12 -23 -12 -44t10 -42l307 -573l328 575q10 20 10 41t-14 43q-27 41 -70 41h-24v21h454v-21h-28q-61 0 -115.5 -33.5t-91.5 -85.5l-404 -655v-489q0 -53 38 -91.5t93 -38.5h25v-20h-447v20h27q53 0 91 37t40 90v494l-391 653 q-31 49 -87 84t-118 35h-28zM424 1644.5q0 32.5 23.5 56t56.5 23.5t56.5 -23.5t23.5 -56t-23.5 -56t-56.5 -23.5t-56.5 23.5t-23.5 56zM809 1644.5q0 32.5 23.5 56t56.5 23.5t56.5 -23.5t23.5 -56t-23.5 -56t-56.5 -23.5t-56.5 23.5t-23.5 56z" />
<glyph unicode="&#x2c6;" horiz-adv-x="1228" d="M340 1509l217 244h21l233 -244l-12 -16l-234 135l-213 -135z" />
<glyph unicode="&#x2dc;" horiz-adv-x="1228" d="M332 1440q12 80 47 127t84 47t132 -44t116 -44q84 0 112 69h21q-12 -102 -70 -143q-29 -18 -69.5 -18t-125.5 45t-116 45q-76 0 -111 -84h-20z" />
<glyph unicode="&#x2000;" horiz-adv-x="923" />
<glyph unicode="&#x2001;" horiz-adv-x="1847" />
<glyph unicode="&#x2002;" horiz-adv-x="923" />
<glyph unicode="&#x2003;" horiz-adv-x="1847" />
<glyph unicode="&#x2004;" horiz-adv-x="615" />
<glyph unicode="&#x2005;" horiz-adv-x="461" />
<glyph unicode="&#x2006;" horiz-adv-x="307" />
<glyph unicode="&#x2007;" horiz-adv-x="307" />
<glyph unicode="&#x2008;" horiz-adv-x="230" />
<glyph unicode="&#x2009;" horiz-adv-x="369" />
<glyph unicode="&#x200a;" horiz-adv-x="102" />
<glyph unicode="&#x2010;" horiz-adv-x="778" d="M70 598l12 45h614l13 -45l-13 -47h-614z" />
<glyph unicode="&#x2011;" horiz-adv-x="778" d="M70 598l12 45h614l13 -45l-13 -47h-614z" />
<glyph unicode="&#x2012;" horiz-adv-x="778" d="M70 598l12 45h614l13 -45l-13 -47h-614z" />
<glyph unicode="&#x2013;" horiz-adv-x="1024" d="M0 555v82h1024v-82h-1024z" />
<glyph unicode="&#x2014;" horiz-adv-x="1638" d="M0 555v82h1638v-82h-1638z" />
<glyph unicode="&#x2018;" horiz-adv-x="409" d="M96 1390.5q0 55.5 35 110.5q63 100 176 105l4 -19q-45 -16 -70.5 -42.5t-29.5 -57.5q-4 -63 41 -115q57 -63 36.5 -111.5t-77.5 -48.5q-18 0 -47 13.5t-48.5 61.5t-19.5 103.5z" />
<glyph unicode="&#x2019;" horiz-adv-x="409" d="M102 1241q57 18 78 53t21 54q0 51 -43 100q-33 37 -35 51q-8 31 4 57q18 41 70 41q63 0 87.5 -58t24.5 -111.5t-35 -106.5q-61 -94 -165 -96z" />
<glyph unicode="&#x201a;" horiz-adv-x="409" d="M98 -182q59 20 81 56t22 54q0 57 -45 107q-35 39 -37 55q-8 31 4 60q18 43 74 43q66 0 91 -61.5t25 -117t-34 -110.5q-63 -98 -177 -103z" />
<glyph unicode="&#x201c;" horiz-adv-x="696" d="M96 1390.5q0 55.5 35 110.5q63 100 176 105l4 -19q-45 -16 -70.5 -42.5t-29.5 -57.5q-4 -63 41 -115q57 -63 36.5 -111.5t-77.5 -48.5q-18 0 -47 13.5t-48.5 61.5t-19.5 103.5zM383 1390.5q0 55.5 35 110.5q63 100 176 105l4 -19q-59 -20 -80.5 -56t-21.5 -54 q0 -57 43 -105q57 -63 36 -112q-20 -47 -75 -48q-66 0 -91.5 61.5t-25.5 117z" />
<glyph unicode="&#x201d;" horiz-adv-x="696" d="M102 1241q57 18 78 53t21 54q0 51 -43 100q-33 37 -35 51q-8 31 4 57q18 41 70 41q63 0 87.5 -58t24.5 -111.5t-35 -106.5q-61 -94 -165 -96zM389 1241q57 18 77.5 53t20.5 54q0 51 -43 100q-33 37 -34 51q-8 31 4 57q18 41 69 41q63 0 88 -58t25 -111.5t-35 -106.5 q-61 -94 -166 -96z" />
<glyph unicode="&#x201e;" horiz-adv-x="696" d="M92 -190q49 16 76 44.5t29 59.5q8 68 -41 121q-51 57 -45 94q0 12 8 29.5t31.5 30t37 12.5h27.5t40 -18.5t45 -63.5t19 -103.5t-36 -117.5q-68 -102 -185 -107zM362 -190q49 16 76 44.5t31 59.5q4 63 -29 104q-4 6 -16 19.5t-17.5 19.5t-13.5 19.5t-10 23.5q-6 27 4 54 q23 49 82 49q18 0 48 -14.5t50.5 -65.5t20.5 -90q0 -121 -86 -191q-59 -49 -133 -51z" />
<glyph unicode="&#x2022;" horiz-adv-x="686" d="M143 682q0 14 17.5 64.5t42 76t76 43t65.5 17.5t52 -13.5t64.5 -29t42 -42t29 -64.5t13.5 -52t-13.5 -53t-30 -64.5t-42 -42t-63.5 -29t-52 -12.5l-29 4q-88 31 -112.5 55.5t-42 76t-17.5 65.5z" />
<glyph unicode="&#x2026;" horiz-adv-x="1167" d="M92 84q0 39 26.5 65.5t65.5 26.5t65.5 -26.5t26.5 -65.5t-26.5 -65.5t-65.5 -26.5t-65.5 26.5t-26.5 65.5zM502 84q0 39 26.5 65.5t65.5 26.5t65.5 -26.5t26.5 -65.5t-26.5 -65.5t-65.5 -26.5t-65.5 26.5t-26.5 65.5zM891 84q0 39 26.5 65.5t65.5 26.5t65.5 -26.5 t26.5 -65.5t-26.5 -65.5t-65.5 -26.5t-65.5 26.5t-26.5 65.5z" />
<glyph unicode="&#x202f;" horiz-adv-x="369" />
<glyph unicode="&#x2039;" horiz-adv-x="579" d="M82 598l358 406l17 -11l-242 -395l244 -403l-19 -11z" />
<glyph unicode="&#x203a;" horiz-adv-x="579" d="M123 195l244 403l-242 395l16 11l359 -406l-359 -414z" />
<glyph unicode="&#x205f;" horiz-adv-x="461" />
<glyph unicode="&#x20ac;" horiz-adv-x="1501" d="M-20 582l22 61h197q-2 37 -2 73t2 70h-219l22 62h205q45 266 253 440t488 174q348 0 449 -121l-66 -196h-20q4 27 4 54.5t-15.5 66.5t-53.5 65.5t-93 42.5q-90 27 -205 27q-221 0 -385 -157t-203 -396h871l-23 -62h-856q-2 -35 -2 -70.5t2 -72.5h807l-20 -61h-779 q43 -240 206 -393.5t369 -153.5t311.5 66.5t131.5 213.5h21l-2 -215q-61 -63 -185.5 -95t-263.5 -32q-279 0 -485.5 172t-253.5 437h-229z" />
<glyph unicode="&#x2122;" horiz-adv-x="913" d="M20 1360v84q25 -10 70 -10h195q45 0 69 10v-84h-6v10q0 14 -9 23.5t-24 11.5h-96v-334q0 -14 10.5 -24.5t26.5 -10.5h6v-6h-149v6h6q20 0 28.5 12.5t8.5 22.5v334h-97q-14 -2 -23 -11.5t-9 -23.5v-10h-7zM356 1030v6h11q37 0 41 35l43 371h6l170 -320l147 320h6l64 -371 q8 -35 41 -35h10v-6h-145v6h8q10 0 17 7.5t5 17.5l-37 248l-108 -228q-16 -35 -21 -59h-4l-141 274l-18 -235q0 -10 7 -17.5t15 -7.5h10v-6h-127z" />
<glyph unicode="&#x25fc;" horiz-adv-x="1228" d="M0 0v1229h1229v-1229h-1229z" />
<glyph unicode="&#xfb01;" horiz-adv-x="1759" d="M113 0v20h28q49 0 84 32t37 77v973q-2 63 -59 92q-29 14 -62 14h-28v21h278h326q59 0 131 10t100 23v-234l-22 2v31q0 70 -60 96q-20 8 -43 8h-432v-520h357q41 0 61 24.5t20 61.5v27h25v-287h-25v27q0 49 -32 71q-18 12 -45 15h-361v-453q2 -55 49 -90q31 -20 72 -21h29 v-20h-428zM1184 0v20h28q55 0 96.5 33t41.5 78v967q0 45 -41 77.5t-99 32.5h-26v21h463v-21h-27q-55 0 -95 -30.5t-44 -75.5v-973q2 -45 43 -77t96 -32h27l2 -20h-465z" />
<glyph unicode="&#xfb02;" horiz-adv-x="2168" d="M113 0v20h28q49 0 84 32t37 77v973q-2 63 -59 92q-29 14 -62 14h-28v21h278h326q59 0 131 10t100 23v-234l-22 2v31q0 70 -60 96q-20 8 -43 8h-432v-520h357q41 0 61 24.5t20 61.5v27h25v-287h-25v27q0 49 -32 71q-18 12 -45 15h-361v-453q2 -55 49 -90q31 -20 72 -21h29 v-20h-428zM1184 0v20h28q49 0 83 32t36 77v969q-2 45 -38 77.5t-85 32.5h-24v21h424v-21h-25q-49 0 -85 -32.5t-36 -77.5v-1035h320q135 0 204.5 58.5t120.5 171.5h21l-113 -293h-831z" />
</font>
</defs>
</svg>
