<?xml version="1.0" standalone="no"?>
<!DOCTYPE svg PUBLIC "-//W3C//DTD SVG 1.1//EN" "http://www.w3.org/Graphics/SVG/1.1/DTD/svg11.dtd" >
<svg xmlns="http://www.w3.org/2000/svg" xmlns:xlink="http://www.w3.org/1999/xlink" version="1.1">
<metadata></metadata>
<defs>
<font id="asapregular" horiz-adv-x="655" >
<font-face units-per-em="2048" ascent="1638" descent="-410" />
<missing-glyph horiz-adv-x="491" />
<glyph unicode="&#xfb01;" horiz-adv-x="1153" d="M98 985v25q0 33 10.5 47t30.5 14h82v195q0 162 80 222t184 60q150 0 150 -61q0 -20 -12.5 -58t-30.5 -38q-10 0 -29.5 5t-58.5 5q-53 0 -82 -30t-29 -122v-178h494q82 0 82 -45v-985q0 -45 -82 -45h-8q-82 0 -82 45v883h-404v-883q0 -45 -82 -45h-8q-82 0 -82 45v883h-82 q-20 0 -30.5 14t-10.5 47zM788 1311v114q0 49 99 50q90 -1 90 -50v-114q0 -49 -98 -49q-90 0 -91 49z" />
<glyph unicode="&#xfb02;" horiz-adv-x="1273" d="M98 985v25q0 33 10.5 47t30.5 14h82v195q0 162 80 222t184 60q150 0 150 -61q0 -20 -12.5 -58t-30.5 -38q-10 0 -29.5 5t-58.5 5q-53 0 -82 -30t-29 -122v-178h178q23 0 32 -14.5t9 -46.5v-25q0 -33 -9 -47t-32 -14h-178v-883q0 -45 -82 -45h-8q-82 0 -82 45v883h-82 q-20 0 -30.5 14t-10.5 47zM834 270v1225q0 45 82 45h8q82 0 82 -45v-1208q0 -86 29.5 -119t81.5 -33q39 0 58 5t30 5q18 0 30.5 -37.5t12.5 -58.5q0 -61 -150 -61q-102 0 -183 62.5t-81 219.5z" />
<glyph horiz-adv-x="0" />
<glyph unicode="&#xd;" horiz-adv-x="491" />
<glyph unicode=" "  horiz-adv-x="491" />
<glyph unicode="&#x09;" horiz-adv-x="491" />
<glyph unicode="&#xa0;" horiz-adv-x="491" />
<glyph unicode="!" horiz-adv-x="602" d="M205 41v135q0 45 82 45h35q82 0 81 -45v-135q0 -45 -81 -45h-35q-82 0 -82 45zM229 459v934q0 45 82 45h41q80 0 80 -45l-55 -934q-4 -45 -64 -45h-22q-62 0 -62 45z" />
<glyph unicode="&#x22;" horiz-adv-x="653" d="M102 1368v25q0 45 82 45h21q82 0 82 -45q0 -18 -47 -402q-6 -25 -45 -24h-2q-40 -1 -46 24zM365 1368v25q0 45 81 45h21q82 0 82 -45q0 -18 -47 -402q-6 -25 -45 -24h-2q-39 -1 -45 24z" />
<glyph unicode="#" horiz-adv-x="1093" d="M27 463v35q0 33 10 47t31 14h186l53 301h-166q-20 0 -30.5 14.5t-10.5 47.5v34q0 33 10.5 47.5t30.5 14.5h193l63 342q6 25 21.5 35t68.5 10h9q57 0 57 -31l-68 -356h244l62 342q6 25 21 35t69 10h10q57 0 57 -31l-63 -356h139q23 0 32 -14.5t9 -47.5v-34q0 -33 -9 -47.5 t-32 -14.5h-170l-51 -301h155q23 0 32 -14.5t9 -46.5v-35q0 -33 -9 -47.5t-32 -14.5h-188l-63 -360q-4 -25 -21.5 -35t-67.5 -10h-8q-31 0 -44 8t-13 27q0 6 31 182q0 4 34 188h-241l-66 -360q-4 -25 -20.5 -35t-67.5 -10h-8q-31 0 -44 8t-13 27q0 6 30 182q0 4 35 188h-155 q-20 0 -30.5 14.5t-10.5 47.5zM408 559h241l53 301h-241z" />
<glyph unicode="$" horiz-adv-x="1015" d="M72 137q0 25 27.5 68t43.5 43q8 0 43 -23q63 -37 131 -62.5t160 -27.5v529q-125 49 -198.5 89t-127 116.5t-53.5 199.5q0 150 102.5 248t276.5 117v86q0 33 41 32h4q37 0 37 -32v-82q66 -2 142.5 -17.5t125.5 -42.5q55 -27 56 -57q0 -23 -26 -66t-40 -43 q-10 0 -33.5 12.5t-29.5 16.5q-98 47 -195 49v-477q125 -45 203 -87t133 -123t55 -212q0 -174 -104.5 -279.5t-286.5 -121.5v-103q0 -33 -39 -32h-2q-41 0 -41 32v101q-139 2 -264 47q-66 23 -103.5 51.5t-37.5 50.5zM285 1061q0 -80 49 -129t143 -88v440 q-90 -16 -141 -72.5t-51 -150.5zM559 141q92 17 148.5 84.5t56.5 165.5q0 88 -53.5 142.5t-151.5 97.5v-490z" />
<glyph unicode="%" horiz-adv-x="1566" d="M123 1110q0 336 280 336q117 0 199 -75t82 -261q0 -184 -82 -257t-199 -73q-118 0 -199 72t-81 258zM258 1110q0 -96 28.5 -156.5t116.5 -60.5q150 0 150 217q0 98 -28.5 161.5t-121.5 63.5q-90 0 -117.5 -63.5t-27.5 -161.5zM330 4q0 10 8 21l764 1382q20 39 82 39h10 q23 0 36 -5t13 -14q0 -4 -8 -20l-764 -1382q-20 -39 -82 -39h-10q-23 0 -36 5t-13 13zM883 319q0 336 280 336q117 0 199 -74.5t82 -261.5q0 -184 -82 -256.5t-199 -72.5q-119 0 -199.5 71.5t-80.5 257.5zM1018 319q0 -96 28.5 -156.5t116.5 -60.5q150 0 150 217 q0 98 -29 162t-121 64q-90 0 -117.5 -63.5t-27.5 -162.5z" />
<glyph unicode="&#x26;" horiz-adv-x="1277" d="M102 416q0 150 78 250t180 127v8q-92 37 -151 114.5t-59 186.5q0 168 113.5 256t299.5 88q68 0 121 -14.5t53 -51.5q0 -18 -12 -59t-33 -41q-10 0 -46 9t-79 9q-141 0 -193 -66.5t-52 -148.5q0 -57 28.5 -113.5t91 -95t154.5 -38.5h242l24 215q6 45 66 45h20q61 0 62 -45 v-215h172q23 0 32 -14.5t9 -47.5v-24q0 -33 -9.5 -47.5t-31.5 -14.5h-172v-401q0 -86 29.5 -119t80.5 -33q39 0 58.5 5t29.5 5q19 0 31 -37.5t12 -58.5q0 -61 -149 -61q-57 0 -113.5 19.5t-95.5 68.5q-61 -37 -146 -62.5t-188 -25.5q-111 0 -215 44t-173 140t-69 244z M281 418q0 -152 90 -217.5t204 -65.5q68 0 138.5 22.5t128.5 53.5q-4 37 -4 59v418h-250q-150 0 -228.5 -61.5t-78.5 -208.5z" />
<glyph unicode="'" horiz-adv-x="374" d="M102 1368v25q0 45 82 45h21q82 0 82 -45q0 -18 -47 -402q-6 -25 -45 -24h-2q-40 -1 -46 24z" />
<glyph unicode="(" horiz-adv-x="616" d="M113 586q0 305 102 568t274 429q20 20 43 21q20 0 41 -15.5t21 -36.5q0 -25 -19 -45q-139 -164 -217.5 -404.5t-78.5 -516.5t77.5 -517t216.5 -405q18 -23 19 -41q0 -16 -18.5 -36.5t-38.5 -20.5q-23 -1 -46 22q-174 160 -275 424t-101 574z" />
<glyph unicode=")" horiz-adv-x="616" d="M18 -379q0 12 15 31q141 164 223 408.5t82 525.5q0 276 -78 518t-217 403q-18 23 -18 41q0 16 18 37t39 21q23 0 45 -23q174 -160 275.5 -424t101.5 -573q0 -305 -102.5 -568.5t-274.5 -429.5q-20 -20 -43 -20t-44.5 17.5t-21.5 35.5z" />
<glyph unicode="*" horiz-adv-x="763" d="M72 1214q0 23 11 36.5t26 13.5q12 0 18 -2l203 -66v215q0 41 41 41t41 -41v-215l202 66q6 2 19 2q14 0 25.5 -13.5t11.5 -33.5q0 -25 -29 -33l-203 -66l148 -203q10 -12 10 -26t-15.5 -27.5t-29.5 -13.5q-18 0 -31 18l-149 207l-150 -207q-12 -18 -31 -18q-14 0 -29.5 13 t-15.5 28q0 14 11 26l145 203l-201 66q-29 8 -28 30z" />
<glyph unicode="+" horiz-adv-x="1146" d="M98 457v14q0 70 41 70h367v366q0 23 14.5 32t46.5 9h15q33 0 47 -10t14 -31v-366h365q23 0 32 -14.5t9 -47.5v-14q0 -33 -9.5 -47.5t-31.5 -14.5h-365v-366q0 -20 -14.5 -30.5t-46.5 -10.5h-15q-32 0 -46.5 10t-14.5 31v366h-367q-23 0 -32 11.5t-9 42.5z" />
<glyph unicode="," horiz-adv-x="405" d="M25 -207q0 12 18 49q70 139 70 314q0 31 20.5 48t61.5 17h18q39 0 60.5 -15.5t21.5 -41.5q0 -115 -37 -206t-87 -143.5t-87 -52.5q-23 0 -41 7.5t-18 23.5z" />
<glyph unicode="-" d="M90 532v21q0 33 10.5 47t30.5 14h387q23 0 32 -14t9 -47v-21q0 -33 -9 -47t-32 -14h-387q-20 0 -30.5 14.5t-10.5 46.5z" />
<glyph unicode="." horiz-adv-x="405" d="M104 41v135q0 45 82 45h35q82 0 82 -45v-135q0 -45 -82 -45h-35q-82 0 -82 45z" />
<glyph unicode="/" horiz-adv-x="757" d="M-20 -115q0 14 6 31l635 1477q20 47 71 47h8q49 0 50 -41q0 -14 -7 -31l-634 -1477q-10 -25 -25.5 -36t-42.5 -11h-8q-27 0 -40 11.5t-13 29.5z" />
<glyph unicode="0" horiz-adv-x="1095" d="M80 717q0 244 63.5 407.5t168 242.5t233.5 79t235.5 -79t170 -242.5t63.5 -407.5t-63.5 -408t-170 -242.5t-235.5 -78.5t-233.5 78.5t-168 242.5t-63.5 408zM254 717q0 -203 40 -334t106.5 -189.5t144.5 -58.5q80 0 146.5 59.5t107.5 189.5t41 333t-41 333t-107.5 189 t-146.5 59q-78 0 -144.5 -58t-106.5 -189t-40 -334z" />
<glyph unicode="1" horiz-adv-x="1095" d="M82 1294q0 31 37 39l475 105q25 0 44 -12.5t19 -30.5v-1248h304q23 0 31.5 -14t8.5 -47v-25q0 -33 -9 -47t-31 -14h-832q-20 0 -30.5 14.5t-10.5 46.5v25q0 33 10.5 47t30.5 14h356v1104l-362 -61q-18 0 -29.5 35t-11.5 69z" />
<glyph unicode="2" horiz-adv-x="1095" d="M104 90q0 27 9 35l528 663q63 84 93 133.5t38 83t8 80.5q0 98 -68.5 155.5t-187.5 57.5q-86 0 -144 -22.5t-116 -58.5q-37 -23 -47 -23q-14 0 -39.5 40t-25.5 62q0 41 63.5 75t151.5 54.5t153 20.5q201 0 318.5 -93t117.5 -255q0 -102 -30.5 -179t-117.5 -192t-321 -399 l-149 -183h590q23 0 32 -14t9 -47v-23q0 -33 -9.5 -47t-31.5 -14h-783q-16 0 -28.5 28.5t-12.5 61.5z" />
<glyph unicode="3" horiz-adv-x="1095" d="M92 104q0 29 26.5 66t45.5 37q14 0 57 -17q131 -55 266 -55q115 0 205 65.5t90 217.5q0 147 -78.5 208.5t-228.5 61.5h-67q-20 0 -30.5 14.5t-10.5 47.5v22q0 33 10 47.5t31 14.5h59q98 0 158.5 44t87 105t26.5 119q0 76 -55 136t-188 60q-86 0 -142.5 -15t-107.5 -38 q-35 -14 -45 -14q-16 0 -42 41t-26 65q0 43 129 76t238 33q188 0 300.5 -92t112.5 -271q0 -100 -60 -173.5t-151 -108.5v-8q102 -27 180.5 -127.5t78.5 -249.5q0 -147 -69 -243.5t-173.5 -140.5t-214.5 -44q-115 0 -209 18.5t-148.5 45t-54.5 52.5z" />
<glyph unicode="4" horiz-adv-x="1095" d="M37 446q0 18 4 23l674 940q23 29 69 29h33q61 0 62 -45v-904h137q23 0 32 -14t9 -47v-25q0 -33 -9.5 -47t-31.5 -14h-137v-301q0 -45 -62 -45h-47q-61 0 -61 45v301h-623q-16 0 -32.5 37t-16.5 67zM240 489h469v603q0 23 10 63l-8 4z" />
<glyph unicode="5" horiz-adv-x="1095" d="M96 111q0 29 27 65.5t45 36.5q10 0 55 -18q59 -27 116.5 -43.5t137.5 -16.5q133 0 225.5 79t92.5 222q0 137 -94.5 209t-274.5 72h-174q-33 0 -45 14t-12 47l34 594q2 33 17.5 47.5t48.5 14.5h545q23 0 32 -14.5t9 -47.5v-24q0 -33 -9.5 -47.5t-31.5 -14.5h-445l-26 -422 h106q123 0 235.5 -41t186.5 -136t74 -251q0 -244 -142.5 -346t-349.5 -102q-106 0 -194 19.5t-138.5 48t-50.5 55.5z" />
<glyph unicode="6" horiz-adv-x="1095" d="M104 506q0 270 128 481t291 331t247 120q29 0 48.5 -41t19.5 -68q0 -16 -17 -22q-203 -84 -328.5 -224.5t-177.5 -320.5q117 68 277 67q109 0 198 -51t141 -145t52 -217q0 -127 -58.5 -224.5t-158.5 -149.5t-225 -52q-215 0 -326 134t-111 382zM276 489q0 -195 79 -273.5 t196 -78.5q59 0 118.5 30t99.5 91t40 150q0 139 -78 206.5t-190 67.5q-133 0 -256 -70q-8 -82 -9 -123z" />
<glyph unicode="7" horiz-adv-x="1095" d="M113 1348v24q0 33 10 47.5t31 14.5h809q12 0 26.5 -37t14.5 -68q0 -10 -5 -22l-606 -1278q-8 -14 -29.5 -23.5t-52.5 -9.5h-24q-47 0 -67.5 8t-20.5 29q0 4 8 24l592 1229h-645q-20 0 -30.5 14.5t-10.5 47.5z" />
<glyph unicode="8" horiz-adv-x="1095" d="M104 414q0 150 59.5 231.5t168.5 132.5q-78 47 -124 125t-46 189q0 168 109.5 261t279.5 93t281.5 -93t111.5 -261q0 -219 -199 -312q117 -53 181.5 -133t64.5 -233q0 -209 -124 -317.5t-320 -108.5q-195 0 -319 108.5t-124 317.5zM281 414q0 -133 75.5 -206t190.5 -73 t191.5 73t76.5 206q0 84 -37 136t-92 79.5t-151 62.5l-66 25q-88 -53 -138 -124t-50 -179zM334 1092q0 -78 33.5 -125t87 -74t141.5 -57q176 102 176 256q0 104 -61.5 155t-159.5 51q-96 0 -156.5 -51t-60.5 -155z" />
<glyph unicode="9" horiz-adv-x="1095" d="M113 1018q0 127 58 224t158.5 149.5t225.5 52.5q215 0 325.5 -134t110.5 -382q0 -270 -128 -481t-290.5 -331t-246.5 -120q-29 0 -48.5 41t-19.5 67q0 16 16 23q203 84 329 224.5t177 320.5q-117 -68 -276 -68q-109 0 -198 51.5t-141 145.5t-52 217zM287 1026 q0 -139 77.5 -206.5t190.5 -67.5q135 -1 256 69q8 82 8 123q0 195 -78.5 273.5t-195.5 78.5q-59 0 -118.5 -29.5t-99.5 -91t-40 -149.5z" />
<glyph unicode=":" horiz-adv-x="405" d="M104 41v135q0 45 82 45h35q82 0 82 -45v-135q0 -45 -82 -45h-35q-82 0 -82 45zM104 895v135q0 45 82 45h35q82 0 82 -45v-135q0 -45 -82 -45h-35q-82 0 -82 45z" />
<glyph unicode=";" horiz-adv-x="405" d="M25 -207q0 12 18 49q70 139 70 314q0 31 20.5 48t61.5 17h18q39 0 60.5 -15.5t21.5 -41.5q0 -115 -37 -206t-87 -143.5t-87 -52.5q-23 0 -41 7.5t-18 23.5zM104 895v135q0 45 82 45h35q82 0 82 -45v-135q0 -45 -82 -45h-35q-82 0 -82 45z" />
<glyph unicode="&#x3c;" horiz-adv-x="1146" d="M84 449v34q0 49 51 72l842 356q16 6 31 7q18 0 30.5 -14.5t12.5 -39.5v-28q0 -49 -50 -72l-729 -297l729 -299q49 -20 50 -72v-28q0 -25 -12.5 -39.5t-30.5 -14.5q-15 0 -31 6l-842 357q-51 23 -51 72z" />
<glyph unicode="=" horiz-adv-x="1146" d="M98 281v16q0 61 62 61h827q61 0 62 -61v-16q0 -61 -62 -62h-827q-29 0 -45.5 16.5t-16.5 45.5zM98 616v15q0 61 62 61h827q61 0 62 -61v-15q0 -61 -62 -61h-827q-29 0 -45.5 16.5t-16.5 44.5z" />
<glyph unicode="&#x3e;" horiz-adv-x="1146" d="M94 66v28q0 51 49 72l729 299l-729 297q-49 23 -49 72v28q0 25 12.5 39t30.5 14q16 0 31 -6l842 -356q51 -23 51 -72v-35q0 -49 -51 -71l-842 -357q-14 -6 -31 -6q-18 0 -30.5 14.5t-12.5 39.5z" />
<glyph unicode="?" horiz-adv-x="911" d="M98 1329q0 49 115 83t238 34q131 0 226 -46t144 -125t49 -173t-49 -170t-145 -174q-100 -98 -150.5 -162t-60.5 -141q-4 -20 -18.5 -30.5t-49.5 -10.5h-30q-62 0 -62 47q0 70 46 155.5t130 169.5q102 102 148.5 165t46.5 130q0 213 -258 213q-57 0 -104.5 -14t-100.5 -37 q-41 -18 -49 -18q-14 0 -40 41t-26 63zM279 41v135q0 45 81 45h35q82 0 82 -45v-135q0 -45 -82 -45h-35q-81 0 -81 45z" />
<glyph unicode="@" horiz-adv-x="1994" d="M172 485q0 266 122 485.5t333 346.5t467 127q204 0 358 -83t239 -233.5t85 -349.5q0 -184 -55.5 -337.5t-153 -241.5t-221.5 -88q-92 0 -147.5 49t-55.5 121v14q-51 -94 -123 -139t-154 -45q-70 0 -136 33.5t-113.5 116.5t-47.5 222q0 160 53.5 285t151.5 195.5t227 70.5 q76 0 133.5 -29.5t94.5 -66.5q6 16 15 43t20.5 37t35.5 10h13q45 0 45 -43q-10 -98 -39 -373.5t-29 -306.5q0 -86 82 -86q74 0 142.5 78t109.5 207t41 274q0 172 -71.5 302t-200.5 202t-299 72q-223 0 -409.5 -116t-294 -314.5t-107.5 -438.5q0 -193 69.5 -341t196.5 -230 t291 -82q88 0 145 12.5t111 32.5q43 14 59 14q29 0 29 -47q0 -53 -116 -77.5t-228 -24.5q-197 0 -348.5 93t-235.5 262t-84 388zM719 494q0 -137 49 -197.5t131 -60.5q70 0 141.5 67.5t122.5 220.5q2 19 14.5 146t24.5 168q-84 70 -188 69q-162 0 -228.5 -116.5 t-66.5 -296.5z" />
<glyph unicode="A" horiz-adv-x="1255" d="M25 31q0 10 6 28l485 1346q12 33 82 33h59q74 0 82 -33l486 -1348q6 -14 6 -26q0 -35 -88 -35h-17q-72 0 -82 33l-120 336h-602l-117 -336q-10 -33 -82 -33h-10q-88 0 -88 35zM379 520h489l-215 610q-10 33 -24 119h-4q-16 -82 -31 -119z" />
<glyph unicode="B" horiz-adv-x="1214" d="M199 61v1311q0 33 14 47.5t47 14.5h367q223 0 340.5 -98.5t117.5 -264.5q0 -102 -67.5 -194.5t-157.5 -116.5v-8q0 1 2 1q11 0 78 -32q80 -39 143.5 -114t63.5 -195q0 -412 -535 -412h-352q-33 0 -47 14.5t-14 46.5zM379 156h299q135 0 209 70.5t74 193.5q0 115 -81 177 t-237 62h-264v-503zM379 815h237q123 0 203 69.5t80 170.5q0 115 -69.5 169t-221.5 54h-229v-463z" />
<glyph unicode="C" horiz-adv-x="1267" d="M117 717q0 729 663 729q100 0 193.5 -21.5t148.5 -52.5q49 -29 49 -53q0 -29 -25.5 -74t-43.5 -45q-6 0 -52 25.5t-113 45t-153 19.5q-248 0 -364.5 -137t-116.5 -438q0 -295 116 -433.5t357 -138.5q100 0 172 23.5t142 60.5q29 18 38 19q18 0 45 -45t27 -66 q0 -31 -65 -67q-61 -35 -155.5 -57.5t-203.5 -22.5q-338 0 -498.5 177t-160.5 552z" />
<glyph unicode="D" horiz-adv-x="1423" d="M199 61v1311q0 33 14 47.5t47 14.5h414q287 0 460 -171t173 -546q0 -377 -173 -547t-460 -170h-414q-33 0 -47 14.5t-14 46.5zM379 156h280q207 0 334 135t127 426q0 289 -127 425t-334 136h-280v-1122z" />
<glyph unicode="E" horiz-adv-x="1118" d="M199 61v1311q0 33 14 47.5t47 14.5h715q23 0 32 -14.5t9 -47.5v-33q0 -33 -9.5 -47t-31.5 -14h-596v-467h534q23 0 32 -14.5t9 -46.5v-33q0 -33 -9 -47.5t-32 -14.5h-534v-499h598q23 0 32 -14.5t9 -47.5v-33q0 -33 -9.5 -47t-31.5 -14h-717q-33 0 -47 14.5t-14 46.5z " />
<glyph unicode="F" horiz-adv-x="1030" d="M199 41v1331q0 33 14 47.5t47 14.5h645q23 0 32 -14.5t9 -47.5v-33q0 -33 -9 -47t-32 -14h-526v-467h489q23 0 32 -14.5t9 -46.5v-33q0 -33 -9 -47.5t-32 -14.5h-489v-614q0 -45 -82 -45h-16q-82 0 -82 45z" />
<glyph unicode="G" horiz-adv-x="1376" d="M117 705q0 741 663 741q96 0 187.5 -19.5t147.5 -50t56 -57.5q0 -29 -25.5 -74t-43.5 -45q-6 0 -52 25.5t-113 45t-153 19.5q-260 0 -370.5 -143t-110.5 -424q0 -266 102.5 -423t356.5 -157q76 0 148.5 7.5t115.5 19.5v414h-240q-20 0 -30.5 14t-10.5 47v33q0 33 10.5 47 t30.5 14h359q33 0 47 -14t14 -47v-543q0 -80 -128 -113.5t-328 -33.5q-309 0 -471 178t-162 539z" />
<glyph unicode="H" horiz-adv-x="1501" d="M199 41v1352q0 45 82 45h16q82 0 82 -45v-580h741v580q0 45 82 45h17q82 0 81 -45v-1352q0 -45 -81 -45h-17q-82 0 -82 45v616h-741v-616q0 -45 -82 -45h-16q-82 0 -82 45z" />
<glyph unicode="I" horiz-adv-x="579" d="M199 41v1352q0 45 82 45h16q82 0 82 -45v-1352q0 -45 -82 -45h-16q-82 0 -82 45z" />
<glyph unicode="J" horiz-adv-x="823" d="M12 53q0 20 12.5 66.5t32.5 46.5q10 0 48 -9.5t81 -9.5q152 0 219.5 59.5t67.5 192.5v994q0 45 82 45h16q82 0 82 -45v-973q0 -432 -434 -432q-80 0 -143.5 14t-63.5 51z" />
<glyph unicode="K" horiz-adv-x="1179" d="M199 41v1352q0 45 82 45h16q82 0 82 -45v-627h8l504 643q23 29 110 29h21q35 0 53.5 -7.5t18.5 -19.5q0 -18 -21 -41l-512 -639l621 -674q18 -20 18 -32q0 -16 -20.5 -22.5t-69.5 -6.5h-25q-45 0 -70.5 4t-41.5 23l-586 659h-8v-641q0 -45 -82 -45h-16q-82 0 -82 45z" />
<glyph unicode="L" horiz-adv-x="991" d="M199 61v1332q0 45 82 45h16q82 0 82 -45v-1237h563q23 0 32 -14.5t9 -47.5v-33q0 -33 -9 -47t-32 -14h-682q-33 0 -47 14.5t-14 46.5z" />
<glyph unicode="M" horiz-adv-x="1726" d="M184 41v1352q0 45 82 45h74q66 0 86 -37l387 -672q37 -63 53 -129q16 51 64 135l377 666q20 37 86 37h67q82 0 82 -45v-1352q0 -45 -82 -45h-14q-82 0 -82 45v985q0 76 4 113l-8 2q-31 -61 -49 -92l-359 -623q-14 -27 -45 -27h-82q-31 0 -45 27l-364 635q-18 31 -49 92 l-9 -2q4 -37 4 -113v-997q0 -45 -81 -45h-15q-82 0 -82 45z" />
<glyph unicode="N" horiz-adv-x="1472" d="M184 41v1352q0 45 82 45h43q33 0 52.5 -8.5t33.5 -30.5l643 -971q35 -51 68 -123l8 2q-4 47 -4 139v947q0 45 82 45h14q82 0 82 -45v-1352q0 -45 -82 -45h-41q-53 0 -71 29l-660 995q-35 51 -67 123l-9 -2q4 -47 4 -140v-960q0 -45 -81 -45h-15q-82 0 -82 45z" />
<glyph unicode="O" horiz-adv-x="1497" d="M117 721q0 358 160.5 541.5t470.5 183.5q309 0 470.5 -183.5t161.5 -541.5t-161.5 -545.5t-470.5 -187.5q-308 0 -469.5 187t-161.5 546zM303 721q0 -283 113.5 -430.5t331.5 -147.5q217 0 331.5 147.5t114.5 430.5q0 281 -114.5 425t-331.5 144t-331 -144.5t-114 -424.5 z" />
<glyph unicode="P" horiz-adv-x="1167" d="M174 41v1331q0 33 14.5 47.5t47.5 14.5h415q180 0 318.5 -86t138.5 -316q0 -170 -80 -264t-178 -126t-178 -32h-318v-569q0 -45 -82 -45h-16q-82 0 -82 45zM354 766h320q88 0 168 59.5t80 206.5q0 137 -82 191.5t-195 54.5h-291v-512z" />
<glyph unicode="Q" horiz-adv-x="1497" d="M117 711q0 360 161.5 547.5t469.5 187.5q309 0 470.5 -188.5t161.5 -546.5q0 -291 -105.5 -469.5t-305.5 -231.5v-8l403 -127q29 -10 29 -31q0 -14 -12.5 -51t-33 -66.5t-40.5 -29.5q-17 0 -340.5 128t-470.5 187q-387 154 -387 699zM303 711q0 -279 116 -426.5 t329 -147.5q215 0 330.5 148.5t115.5 425.5q0 279 -116.5 429t-329.5 150t-329 -149.5t-116 -429.5z" />
<glyph unicode="R" horiz-adv-x="1249" d="M199 41v1331q0 33 14 47.5t47 14.5h344q246 0 370 -87t124 -276q0 -127 -61.5 -214t-174.5 -132v-8q59 -20 99 -79.5t86 -176.5l159 -404q6 -18 6 -28q0 -33 -86 -33h-20q-31 0 -53.5 9t-28.5 24l-156 401q-45 117 -112.5 159t-192.5 42h-184v-590q0 -45 -82 -45h-16 q-82 0 -82 45zM379 786h270q72 0 132.5 35t95 92.5t34.5 124.5q0 121 -73.5 180.5t-202.5 59.5h-256v-492z" />
<glyph unicode="S" horiz-adv-x="1024" d="M76 137q0 25 27.5 68t43.5 43q8 0 43 -21q63 -35 136 -59.5t174 -24.5q119 0 193.5 66.5t74.5 175.5q0 76 -41 126t-99.5 80t-168.5 73q-119 47 -188.5 85.5t-119 115.5t-49.5 202q0 111 56.5 197t160 134t238.5 48q70 0 156 -19.5t133 -52.5q41 -25 41 -53 q0 -23 -25.5 -66t-40.5 -43q-10 0 -29.5 10.5t-25.5 14.5q-102 53 -213 53q-119 0 -191.5 -61.5t-72.5 -169.5q0 -70 35.5 -113t82 -64.5t160.5 -66.5q123 -47 201 -91t132 -127t54 -212q0 -184 -122.5 -290.5t-331.5 -106.5q-123 0 -227.5 28.5t-157.5 69.5q-39 29 -39 51z " />
<glyph unicode="T" horiz-adv-x="1124" d="M41 1339v33q0 33 10 47.5t31 14.5h960q23 0 32 -14.5t9 -47.5v-33q0 -33 -9 -47t-32 -14h-387v-1237q0 -45 -82 -45h-16q-82 0 -82 45v1237h-393q-20 0 -30.5 14.5t-10.5 46.5z" />
<glyph unicode="U" horiz-adv-x="1458" d="M170 459v934q0 45 82 45h16q82 0 82 -45v-940q0 -90 49.5 -161t135.5 -110t194 -39q109 0 195 40t135 111t49 159v940q0 45 82 45h16q82 0 82 -45v-934q0 -223 -145.5 -347t-413.5 -124q-270 0 -414.5 124t-144.5 347z" />
<glyph unicode="V" horiz-adv-x="1263" d="M43 1403q0 35 88 35h19q72 0 81 -33l379 -1094l21 -106h6l22 108l379 1092q10 33 82 33h13q88 0 88 -35q0 -10 -7 -29l-469 -1345q-10 -33 -81 -33h-64q-72 0 -82 33l-469 1347q-6 16 -6 27z" />
<glyph unicode="W" horiz-adv-x="1806" d="M31 1403q0 35 88 35h20q74 0 82 -33l260 -1008q10 -39 22.5 -109.5t14.5 -80.5l49 196l248 1000q8 35 80 35h33q72 0 80 -35l254 -1008q12 -45 22 -107.5t12 -80.5l50 194l247 1004q8 33 82 33h13q88 0 88 -35l-7 -29l-354 -1345q-8 -33 -82 -33h-84q-74 0 -82 33 l-223 833l-43 266l-43 -266l-223 -833q-8 -33 -82 -33h-84q-74 0 -82 33l-350 1345q-6 25 -6 29z" />
<glyph unicode="X" horiz-adv-x="1251" d="M41 31q0 14 16 37l459 680l-410 618q-16 23 -16 37q0 35 94 35h29q35 0 55.5 -6.5t32.5 -24.5l328 -494l338 496q18 29 88 29h12q51 0 72.5 -8.5t21.5 -26.5q0 -14 -16 -37l-410 -608l461 -690q16 -23 16 -37q0 -35 -94 -35h-33q-35 0 -55 6t-33 25l-376 563l-381 -565 q-18 -29 -88 -29h-17q-51 0 -72.5 8t-21.5 27z" />
<glyph unicode="Y" horiz-adv-x="1144" d="M37 1403q0 35 94 35h23q35 0 55 -6.5t33 -24.5l336 -504l344 506q18 29 92 29h14q43 -2 61.5 -10.5t18.5 -24.5q0 -14 -16 -37l-430 -637v-688q0 -45 -82 -45h-17q-82 0 -82 45v694l-428 631q-16 23 -16 37z" />
<glyph unicode="Z" horiz-adv-x="1261" d="M78 109q0 16 6 24l840 1145h-738q-23 0 -32 16.5t-9 53.5v16q0 37 9.5 53.5t31.5 16.5h938q12 0 28.5 -39t16.5 -70q0 -14 -6 -25l-839 -1144h800q23 0 32 -16.5t9 -53.5v-16q0 -37 -9 -53.5t-32 -16.5h-997q-14 0 -31.5 39t-17.5 70z" />
<glyph unicode="[" horiz-adv-x="595" d="M184 -221v1732q0 33 14.5 47.5t47.5 14.5h248q23 0 32 -13.5t9 -46.5v-10q0 -33 -9.5 -46t-31.5 -13h-158v-1600h158q23 0 32 -13t9 -46v-8q0 -33 -9.5 -46.5t-31.5 -13.5h-248q-33 0 -47.5 14.5t-14.5 47.5z" />
<glyph unicode="\" horiz-adv-x="739" d="M10 1397q0 41 49 41h9q51 0 71 -47l586 -1360q6 -14 6 -31q0 -18 -13 -29.5t-40 -11.5h-8q-27 0 -42.5 11.5t-25.5 35.5l-586 1360q-6 16 -6 31z" />
<glyph unicode="]" horiz-adv-x="595" d="M61 -215q0 33 9.5 46t31.5 13h158v1600h-158q-23 0 -32 13t-9 46v10q0 33 9.5 46.5t31.5 13.5h248q33 0 47.5 -14.5t14.5 -47.5v-1732q0 -33 -14.5 -47.5t-47.5 -14.5h-248q-22 0 -31.5 13.5t-9.5 46.5v8z" />
<glyph unicode="^" horiz-adv-x="921" d="M109 698q0 14 6 29l256 633q10 25 26.5 33t42.5 8h41q29 0 45.5 -9.5t24.5 -31.5l256 -633q6 -14 6 -29q0 -20 -14.5 -31.5t-40.5 -11.5h-8q-51 0 -72 47l-217 535l-219 -535q-20 -47 -70 -47h-8q-27 0 -41 11.5t-14 31.5z" />
<glyph unicode="_" horiz-adv-x="1093" d="M-43 -225q0 41 41 41h1098q41 0 41 -41v-17q0 -41 -41 -41h-1098q-41 0 -41 41v17z" />
<glyph unicode="`" d="M152 1473q0 14 23.5 20t74.5 6q49 0 79.5 -12t47.5 -41q59 -102 89 -157.5t30 -69.5q0 -20 -47 -21q-70 0 -105 37l-78 88q-80 90 -97 113.5t-17 36.5z" />
<glyph unicode="a" horiz-adv-x="1116" d="M100 295q0 162 97.5 242.5t239 104.5t343.5 26v96q0 76 -53 124t-172 48q-90 0 -157.5 -21.5t-112.5 -43t-49 -21.5q-20 0 -46 41t-26 61q0 27 54 57.5t144.5 52t186.5 21.5q190 0 296.5 -85t106.5 -236v-459q0 -135 12.5 -193.5t12.5 -64.5q0 -25 -39 -36t-72 -11 q-29 0 -42 31.5t-20 66.5l-9 45q-138 -153 -341 -153h-3q-158 0 -254.5 77.5t-96.5 229.5zM285 305q0 -82 44 -125t130 -43q100 0 173 37t148 105v241q-154 -2 -251 -12t-170.5 -57.5t-73.5 -145.5z" />
<glyph unicode="b" horiz-adv-x="1165" d="M174 41v1454q0 45 82 45h8q82 0 82 -45v-516q66 51 134.5 77.5t158.5 26.5q123 0 217 -63.5t146.5 -186t52.5 -296.5q0 -160 -48.5 -285t-138.5 -194.5t-211 -69.5h-2q-177 0 -323 153q-10 -61 -33 -121q-10 -24 -52 -24h-3h-8q-61 0 -62 45zM346 279q61 -68 134 -105 t143 -37q120 0 185.5 107.5t65.5 306.5q0 184 -69.5 282.5t-204.5 98.5q-68 0 -134.5 -23.5t-119.5 -68.5v-561z" />
<glyph unicode="c" horiz-adv-x="993" d="M106 541q0 293 139.5 417.5t346.5 124.5q119 0 213 -28.5t94 -65.5q0 -27 -23.5 -68.5t-41.5 -41.5q-4 0 -9.5 3t-13.5 5q-111 49 -223 49q-297 0 -297 -391q0 -217 72.5 -313.5t244.5 -96.5q125 0 232 53l22 9q20 0 45 -40t25 -65t-44 -48.5t-118 -39.5t-160 -16 q-254 0 -379 131t-125 422z" />
<glyph unicode="d" horiz-adv-x="1157" d="M106 535q0 174 52.5 297.5t146.5 187t217 63.5q90 0 159 -26.5t134 -77.5v516q0 45 82 45h8q82 0 82 -45v-1192q0 -135 12.5 -193.5t12.5 -64.5q0 -25 -39 -36t-72 -11q-29 0 -42 31.5t-20.5 66.5t-9.5 45q-146 -153 -323 -153h-2q-121 0 -211 69.5t-138.5 194.5 t-48.5 283zM287 551q0 -199 65.5 -306.5t186.5 -107.5q69 0 142 37t134 105v561q-111 92 -252 92q-137 0 -206.5 -98.5t-69.5 -282.5z" />
<glyph unicode="e" horiz-adv-x="1103" d="M113 528q0 272 120.5 413.5t356.5 141.5q209 0 315.5 -136t106.5 -398q0 -18 -24.5 -51t-43.5 -33h-647q12 -170 88 -250t227 -80q86 0 148.5 21.5t103.5 43t47 21.5q20 0 46 -41t26 -61q0 -25 -51 -56.5t-136 -53t-182 -21.5q-256 0 -378.5 133t-122.5 407zM297 612h532 q0 324 -245 324q-264 0 -287 -324z" />
<glyph unicode="f" horiz-adv-x="665" d="M98 985v25q0 33 10.5 47t30.5 14h82v195q0 162 80 222t184 60q150 0 150 -61q0 -20 -12.5 -58t-30.5 -38q-10 0 -29.5 5t-58.5 5q-53 0 -82 -30t-29 -122v-178h178q23 0 32 -14.5t9 -46.5v-25q0 -33 -9 -47t-32 -14h-178v-883q0 -45 -82 -45h-8q-82 0 -82 45v883h-82 q-20 0 -30.5 14t-10.5 47z" />
<glyph unicode="g" horiz-adv-x="1118" d="M94 -180q0 90 51.5 155.5t135.5 100.5l2 4q-82 66 -82 168q0 133 114 213q-86 43 -131 118.5t-45 170.5q0 145 106.5 239t297.5 94q66 0 121 -12h372q23 0 32 -14.5t9 -46.5v-25q0 -33 -9 -47t-32 -14q-84 0 -143 6l-2 -4q53 -76 53 -176q0 -147 -105.5 -241.5 t-297.5 -94.5q-96 0 -145.5 -34t-49.5 -108q0 -53 34 -80.5t85 -40t143 -22.5q45 -4 68 -8q147 -18 228 -68.5t81 -177.5q0 -150 -118.5 -229.5t-348.5 -79.5q-196 0 -310 61.5t-114 192.5zM248 -147q0 -147 293 -148q143 0 211.5 37t68.5 115q0 72 -67.5 96t-202.5 39 q-123 12 -168 26q-135 -57 -135 -165zM297 748q0 -197 244 -197q112 0 178.5 46t66.5 151q0 198 -243 198h-2q-244 0 -244 -198z" />
<glyph unicode="h" horiz-adv-x="1157" d="M188 41v1454q0 45 82 45h9q82 0 81 -45v-553q61 61 142.5 101t171.5 40q129 0 227 -72.5t98 -258.5v-711q0 -45 -81 -45h-9q-82 0 -82 45v694q0 92 -53 145.5t-156 53.5q-68 0 -125 -32t-95 -69.5t-38 -41.5v-750q0 -45 -81 -45h-9q-82 0 -82 45z" />
<glyph unicode="i" horiz-adv-x="542" d="M178 1311v114q0 49 98 50q90 0 91 -50v-114q0 -49 -99 -49q-90 0 -90 49zM186 41v989q0 45 82 45h8q82 0 82 -45v-989q0 -45 -82 -45h-8q-82 0 -82 45z" />
<glyph unicode="j" horiz-adv-x="565" d="M-35 -373q0 20 12.5 58.5t30.5 38.5q10 0 29.5 -5.5t58.5 -5.5q51 0 81 33t30 119v1165q0 45 82 45h8q82 0 82 -45v-1182q0 -158 -81 -220t-183 -62q-150 0 -150 61zM199 1311v114q0 49 98 50q90 0 90 -50v-114q0 -49 -98 -49q-90 0 -90 49z" />
<glyph unicode="k" horiz-adv-x="1067" d="M193 41v1454q0 45 81 45h9q82 0 82 -45v-915h8l391 467q22 28 102 28h6h9q35 0 53 -7t18 -19q0 -18 -20 -41l-381 -451l422 -500q18 -20 18 -32q0 -16 -20.5 -22.5t-69.5 -6.5h-8q-43 0 -69.5 5t-41.5 22l-409 485h-8v-467q0 -45 -82 -45h-9q-82 0 -81 45z" />
<glyph unicode="l" horiz-adv-x="608" d="M168 270v1225q0 45 82 45h8q82 0 82 -45v-1208q0 -86 29.5 -119t81.5 -33q39 0 58 5t30 5q18 0 30.5 -37.5t12.5 -58.5q0 -61 -150 -61q-102 0 -183 62.5t-81 219.5z" />
<glyph unicode="m" horiz-adv-x="1736" d="M150 1018q0 25 38.5 36t71.5 11q29 0 42 -29.5t20.5 -62.5t9.5 -43q57 66 138 109.5t173 43.5t173 -37.5t120 -132.5q63 74 148 122t178 48q129 0 225 -72.5t96 -258.5v-711q0 -45 -82 -45h-8q-82 0 -82 45v694q0 92 -50 145.5t-147 53.5q-131 0 -251 -143q2 -14 2 -41 v-709q0 -45 -82 -45h-9q-82 0 -81 45v694q0 92 -50.5 145.5t-146.5 53.5q-66 0 -122 -32t-92 -68.5t-36 -40.5v-752q0 -45 -82 -45h-8q-82 0 -82 45v719q0 135 -12 193.5t-12 64.5z" />
<glyph unicode="n" horiz-adv-x="1140" d="M152 1018q0 25 38.5 36t71.5 11q29 0 42 -29.5t20.5 -62.5t9.5 -43q66 72 149.5 112.5t169.5 40.5q156 0 245 -88t89 -243v-711q0 -45 -82 -45h-8q-82 0 -82 45v694q0 94 -54 146.5t-155 52.5q-70 0 -138.5 -39t-119.5 -104v-750q0 -45 -82 -45h-8q-82 0 -82 45v719 q0 135 -12 193.5t-12 64.5z" />
<glyph unicode="o" horiz-adv-x="1165" d="M113 530q0 266 122.5 409.5t352.5 143.5q225 0 345 -142t120 -411q0 -266 -118 -404t-347 -138q-232 0 -353.5 139t-121.5 403zM293 535q0 -205 69.5 -302.5t219.5 -97.5q149 0 220.5 97.5t71.5 302.5t-71.5 303t-220.5 98q-150 0 -219.5 -97.5t-69.5 -303.5z" />
<glyph unicode="p" horiz-adv-x="1173" d="M152 1018q0 25 38.5 36t71.5 11q29 0 42 -29.5t20.5 -62.5t9.5 -43q146 153 323 153h2q125 0 214.5 -70.5t136.5 -194.5t47 -283q0 -174 -52.5 -297t-146.5 -186.5t-217 -63.5q-90 0 -158.5 26.5t-134.5 77.5v-473q0 -45 -82 -45h-8q-82 0 -82 45v1141q0 135 -12 193.5 t-12 64.5zM348 231q111 -92 254 -92q135 0 205 98.5t70 282.5q0 199 -66 306.5t-186 107.5q-70 0 -142.5 -37t-134.5 -104v-562z" />
<glyph unicode="q" horiz-adv-x="1159" d="M106 532q0 160 48.5 285t138.5 195.5t211 70.5q178 0 325 -153q16 82 33 121q10 24 53 24h3h8q61 0 61 -45v-1411q0 -45 -82 -45h-8q-82 0 -82 45v473q-66 -51 -134.5 -77.5t-158.5 -26.5q-123 0 -217 63.5t-146.5 186t-52.5 294.5zM287 520q0 -184 69.5 -282.5 t204.5 -98.5q143 0 254 92v562q-61 68 -134 104.5t-142 36.5q-121 0 -186.5 -107.5t-65.5 -306.5z" />
<glyph unicode="r" horiz-adv-x="749" d="M160 1018q0 25 39 36t71 11q29 0 42.5 -29.5t20.5 -62.5t9 -43q108 153 236 153h2q57 0 87.5 -22.5t30.5 -56.5q0 -35 -12 -73t-29 -38q-10 0 -39.5 11t-72.5 11q-47 0 -89 -27.5t-71 -60t-29 -36.5v-750q0 -45 -82 -45h-8q-82 0 -82 45v719q0 135 -12 193.5t-12 64.5z " />
<glyph unicode="s" horiz-adv-x="845" d="M72 111q0 20 25.5 61t45.5 41q4 0 39 -22.5t87.5 -41t115.5 -18.5q201 0 201 166q0 70 -45 111t-160 73q-162 47 -223.5 118t-61.5 189q0 86 44 154t121 105.5t175 37.5q104 0 187.5 -26.5t83.5 -61.5q0 -27 -24 -68.5t-42 -41.5q-6 2 -54 27.5t-132 25.5 q-78 0 -130.5 -35t-52.5 -94q0 -70 37 -111t123 -67q131 -41 199.5 -81t98.5 -98.5t30 -152.5q0 -90 -48 -162.5t-131 -114.5t-184 -42q-88 0 -162.5 21.5t-118.5 52t-44 55.5z" />
<glyph unicode="t" horiz-adv-x="700" d="M76 985v25q0 33 10 47t31 14h102l25 215q6 45 65 45h21q61 0 61 -45v-215h172q23 0 32 -14.5t9 -46.5v-25q0 -33 -9 -47t-32 -14h-172v-637q0 -86 30 -119t81 -33q39 0 58.5 5t29.5 5q18 0 30.5 -37.5t12.5 -58.5q0 -61 -150 -61q-102 0 -183 62.5t-81 219.5v654h-102 q-20 0 -30.5 14t-10.5 47z" />
<glyph unicode="u" horiz-adv-x="1140" d="M154 319v711q0 45 82 45h8q82 0 82 -45v-694q0 -94 54 -146.5t155 -52.5q70 0 138 39t120 105v749q0 45 81 45h9q82 0 82 -45v-727q0 -135 12 -193.5t11 -64.5q0 -25 -38.5 -36t-70.5 -11q-29 0 -42.5 31.5t-20.5 66.5l-9 45q-66 -72 -150 -112.5t-170 -40.5 q-155 0 -244 88t-89 243z" />
<glyph unicode="v" horiz-adv-x="993" d="M43 1040q0 35 88 35h10q72 0 82 -33l209 -653q20 -66 72 -256h8l14 62q23 117 47 190l211 657q10 33 84 33h6q76 0 76 -35q0 -10 -6 -28l-330 -983q-10 -33 -82 -33h-71q-72 0 -82 33l-330 985q-6 18 -6 26z" />
<glyph unicode="w" horiz-adv-x="1529" d="M61 1040q0 35 95 35q74 0 82 -33l172 -655q6 -18 14 -62t12 -67l21 -106h8q33 182 47 237l170 651q8 35 80 35h14q72 0 80 -35l172 -651q23 -90 34 -156.5t15 -85.5h4l15 86q23 117 30 152l172 657q8 33 84 33q82 0 82 -35q0 -10 -6 -28l-274 -983q-8 -33 -82 -33h-62 q-72 0 -79 33l-164 649q-8 27 -21 108l-8 54h-4l-8 -49q-12 -84 -21 -111l-168 -651q-8 -33 -82 -33h-61q-74 0 -82 33l-270 970q-10 31 -11 41z" />
<glyph unicode="x" horiz-adv-x="993" d="M41 31q0 14 16 37l332 481l-307 455q-16 23 -16 36q0 35 94 35h18q35 0 55.5 -6t32.5 -25l195 -292q14 -20 43 -72q29 51 43 72l196 295q17 28 88 28h5h8q45 0 65.5 -8t20.5 -27q0 -14 -17 -36l-309 -451l332 -485q16 -23 16 -37q0 -35 -94 -35h-18q-35 0 -55.5 6 t-32.5 25l-217 325q-14 23 -43 72q-29 -49 -43 -72l-222 -327q-20 -29 -92 -29h-6q-47 0 -67.5 8t-20.5 27z" />
<glyph unicode="y" horiz-adv-x="985" d="M37 1040q0 35 88 35h16q72 0 82 -33l209 -555q33 -90 66 -206h4q4 14 8 27.5t8 25.5l51 153l205 555q10 33 84 33h6q82 0 82 -35q0 -10 -6 -28l-526 -1395q-16 -43 -97 -43h-30q-68 0 -68 33q0 8 10 35l172 417l-358 955q-6 18 -6 26z" />
<glyph unicode="z" horiz-adv-x="1001" d="M76 104q0 14 6 23l600 797h-524q-20 0 -30.5 14t-10.5 47v25q0 33 10 47t31 14h719q14 0 27.5 -38t13.5 -68q0 -12 -5 -21l-598 -797h564q23 0 32 -14t9 -47v-25q0 -33 -9.5 -47t-31.5 -14h-758q-12 0 -28.5 37t-16.5 67z" />
<glyph unicode="{" horiz-adv-x="561" d="M41 631v28q0 27 12.5 42.5t38.5 27.5q63 29 84 89.5t21 174.5v342q0 129 51 183.5t108 54.5h103q23 0 32 -13.5t9 -46.5v-8q0 -33 -9.5 -46t-31.5 -13h-45q-41 0 -55.5 -30t-14.5 -95v-360q0 -129 -52 -204t-108 -114q25 -12 62 -48t67.5 -103.5t30.5 -161.5v-359 q0 -66 14.5 -96.5t55.5 -30.5h45q23 0 32 -13t9 -46v-8q0 -33 -9.5 -46.5t-31.5 -13.5h-103q-57 0 -108 53.5t-51 184.5v342q0 113 -20.5 175.5t-84.5 88.5q-27 12 -39 27.5t-12 42.5z" />
<glyph unicode="|" horiz-adv-x="512" d="M197 -242v1774q0 45 49 45h20q49 0 49 -45v-1774q0 -45 -49 -45h-20q-49 0 -49 45z" />
<glyph unicode="}" horiz-adv-x="561" d="M61 -215q0 33 9.5 46t31.5 13h45q41 0 55.5 31t14.5 96v359q0 94 31 161.5t67.5 103.5t61.5 48q-55 39 -107.5 113.5t-52.5 204.5v360q0 66 -14.5 95.5t-55.5 29.5h-45q-23 0 -32 13.5t-9 45.5v8q0 33 9.5 46.5t31.5 13.5h103q57 0 108.5 -54.5t51.5 -183.5v-342 q0 -115 20.5 -175t83.5 -89q27 -12 39 -27.5t12 -42.5v-28q0 -27 -12 -42.5t-39 -27.5q-63 -29 -83.5 -90t-20.5 -174v-342q0 -131 -51.5 -184.5t-108.5 -53.5h-103q-22 0 -31.5 13.5t-9.5 46.5v8z" />
<glyph unicode="~" horiz-adv-x="1120" d="M137 498q0 12 10 34q33 78 82.5 113t116.5 35q51 0 105.5 -13.5t140.5 -41.5q68 -23 114 -35t85 -12q31 0 56 13t50 46q20 31 47 31q12 0 25 -6l18 -7q29 -8 29 -24q0 -12 -12 -39q-31 -80 -76 -116t-107 -36q-57 0 -119.5 16.5t-144.5 45.5q-78 27 -120 38t-81 11 q-31 0 -53 -13.5t-49 -48.5q-20 -29 -41 -28q-6 0 -27 4l-24 8q-25 10 -25 25z" />
<glyph unicode="&#xa1;" horiz-adv-x="602" d="M168 -322q0 37 18.5 350.5t36.5 583.5q4 45 64 45h22q61 0 62 -45v-934q0 -45 -82 -45h-41q-80 0 -80 45zM197 895v135q0 45 82 45h34q82 0 82 -45v-135q0 -45 -82 -45h-34q-82 0 -82 45z" />
<glyph unicode="&#xa2;" horiz-adv-x="995" d="M106 541q0 279 126 404.5t319 135.5v80q0 33 41 33t41 -33v-78q109 -6 187.5 -33.5t78.5 -60.5q0 -27 -23.5 -68.5t-41.5 -41.5q-4 0 -9.5 3t-13.5 5q-86 41 -178 47v-799q102 4 207 53l22 9q20 0 45 -40t25 -65q0 -22 -40 -45.5t-109.5 -40t-149.5 -18.5v-109 q0 -33 -41 -33t-41 33v111q-223 14 -334 146t-111 405zM291 545q0 -199 60.5 -296t199.5 -112v797q-260 -23 -260 -389z" />
<glyph unicode="&#xa3;" horiz-adv-x="1005" d="M68 61v33q0 25 14 37t51 35q51 27 81 59.5t30 100.5v368h-113q-20 0 -30.5 14.5t-10.5 47.5v24q0 33 10.5 47.5t30.5 14.5h113v178q0 426 420 426q80 0 143 -14.5t63 -51.5q0 -18 -12 -59t-33 -41q-10 0 -48 9t-81 9q-147 0 -213.5 -64.5t-66.5 -203.5v-188h301 q23 0 32 -14.5t9 -47.5v-24q0 -33 -9.5 -47.5t-31.5 -14.5h-301v-184q0 -184 -34 -258t-83 -105h573q23 0 32 -14t9 -47v-25q0 -33 -9 -47t-32 -14h-763q-21 0 -31 14.5t-10 46.5z" />
<glyph unicode="&#xa4;" horiz-adv-x="1093" d="M174 350q0 23 23 45l49 49q-70 92 -70 215q0 121 70 215l-49 48q-20 20 -21 45q0 18 12 32l9 11q12 16 32 16q23 0 45 -25l50 -49q98 72 215 72t213 -70l49 50q20 20 41 20q20 0 39 -18l4 -5q18 -18 18 -34q0 -23 -22 -45l-50 -50q72 -94 72 -213q0 -121 -72 -215l50 -49 q23 -23 22 -43q0 -8 -6 -19t-14 -20l-2 -2q-18 -18 -37 -18q-16 0 -43 22l-49 50q-96 -68 -213 -68q-119 0 -213 68l-52 -52q-20 -20 -43 -20q-18 0 -36 18l-5 4q-16 16 -16 35zM301 659q0 -98 69.5 -167.5t168.5 -69.5q98 0 168.5 69.5t70.5 167.5t-70.5 169t-168.5 71 t-168 -70.5t-70 -169.5z" />
<glyph unicode="&#xa5;" horiz-adv-x="1144" d="M37 1403q0 35 94 35h23q35 0 55 -6.5t33 -24.5l336 -504l344 506q18 29 92 29h14q43 -2 61.5 -10.5t18.5 -24.5q0 -14 -16 -37l-338 -500h254q23 0 32 -14t9 -47v-17q0 -33 -9.5 -47t-31.5 -14h-346v-197h346q23 0 32 -14t9 -47v-16q0 -33 -9.5 -47.5t-31.5 -14.5h-346 v-350q0 -45 -82 -45h-17q-82 0 -82 45v350h-342q-20 0 -30.5 14.5t-10.5 47.5v16q0 33 10.5 47t30.5 14h342v197h-342q-20 0 -30.5 14.5t-10.5 46.5v17q0 33 10.5 47t30.5 14h254l-340 500q-16 23 -16 37z" />
<glyph unicode="&#xa6;" horiz-adv-x="512" d="M197 -242v660q0 45 49 45h20q49 0 49 -45v-660q0 -45 -49 -45h-20q-49 0 -49 45zM197 870v662q0 45 49 45h20q49 0 49 -45v-662q0 -45 -49 -45h-20q-49 0 -49 45z" />
<glyph unicode="&#xa7;" horiz-adv-x="878" d="M102 735q0 74 30 133.5t79 102.5q-78 72 -78 184q0 145 96.5 218t231.5 73q104 0 186 -26.5t82 -59.5q0 -27 -23.5 -69t-41.5 -42q-6 2 -54.5 25.5t-132.5 23.5t-126 -33.5t-42 -88.5q0 -59 43 -88t98.5 -46.5t73.5 -23.5q117 -39 184.5 -105.5t67.5 -210.5 q0 -150 -112 -237q82 -68 81 -182q0 -147 -95 -221t-230 -74q-105 0 -186.5 26.5t-81.5 59.5q0 27 23.5 68.5t41.5 41.5q6 -2 53 -25.5t131 -23.5t127 35t43 88q0 59 -42 87t-134 58l-55 19q-111 41 -174.5 107.5t-63.5 205.5zM276 735q0 -59 28 -95t71 -55.5t112 -39.5 q115 26 115 157q0 82 -53 120t-158 69q-49 -14 -82 -52t-33 -104z" />
<glyph unicode="&#xa8;" d="M96 1288v105q0 45 90 45q82 0 82 -45v-105q0 -45 -90 -45q-82 0 -82 45zM391 1288v105q0 45 90 45q82 0 82 -45v-105q0 -45 -90 -45q-82 0 -82 45z" />
<glyph unicode="&#xa9;" horiz-adv-x="1513" d="M20 725q0 201 98.5 368t267.5 264t370 97t369.5 -97t268 -264t99.5 -368t-99.5 -370t-268.5 -267t-369 -98q-201 0 -370 98t-267.5 267t-98.5 370zM119 725q0 -172 86 -318.5t232.5 -232.5t318.5 -86q174 0 320.5 86t232.5 232.5t86 318.5t-86 317.5t-232.5 229.5 t-320.5 84q-172 0 -318.5 -84t-232.5 -229.5t-86 -317.5zM395 715q0 436 398 436q88 0 160.5 -24.5t72.5 -51.5q0 -16 -15.5 -43.5t-27.5 -27.5q-2 0 -51 27.5t-137 27.5q-147 0 -218 -83t-71 -261q0 -176 69.5 -259t212.5 -83q61 0 104.5 14t73 30.5t33.5 16.5 q12 0 27.5 -26.5t15.5 -38.5q0 -16 -34.5 -38t-93 -36t-126.5 -14q-200 0 -296.5 106.5t-96.5 327.5z" />
<glyph unicode="&#xaa;" horiz-adv-x="653" d="M92 1055q0 80 48 119.5t118 51t172 13.5v49q0 37 -26.5 60.5t-86.5 23.5q-70 0 -110.5 -19.5t-46.5 -21.5q-10 0 -23.5 19.5t-13.5 29.5q0 20 59.5 43t130.5 23q94 0 147.5 -42t53.5 -118v-227q0 -63 6 -93t6 -34q0 -12 -19.5 -17.5t-35.5 -5.5t-23.5 19.5t-11.5 52.5 q-70 -78 -172 -78q-76 0 -124 39t-48 113zM184 1061q0 -82 84 -82q51 0 88 17.5t74 50.5v120q-115 0 -180.5 -18.5t-65.5 -87.5z" />
<glyph unicode="&#xab;" horiz-adv-x="964" d="M90 528q0 25 27 58l266 319q23 25 45 25q20 0 46 -20.5t26 -45.5q0 -18 -17 -41l-227 -295l227 -297q16 -23 17 -38q0 -18 -23.5 -43t-48.5 -25q-22 0 -45 27l-266 319q-27 33 -27 57zM442 528q0 25 27 58l266 319q23 25 45 25q20 0 46 -20.5t26 -45.5q0 -18 -16 -41 l-228 -295l228 -297q16 -23 16 -38q0 -18 -23.5 -43t-48.5 -25q-22 0 -45 27l-266 319q-27 33 -27 57z" />
<glyph unicode="&#xac;" horiz-adv-x="1146" d="M78 604v27q0 33 10 47t31 14h889q33 0 47 -14t14 -47v-428q0 -45 -61 -45h-27q-61 0 -61 45v340h-801q-20 0 -30.5 14t-10.5 47z" />
<glyph unicode="&#xad;" d="M90 532v21q0 33 10.5 47t30.5 14h387q23 0 32 -14t9 -47v-21q0 -33 -9 -47t-32 -14h-387q-20 0 -30.5 14.5t-10.5 46.5z" />
<glyph unicode="&#xae;" horiz-adv-x="1513" d="M20 725q0 201 98.5 368t267.5 264t370 97t369.5 -97t268 -264t99.5 -368t-99.5 -370t-268.5 -267t-369 -98q-201 0 -370 98t-267.5 267t-98.5 370zM119 725q0 -172 86 -318.5t232.5 -232.5t318.5 -86q174 0 320.5 86t232.5 232.5t86 318.5t-86 317.5t-232.5 229.5 t-320.5 84q-172 0 -318.5 -84t-232.5 -229.5t-86 -317.5zM510 324v784q0 20 8 28.5t29 8.5h203q145 0 217.5 -51.5t72.5 -161.5q0 -76 -36.5 -128t-102.5 -77v-4q35 -12 58.5 -48t50.5 -104l94 -237q4 -8 4 -19q0 -18 -51 -18h-13q-18 0 -30.5 5t-16.5 13l-92 238 q-27 70 -66.5 94.5t-113.5 24.5h-109v-348q0 -27 -49 -27h-8q-49 0 -49 27zM616 764h160q63 0 108.5 44t45.5 103q0 72 -43 107t-119 35h-152v-289z" />
<glyph unicode="&#xaf;" d="M55 1315v20q0 33 10.5 47.5t30.5 14.5h457q23 0 32 -14.5t9 -47.5v-20q0 -33 -9.5 -47.5t-31.5 -14.5h-457q-20 0 -30.5 14.5t-10.5 47.5z" />
<glyph unicode="&#xb0;" horiz-adv-x="706" d="M78 1174q0 74 37 136t98 99t135 37t136.5 -37t99.5 -99.5t37 -135.5q0 -74 -37 -135.5t-99.5 -98.5t-136.5 -37t-136 36t-98 98.5t-36 136.5zM178 1174q0 -74 50.5 -126.5t119.5 -52.5q72 0 122 52.5t50 126.5t-51 127t-121 53t-120 -53.5t-50 -126.5z" />
<glyph unicode="&#xb1;" horiz-adv-x="1146" d="M78 61v27q0 61 61 62h869q61 0 61 -62v-27q0 -61 -61 -61h-869q-61 0 -61 61zM98 731v14q0 61 62 62h346v346q0 61 61 61h15q61 0 61 -61v-346h344q61 0 62 -62v-14q0 -61 -62 -61h-344v-344q0 -61 -61 -62h-15q-28 0 -44.5 16.5t-16.5 45.5v344h-346q-29 0 -45.5 16 t-16.5 45z" />
<glyph unicode="&#xb2;" d="M70 653q0 16 4 21l309 387q53 70 67.5 101.5t14.5 72.5q0 57 -41 90t-109 33q-51 0 -85.5 -13.5t-61.5 -31t-33 -17.5q-8 0 -23.5 23.5t-15.5 38.5q0 35 76 60.5t139 25.5q119 0 187.5 -54.5t68.5 -148.5q0 -59 -18.5 -104t-68.5 -112t-187 -234l-88 -107h346 q23 0 22 -35v-12q0 -20 -5 -28.5t-17 -8.5h-459q-10 0 -16 17.5t-6 35.5z" />
<glyph unicode="&#xb3;" d="M82 659q0 16 16.5 38t26.5 22q6 0 61.5 -20.5t128.5 -20.5q68 0 120 39t52 127t-46 122.5t-134 34.5h-39q-25 0 -24 37v13q0 37 24 36h35q82 0 121 51.5t39 106.5q0 43 -33 79t-111 36q-76 0 -120.5 -19.5t-51.5 -19.5q-10 0 -25.5 24.5t-15.5 36.5q0 25 76 44.5 t140 19.5q111 0 177 -54.5t66 -156.5q0 -59 -35.5 -102t-89.5 -64v-6q61 -14 106.5 -73.5t45.5 -147.5q0 -127 -81 -189.5t-187 -62.5q-99 0 -170.5 22.5t-71.5 46.5z" />
<glyph unicode="&#xb4;" d="M152 1219q0 14 29.5 69t88.5 158q16 29 47 41t80 12q51 0 75 -6t24 -20q0 -16 -31 -54.5t-162 -183.5q-33 -37 -104 -37q-47 1 -47 21z" />
<glyph unicode="&#xb5;" horiz-adv-x="1159" d="M174 -381v1411q0 45 82 45h8q82 0 82 -45v-694q0 -94 54.5 -146.5t154.5 -52.5q70 0 138.5 39t119.5 105v749q0 45 82 45h8q82 0 82 -45v-727q0 -135 12.5 -193.5t12.5 -64.5q0 -25 -39 -36t-72 -11q-29 0 -42 31.5t-20.5 66.5t-9.5 45q-66 -72 -149.5 -112.5 t-169.5 -40.5t-162 30v-399q0 -45 -82 -45h-8q-82 0 -82 45z" />
<glyph unicode="&#xb6;" horiz-adv-x="1054" d="M84 969q0 125 62.5 232.5t170 170t232.5 62.5h436q23 0 32 -11.5t9 -38.5v-28q0 -27 -9 -38t-32 -11h-74v-1616q0 -45 -49 -45h-28q-49 0 -50 45v1616h-159v-1616q0 -45 -50 -45h-28q-49 0 -49 45v815q-115 12 -209 77.5t-149.5 167t-55.5 218.5z" />
<glyph unicode="&#xb7;" horiz-adv-x="546" d="M184 737q0 45 30 76t75 31t75.5 -31t30.5 -76t-30.5 -74.5t-75.5 -29.5t-75 29.5t-30 74.5z" />
<glyph unicode="&#xb8;" d="M92 -342q0 53 39 53q14 0 51 -14q66 -27 119 -27q117 0 117 72q0 35 -20.5 50t-59.5 28q-29 8 -42 16t-13 25q0 12 9 42.5t30 96.5h88l-29 -100h8q60 0 117 -31t57 -117q0 -182 -235 -182q-80 0 -158 24.5t-78 63.5z" />
<glyph unicode="&#xb9;" horiz-adv-x="444" d="M84 1358q0 16 20 22l218 58q14 0 25 -7.5t11 -17.5v-776q0 -14 -13 -21.5t-32 -7.5h-10q-16 0 -29.5 7.5t-13.5 21.5v692l-151 -33q-12 0 -18.5 19.5t-6.5 42.5z" />
<glyph unicode="&#xba;" horiz-adv-x="690" d="M113 1171q0 133 61.5 204t173.5 71q111 0 170.5 -70.5t59.5 -204.5q0 -131 -58.5 -199.5t-171.5 -68.5q-115 0 -175 68.5t-60 199.5zM201 1174q0 -100 34.5 -148.5t108.5 -48.5q76 0 110.5 48t34.5 149q0 102 -34.5 150t-110.5 48q-74 0 -108.5 -48t-34.5 -150z" />
<glyph unicode="&#xbb;" horiz-adv-x="964" d="M111 193q0 16 16 38l227 297l-227 295q-16 23 -16 41q0 25 25.5 45.5t45.5 20.5q25 0 45 -25l267 -319q27 -33 26 -58q0 -25 -26 -57l-267 -319q-23 -27 -45 -27t-46.5 24.5t-24.5 43.5zM463 193q0 16 16 38l228 297l-228 295q-16 23 -16 41q0 25 25.5 45.5t46.5 20.5 q23 0 45 -25l266 -319q27 -33 26 -58q0 -25 -26 -57l-266 -319q-23 -27 -45 -27q-23 0 -47.5 24.5t-24.5 43.5z" />
<glyph unicode="&#xbc;" horiz-adv-x="1374" d="M84 1358q0 16 20 22l218 58q14 0 25 -7.5t11 -17.5v-776q0 -14 -13 -21.5t-32 -7.5h-10q-16 0 -29.5 7.5t-13.5 21.5v692l-151 -33q-12 0 -18.5 19.5t-6.5 42.5zM184 10q0 4 9 21l831 1374q20 35 61 35h27q29 0 29 -15q0 -4 -8 -20l-832 -1374q-20 -35 -61 -35h-27 q-29 0 -29 14zM696 256q0 10 4 12l390 545q12 16 38 16h21q35 0 35 -26v-522h80q23 0 22 -35v-15q0 -35 -22 -34h-80v-174q0 -27 -35 -27h-29q-35 0 -35 27v174h-360q-8 0 -18.5 21.5t-10.5 37.5zM815 281h270v348q0 6 7 37l-5 2z" />
<glyph unicode="&#xbd;" horiz-adv-x="1527" d="M84 1358q0 16 20 22l218 58q14 0 25 -7.5t11 -17.5v-776q0 -14 -13 -21.5t-32 -7.5h-10q-16 0 -29.5 7.5t-13.5 21.5v692l-151 -33q-12 0 -18.5 19.5t-6.5 42.5zM184 10q0 4 9 21l831 1374q20 35 61 35h27q29 0 29 -15q0 -4 -8 -20l-832 -1374q-20 -35 -61 -35h-27 q-29 0 -29 14zM907 53q0 16 4 21l310 387q53 70 67.5 101.5t14.5 72.5q0 57 -41 90t-109 33q-51 0 -86 -13.5t-61.5 -31t-32.5 -17.5q-8 0 -23.5 23.5t-15.5 38.5q0 35 75.5 60.5t139.5 25.5q119 0 187.5 -54.5t68.5 -148.5q0 -59 -18.5 -104t-68.5 -112t-188 -235l-88 -106 h347q23 0 22 -35v-12q0 -20 -5 -28.5t-17 -8.5h-459q-10 0 -16.5 17.5t-6.5 35.5z" />
<glyph unicode="&#xbe;" horiz-adv-x="1521" d="M82 659q0 16 16.5 38t26.5 22q6 0 61.5 -20.5t128.5 -20.5q68 0 120 39t52 127t-46 122.5t-134 34.5h-39q-25 0 -24 37v13q0 37 24 36h35q82 0 121 51.5t39 106.5q0 43 -33 79t-111 36q-76 0 -120.5 -19.5t-51.5 -19.5q-10 0 -25.5 24.5t-15.5 36.5q0 25 76 44.5 t140 19.5q111 0 177 -54.5t66 -156.5q0 -59 -35.5 -102t-89.5 -64v-6q61 -14 106.5 -73.5t45.5 -147.5q0 -127 -81 -189.5t-187 -62.5q-99 0 -170.5 22.5t-71.5 46.5zM328 10q0 4 8 21l831 1374q20 35 62 35h26q29 0 29 -15q0 -4 -8 -20l-832 -1374q-20 -35 -61 -35h-27 q-28 0 -28 14zM848 256q0 10 4 12l389 545q12 16 39 16h20q35 0 35 -26v-522h80q23 0 23 -35v-15q0 -35 -23 -34h-80v-174q0 -27 -35 -27h-28q-35 0 -35 27v174h-360q-8 0 -18.5 21.5t-10.5 37.5zM967 281h270v348q0 6 6 37l-4 2z" />
<glyph unicode="&#xbf;" horiz-adv-x="870" d="M43 -31q0 94 49 170t146 174q100 98 150 162t61 141q4 20 18 30.5t49 10.5h31q61 0 61 -47q0 -70 -46 -155.5t-130 -169.5q-102 -102 -148 -165t-46 -130q0 -213 258 -213q57 0 104 14t100 37q41 18 50 18q14 0 39.5 -41t25.5 -63q0 -49 -114.5 -83t-237.5 -34 q-131 0 -226.5 46t-144.5 125t-49 173zM436 895v135q0 45 82 45h35q82 0 82 -45v-135q0 -45 -82 -45h-35q-82 0 -82 45z" />
<glyph unicode="&#xc0;" horiz-adv-x="1255" d="M25 31q0 10 6 28l485 1346q12 33 82 33h59q74 0 82 -33l486 -1348q6 -14 6 -26q0 -35 -88 -35h-17q-72 0 -82 33l-120 336h-602l-117 -336q-10 -33 -82 -33h-10q-88 0 -88 35zM379 520h489l-215 610q-10 33 -24 119h-4q-16 -82 -31 -119zM400 1835q0 14 23.5 20t74.5 6 q49 0 80 -12t47 -41q59 -102 89 -157.5t30 -69.5q0 -20 -47 -21q-70 0 -105 37l-78 88q-78 90 -96 113.5t-18 36.5z" />
<glyph unicode="&#xc1;" horiz-adv-x="1255" d="M25 31q0 10 6 28l485 1346q12 33 82 33h59q74 0 82 -33l486 -1348q6 -14 6 -26q0 -35 -88 -35h-17q-72 0 -82 33l-120 336h-602l-117 -336q-10 -33 -82 -33h-10q-88 0 -88 35zM379 520h489l-215 610q-10 33 -24 119h-4q-16 -82 -31 -119zM543 1581q0 14 29.5 69t88.5 158 q16 29 47 41t80 12q51 0 75 -6t24 -20q0 -16 -31 -54.5t-162 -183.5q-33 -37 -104 -37q-47 1 -47 21z" />
<glyph unicode="&#xc2;" horiz-adv-x="1255" d="M25 31q0 10 6 28l485 1346q12 33 82 33h59q74 0 82 -33l486 -1348q6 -14 6 -26q0 -35 -88 -35h-17q-72 0 -82 33l-120 336h-602l-117 -336q-10 -33 -82 -33h-10q-88 0 -88 35zM379 520h489l-215 610q-10 33 -24 119h-4q-16 -82 -31 -119zM381 1570q0 16 13 37l114 180 q31 45 94 45h52q63 0 94 -45l117 -180q12 -18 12 -35q0 -31 -49 -30h-4q-39 0 -68 26l-129 152l-125 -152q-29 -27 -70 -26h-4q-47 -1 -47 28z" />
<glyph unicode="&#xc3;" horiz-adv-x="1255" d="M25 31q0 10 6 28l485 1346q12 33 82 33h59q74 0 82 -33l486 -1348q6 -14 6 -26q0 -35 -88 -35h-17q-72 0 -82 33l-120 336h-602l-117 -336q-10 -33 -82 -33h-10q-88 0 -88 35zM274 1607q0 12 6 27q33 76 79 108.5t110 32.5q43 0 86 -11t112 -36q59 -20 93 -30.5t65 -10.5 q29 0 49.5 13.5t40.5 45.5q20 31 41 31q12 0 20 -6l17 -6q25 -8 24 -25q0 -12 -10 -28q-33 -74 -78 -107t-108 -33q-74 0 -205 50q-57 20 -92 29t-66 9q-27 0 -45 -13t-41 -48q-16 -29 -35 -29q-6 0 -22 4l-21 9q-20 8 -20 24zM379 520h489l-215 610q-10 33 -24 119h-4 q-16 -82 -31 -119z" />
<glyph unicode="&#xc4;" horiz-adv-x="1255" d="M25 31q0 10 6 28l485 1346q12 33 82 33h59q74 0 82 -33l486 -1348q6 -14 6 -26q0 -35 -88 -35h-17q-72 0 -82 33l-120 336h-602l-117 -336q-10 -33 -82 -33h-10q-88 0 -88 35zM379 520h489l-215 610q-10 33 -24 119h-4q-16 -82 -31 -119zM395 1650v105q0 45 91 45 q82 0 81 -45v-105q0 -45 -90 -45q-82 0 -82 45zM690 1650v105q0 45 90 45q82 0 82 -45v-105q0 -45 -90 -45q-82 0 -82 45z" />
<glyph unicode="&#xc5;" horiz-adv-x="1255" d="M25 31q0 10 6 28l485 1346q12 33 82 33h59q74 0 82 -33l486 -1348q6 -14 6 -26q0 -35 -88 -35h-17q-72 0 -82 33l-120 336h-602l-117 -336q-10 -33 -82 -33h-10q-88 0 -88 35zM379 520h489l-215 610q-10 33 -24 119h-4q-16 -82 -31 -119zM455 1689q0 72 50 123t122 51 t123 -51t51 -123t-51 -122t-123 -50t-122 50t-50 122zM527 1689q0 -43 28.5 -71.5t71.5 -28.5t72.5 28.5t29.5 71.5t-29.5 73t-72.5 30t-71.5 -30t-28.5 -73z" />
<glyph unicode="&#xc6;" horiz-adv-x="1873" d="M-23 31q0 16 9 32l657 1315q14 29 34.5 42.5t53.5 13.5h911q23 0 32 -14.5t9 -47.5v-33q0 -33 -9 -47t-32 -14h-741l103 -467h577q23 0 32 -14.5t9 -46.5v-33q0 -33 -9 -47.5t-32 -14.5h-545l109 -499h500q23 0 32 -14.5t9 -47.5v-33q0 -33 -9.5 -47t-31.5 -14h-588 q-61 0 -74 59l-65 306h-605l-163 -336q-14 -33 -82 -33h-11q-45 0 -62.5 8t-17.5 27zM393 518h490l-131 612l-9 119h-4l-43 -119z" />
<glyph unicode="&#xc7;" horiz-adv-x="1267" d="M117 717q0 729 663 729q100 0 193.5 -21.5t148.5 -52.5q49 -29 49 -53q0 -29 -25.5 -74t-43.5 -45q-6 0 -52 25.5t-113 45t-153 19.5q-248 0 -364.5 -137t-116.5 -438q0 -295 116 -433.5t357 -138.5q100 0 172 23.5t142 60.5q29 18 38 19q19 0 45.5 -45t26.5 -66 q0 -31 -65 -67q-61 -35 -154.5 -57.5t-200.5 -22.5l-24 -88h8q59 0 116.5 -31t57.5 -117q0 -182 -236 -182q-80 0 -157.5 24.5t-77.5 63.5q0 53 39 53q16 0 51 -14q68 -27 119 -27q117 0 117 72q0 35 -20.5 50t-59.5 28q-29 8 -42.5 16t-13.5 25q0 12 8.5 40.5t28.5 88.5 q-295 23 -436 200t-141 527z" />
<glyph unicode="&#xc8;" horiz-adv-x="1118" d="M199 61v1311q0 33 14 47.5t47 14.5h715q23 0 32 -14.5t9 -47.5v-33q0 -33 -9.5 -47t-31.5 -14h-596v-467h534q23 0 32 -14.5t9 -46.5v-33q0 -33 -9 -47.5t-32 -14.5h-534v-499h598q23 0 32 -14.5t9 -47.5v-33q0 -33 -9.5 -47t-31.5 -14h-717q-33 0 -47 14.5t-14 46.5z M377 1835q0 14 23.5 20t74.5 6q49 0 80 -12t47 -41q59 -102 89 -157.5t30 -69.5q0 -20 -47 -21q-70 0 -105 37l-78 88q-78 90 -96 113.5t-18 36.5z" />
<glyph unicode="&#xc9;" horiz-adv-x="1118" d="M199 61v1311q0 33 14 47.5t47 14.5h715q23 0 32 -14.5t9 -47.5v-33q0 -33 -9.5 -47t-31.5 -14h-596v-467h534q23 0 32 -14.5t9 -46.5v-33q0 -33 -9 -47.5t-32 -14.5h-534v-499h598q23 0 32 -14.5t9 -47.5v-33q0 -33 -9.5 -47t-31.5 -14h-717q-33 0 -47 14.5t-14 46.5z M521 1581q0 14 29.5 69t88.5 158q16 29 47 41t80 12q51 0 75 -6t24 -20q0 -16 -31 -54.5t-162 -183.5q-33 -37 -104 -37q-47 1 -47 21z" />
<glyph unicode="&#xca;" horiz-adv-x="1118" d="M199 61v1311q0 33 14 47.5t47 14.5h715q23 0 32 -14.5t9 -47.5v-33q0 -33 -9.5 -47t-31.5 -14h-596v-467h534q23 0 32 -14.5t9 -46.5v-33q0 -33 -9 -47.5t-32 -14.5h-534v-499h598q23 0 32 -14.5t9 -47.5v-33q0 -33 -9.5 -47t-31.5 -14h-717q-33 0 -47 14.5t-14 46.5z M358 1570q0 16 13 37l114 180q31 45 94 45h52q63 0 94 -45l117 -180q12 -18 12 -35q0 -31 -49 -30h-4q-39 0 -68 26l-129 152l-125 -152q-29 -27 -70 -26h-4q-47 -1 -47 28z" />
<glyph unicode="&#xcb;" horiz-adv-x="1118" d="M199 61v1311q0 33 14 47.5t47 14.5h715q23 0 32 -14.5t9 -47.5v-33q0 -33 -9.5 -47t-31.5 -14h-596v-467h534q23 0 32 -14.5t9 -46.5v-33q0 -33 -9 -47.5t-32 -14.5h-534v-499h598q23 0 32 -14.5t9 -47.5v-33q0 -33 -9.5 -47t-31.5 -14h-717q-33 0 -47 14.5t-14 46.5z M372 1650v105q0 45 91 45q82 0 81 -45v-105q0 -45 -90 -45q-82 0 -82 45zM667 1650v105q0 45 90 45q82 0 82 -45v-105q0 -45 -90 -45q-82 0 -82 45z" />
<glyph unicode="&#xcc;" horiz-adv-x="579" d="M60 1835q0 14 23.5 20t74.5 6q49 0 80 -12t47 -41q59 -102 89 -157.5t30 -69.5q0 -20 -47 -21q-70 0 -105 37l-78 88q-78 90 -96 113.5t-18 36.5zM199 41v1352q0 45 82 45h16q82 0 82 -45v-1352q0 -45 -82 -45h-16q-82 0 -82 45z" />
<glyph unicode="&#xcd;" horiz-adv-x="577" d="M199 41v1352q0 45 82 45h16q82 0 82 -45v-1352q0 -45 -82 -45h-16q-82 0 -82 45zM203 1581q0 14 29.5 69t88.5 158q16 29 47 41t80 12q51 0 75 -6t24 -20q0 -16 -31 -54.5t-162 -183.5q-33 -37 -104 -37q-47 1 -47 21z" />
<glyph unicode="&#xce;" horiz-adv-x="577" d="M41 1570q0 16 13 37l114 180q31 45 94 45h52q63 0 94 -45l117 -180q12 -18 12 -35q0 -31 -49 -30h-4q-39 0 -68 26l-129 152l-125 -152q-29 -27 -70 -26h-4q-47 -1 -47 28zM199 41v1352q0 45 82 45h16q82 0 82 -45v-1352q0 -45 -82 -45h-16q-82 0 -82 45z" />
<glyph unicode="&#xcf;" horiz-adv-x="579" d="M55 1650v105q0 45 91 45q82 0 81 -45v-105q0 -45 -90 -45q-82 0 -82 45zM199 41v1352q0 45 82 45h16q82 0 82 -45v-1352q0 -45 -82 -45h-16q-82 0 -82 45zM350 1650v105q0 45 90 45q82 0 82 -45v-105q0 -45 -90 -45q-82 0 -82 45z" />
<glyph unicode="&#xd0;" horiz-adv-x="1425" d="M0 717v33q0 33 10 47t31 14h158v561q0 33 14 47.5t47 14.5h414q287 0 460 -171t173 -546q0 -377 -173 -547t-460 -170h-414q-33 0 -47 14.5t-14 46.5v594h-158q-20 0 -30.5 14.5t-10.5 47.5zM379 156h280q207 0 334 135t127 426q0 289 -127 425t-334 136h-280v-467h201 q23 0 32 -14.5t9 -46.5v-33q0 -33 -9.5 -47.5t-31.5 -14.5h-201v-499z" />
<glyph unicode="&#xd1;" horiz-adv-x="1472" d="M184 41v1352q0 45 82 45h43q33 0 52.5 -8.5t33.5 -30.5l643 -971q35 -51 68 -123l8 2q-4 47 -4 139v947q0 45 82 45h14q82 0 82 -45v-1352q0 -45 -82 -45h-41q-53 0 -71 29l-660 995q-35 51 -67 123l-9 -2q4 -47 4 -140v-960q0 -45 -81 -45h-15q-82 0 -82 45zM383 1607 q0 12 6 27q33 76 79 108.5t110 32.5q43 0 86 -11t112 -36q59 -20 93 -30.5t65 -10.5q29 0 49.5 13.5t40.5 45.5q20 31 41 31q12 0 20 -6l17 -6q25 -8 24 -25q0 -12 -10 -28q-33 -74 -78 -107t-108 -33q-74 0 -205 50q-57 20 -92 29t-66 9q-27 0 -45 -13t-41 -48 q-16 -29 -35 -29q-6 0 -22 4l-21 9q-20 8 -20 24z" />
<glyph unicode="&#xd2;" horiz-adv-x="1497" d="M117 721q0 358 160.5 541.5t470.5 183.5q309 0 470.5 -183.5t161.5 -541.5t-161.5 -545.5t-470.5 -187.5q-308 0 -469.5 187t-161.5 546zM303 721q0 -283 113.5 -430.5t331.5 -147.5q217 0 331.5 147.5t114.5 430.5q0 281 -114.5 425t-331.5 144t-331 -144.5t-114 -424.5 zM521 1835q0 14 23.5 20t74.5 6q49 0 80 -12t47 -41q59 -102 89 -157.5t30 -69.5q0 -20 -47 -21q-70 0 -105 37l-78 88q-78 90 -96 113.5t-18 36.5z" />
<glyph unicode="&#xd3;" horiz-adv-x="1497" d="M117 721q0 358 160.5 541.5t470.5 183.5q309 0 470.5 -183.5t161.5 -541.5t-161.5 -545.5t-470.5 -187.5q-308 0 -469.5 187t-161.5 546zM303 721q0 -283 113.5 -430.5t331.5 -147.5q217 0 331.5 147.5t114.5 430.5q0 281 -114.5 425t-331.5 144t-331 -144.5t-114 -424.5 zM664 1581q0 14 29.5 69t88.5 158q16 29 47 41t80 12q51 0 75 -6t24 -20q0 -16 -31 -54.5t-162 -183.5q-33 -37 -104 -37q-47 1 -47 21z" />
<glyph unicode="&#xd4;" horiz-adv-x="1497" d="M117 721q0 358 160.5 541.5t470.5 183.5q309 0 470.5 -183.5t161.5 -541.5t-161.5 -545.5t-470.5 -187.5q-308 0 -469.5 187t-161.5 546zM303 721q0 -283 113.5 -430.5t331.5 -147.5q217 0 331.5 147.5t114.5 430.5q0 281 -114.5 425t-331.5 144t-331 -144.5t-114 -424.5 zM501 1570q0 16 13 37l114 180q31 45 94 45h52q63 0 94 -45l117 -180q12 -18 12 -35q0 -31 -49 -30h-4q-39 0 -68 26l-129 152l-125 -152q-29 -27 -70 -26h-4q-47 -1 -47 28z" />
<glyph unicode="&#xd5;" horiz-adv-x="1497" d="M117 721q0 358 160.5 541.5t470.5 183.5q309 0 470.5 -183.5t161.5 -541.5t-161.5 -545.5t-470.5 -187.5q-308 0 -469.5 187t-161.5 546zM303 721q0 -283 113.5 -430.5t331.5 -147.5q217 0 331.5 147.5t114.5 430.5q0 281 -114.5 425t-331.5 144t-331 -144.5t-114 -424.5 zM395 1607q0 12 6 27q33 76 79 108.5t110 32.5q43 0 86 -11t112 -36q59 -20 93 -30.5t65 -10.5q29 0 49.5 13.5t40.5 45.5q20 31 41 31q12 0 20 -6l17 -6q25 -8 24 -25q0 -12 -10 -28q-33 -74 -78 -107t-108 -33q-74 0 -205 50q-57 20 -92 29t-66 9q-27 0 -45 -13t-41 -48 q-16 -29 -35 -29q-6 0 -22 4l-21 9q-20 8 -20 24z" />
<glyph unicode="&#xd6;" horiz-adv-x="1497" d="M117 721q0 358 160.5 541.5t470.5 183.5q309 0 470.5 -183.5t161.5 -541.5t-161.5 -545.5t-470.5 -187.5q-308 0 -469.5 187t-161.5 546zM303 721q0 -283 113.5 -430.5t331.5 -147.5q217 0 331.5 147.5t114.5 430.5q0 281 -114.5 425t-331.5 144t-331 -144.5t-114 -424.5 zM516 1650v105q0 45 91 45q82 0 81 -45v-105q0 -45 -90 -45q-82 0 -82 45zM811 1650v105q0 45 90 45q82 0 82 -45v-105q0 -45 -90 -45q-82 0 -82 45z" />
<glyph unicode="&#xd7;" horiz-adv-x="1146" d="M111 86q0 12 16 29l350 352l-350 350q-16 16 -16 29q0 12 16 28l39 41q14 14 29 15q14 0 28 -15l350 -352l351 352q14 14 28 15q14 0 29 -15l39 -41q14 -14 14 -28t-14 -29l-350 -350l350 -352q14 -14 14 -29q0 -14 -14 -29l-39 -41q-16 -16 -29 -16q-12 0 -28 16 l-351 355l-350 -355q-16 -16 -28 -16t-29 16l-39 41q-16 16 -16 29z" />
<glyph unicode="&#xd8;" horiz-adv-x="1497" d="M70 45q0 14 12 29l149 166q-115 180 -114 481q0 358 160.5 541.5t470.5 183.5q279 0 438 -148l110 123q14 16 29 17q14 0 29.5 -14.5t15.5 -26.5t-12 -29l-119 -131q141 -182 141 -516q0 -358 -161.5 -545.5t-470.5 -187.5q-305 0 -467 184l-138 -152q-14 -18 -28 -18 t-29.5 14.5t-15.5 28.5zM303 721q0 -201 59 -336l703 778q-115 127 -317 127q-217 0 -331 -144.5t-114 -424.5zM403 309q117 -166 345 -166q217 0 331.5 147.5t114.5 430.5q0 236 -80 375z" />
<glyph unicode="&#xd9;" horiz-adv-x="1458" d="M170 459v934q0 45 82 45h16q82 0 82 -45v-940q0 -90 49.5 -161t135.5 -110t194 -39q109 0 195 40t135 111t49 159v940q0 45 82 45h16q82 0 82 -45v-934q0 -223 -145.5 -347t-413.5 -124q-270 0 -414.5 124t-144.5 347zM500 1835q0 14 23.5 20t74.5 6q49 0 80 -12t47 -41 q59 -102 89 -157.5t30 -69.5q0 -20 -47 -21q-70 0 -105 37l-78 88q-78 90 -96 113.5t-18 36.5z" />
<glyph unicode="&#xda;" horiz-adv-x="1458" d="M170 459v934q0 45 82 45h16q82 0 82 -45v-940q0 -90 49.5 -161t135.5 -110t194 -39q109 0 195 40t135 111t49 159v940q0 45 82 45h16q82 0 82 -45v-934q0 -223 -145.5 -347t-413.5 -124q-270 0 -414.5 124t-144.5 347zM643 1581q0 14 29.5 69t88.5 158q16 29 47 41t80 12 q51 0 75 -6t24 -20q0 -16 -31 -54.5t-162 -183.5q-33 -37 -104 -37q-47 1 -47 21z" />
<glyph unicode="&#xdb;" horiz-adv-x="1458" d="M170 459v934q0 45 82 45h16q82 0 82 -45v-940q0 -90 49.5 -161t135.5 -110t194 -39q109 0 195 40t135 111t49 159v940q0 45 82 45h16q82 0 82 -45v-934q0 -223 -145.5 -347t-413.5 -124q-270 0 -414.5 124t-144.5 347zM481 1570q0 16 13 37l114 180q31 45 94 45h52 q63 0 94 -45l117 -180q12 -18 12 -35q0 -31 -49 -30h-4q-39 0 -68 26l-129 152l-125 -152q-29 -27 -70 -26h-4q-47 -1 -47 28z" />
<glyph unicode="&#xdc;" horiz-adv-x="1458" d="M170 459v934q0 45 82 45h16q82 0 82 -45v-940q0 -90 49.5 -161t135.5 -110t194 -39q109 0 195 40t135 111t49 159v940q0 45 82 45h16q82 0 82 -45v-934q0 -223 -145.5 -347t-413.5 -124q-270 0 -414.5 124t-144.5 347zM495 1650v105q0 45 91 45q82 0 81 -45v-105 q0 -45 -90 -45q-82 0 -82 45zM790 1650v105q0 45 90 45q82 0 82 -45v-105q0 -45 -90 -45q-82 0 -82 45z" />
<glyph unicode="&#xdd;" horiz-adv-x="1144" d="M37 1403q0 35 94 35h23q35 0 55 -6.5t33 -24.5l336 -504l344 506q18 29 92 29h14q43 -2 61.5 -10.5t18.5 -24.5q0 -14 -16 -37l-430 -637v-688q0 -45 -82 -45h-17q-82 0 -82 45v694l-428 631q-16 23 -16 37zM488 1581q0 14 29.5 69t88.5 158q16 29 47 41t80 12 q51 0 75 -6t24 -20q0 -16 -31 -54.5t-162 -183.5q-33 -37 -104 -37q-47 1 -47 21z" />
<glyph unicode="&#xde;" horiz-adv-x="1167" d="M174 41v1352q0 45 82 45h16q82 0 82 -45v-209h297q180 0 318.5 -86t138.5 -316q0 -170 -80 -264t-178 -126t-178 -32h-318v-319q0 -45 -82 -45h-16q-82 0 -82 45zM354 516h320q88 0 168 59.5t80 206.5q0 137 -82 191.5t-195 54.5h-291v-512z" />
<glyph unicode="&#xdf;" horiz-adv-x="1134" d="M184 41v1026q0 111 50.5 197t141.5 134t212 48q184 0 294.5 -83t110.5 -265q0 -90 -58 -178.5t-151 -126.5v-7q127 -31 198 -130t71 -234q0 -133 -58.5 -228.5t-159 -144.5t-223.5 -49h-65q-20 0 -30.5 14.5t-10.5 46.5v25q0 33 10 47t31 14h67q111 0 184.5 74t73.5 201 q0 125 -73.5 199.5t-184.5 74.5h-67q-20 0 -30.5 14.5t-10.5 47.5v24q0 33 10 47.5t31 14.5h20q61 0 117.5 31.5t91.5 86t35 119.5q0 121 -64.5 169t-162.5 48q-104 0 -166 -62t-62 -169v-1026q0 -45 -82 -45h-8q-82 0 -82 45z" />
<glyph unicode="&#xe0;" horiz-adv-x="1116" d="M100 295q0 162 97.5 242.5t239 104.5t343.5 26v96q0 76 -53 124t-172 48q-90 0 -157.5 -21.5t-112.5 -43t-49 -21.5q-20 0 -46 41t-26 61q0 27 54 57.5t144.5 52t186.5 21.5q190 0 296.5 -85t106.5 -236v-459q0 -135 12.5 -193.5t12.5 -64.5q0 -25 -39 -36t-72 -11 q-29 0 -42 31.5t-20 66.5l-9 45q-139 -154 -344 -153q-158 0 -254.5 77.5t-96.5 229.5zM285 305q0 -82 44 -125t130 -43q100 0 173 37t148 105v241q-154 -2 -251 -12t-170.5 -57.5t-73.5 -145.5zM330 1473q0 14 23.5 20t74.5 6q49 0 80 -12t47 -41q59 -102 89 -157.5 t30 -69.5q0 -20 -47 -21q-70 0 -105 37l-78 88q-78 90 -96 113.5t-18 36.5z" />
<glyph unicode="&#xe1;" horiz-adv-x="1116" d="M100 295q0 162 97.5 242.5t239 104.5t343.5 26v96q0 76 -53 124t-172 48q-90 0 -157.5 -21.5t-112.5 -43t-49 -21.5q-20 0 -46 41t-26 61q0 27 54 57.5t144.5 52t186.5 21.5q190 0 296.5 -85t106.5 -236v-459q0 -135 12.5 -193.5t12.5 -64.5q0 -25 -39 -36t-72 -11 q-29 0 -42 31.5t-20 66.5l-9 45q-139 -154 -344 -153q-158 0 -254.5 77.5t-96.5 229.5zM285 305q0 -82 44 -125t130 -43q100 0 173 37t148 105v241q-154 -2 -251 -12t-170.5 -57.5t-73.5 -145.5zM473 1219q0 14 29.5 69t88.5 158q16 29 47 41t80 12q51 0 75 -6t24 -20 q0 -16 -31 -54.5t-162 -183.5q-33 -37 -104 -37q-47 1 -47 21z" />
<glyph unicode="&#xe2;" horiz-adv-x="1116" d="M100 295q0 162 97.5 242.5t239 104.5t343.5 26v96q0 76 -53 124t-172 48q-90 0 -157.5 -21.5t-112.5 -43t-49 -21.5q-20 0 -46 41t-26 61q0 27 54 57.5t144.5 52t186.5 21.5q190 0 296.5 -85t106.5 -236v-459q0 -135 12.5 -193.5t12.5 -64.5q0 -25 -39 -36t-72 -11 q-29 0 -42 31.5t-20 66.5l-9 45q-139 -154 -344 -153q-158 0 -254.5 77.5t-96.5 229.5zM285 305q0 -82 44 -125t130 -43q100 0 173 37t148 105v241q-154 -2 -251 -12t-170.5 -57.5t-73.5 -145.5zM311 1208q0 16 13 37l114 180q31 45 94 45h52q63 0 94 -45l117 -180 q12 -18 12 -35q0 -31 -49 -30h-4q-39 0 -68 26l-129 152l-125 -152q-29 -27 -70 -26h-4q-47 -1 -47 28z" />
<glyph unicode="&#xe3;" horiz-adv-x="1116" d="M100 295q0 162 97.5 242.5t239 104.5t343.5 26v96q0 76 -53 124t-172 48q-90 0 -157.5 -21.5t-112.5 -43t-49 -21.5q-20 0 -46 41t-26 61q0 27 54 57.5t144.5 52t186.5 21.5q190 0 296.5 -85t106.5 -236v-459q0 -135 12.5 -193.5t12.5 -64.5q0 -25 -39 -36t-72 -11 q-29 0 -42 31.5t-20 66.5l-9 45q-139 -154 -344 -153q-158 0 -254.5 77.5t-96.5 229.5zM205 1245q0 12 6 27q33 76 79 108.5t110 32.5q43 0 86 -11t112 -36q59 -20 93 -30.5t65 -10.5q29 0 49.5 13.5t40.5 45.5q20 31 41 31q12 0 20 -6l17 -6q25 -8 24 -25q0 -12 -10 -28 q-33 -74 -78 -107t-108 -33q-74 0 -205 50q-57 20 -92 29t-66 9q-27 0 -45 -13t-41 -48q-16 -29 -35 -29q-6 0 -22 4l-21 9q-20 8 -20 24zM285 305q0 -82 44 -125t130 -43q100 0 173 37t148 105v241q-154 -2 -251 -12t-170.5 -57.5t-73.5 -145.5z" />
<glyph unicode="&#xe4;" horiz-adv-x="1116" d="M100 295q0 162 97.5 242.5t239 104.5t343.5 26v96q0 76 -53 124t-172 48q-90 0 -157.5 -21.5t-112.5 -43t-49 -21.5q-20 0 -46 41t-26 61q0 27 54 57.5t144.5 52t186.5 21.5q190 0 296.5 -85t106.5 -236v-459q0 -135 12.5 -193.5t12.5 -64.5q0 -25 -39 -36t-72 -11 q-29 0 -42 31.5t-20 66.5l-9 45q-139 -154 -344 -153q-158 0 -254.5 77.5t-96.5 229.5zM285 305q0 -82 44 -125t130 -43q100 0 173 37t148 105v241q-154 -2 -251 -12t-170.5 -57.5t-73.5 -145.5zM325 1288v105q0 45 91 45q82 0 81 -45v-105q0 -45 -90 -45q-82 0 -82 45z M620 1288v105q0 45 90 45q82 0 82 -45v-105q0 -45 -90 -45q-82 0 -82 45z" />
<glyph unicode="&#xe5;" horiz-adv-x="1116" d="M100 295q0 162 97.5 242.5t239 104.5t343.5 26v96q0 76 -53 124t-172 48q-90 0 -157.5 -21.5t-112.5 -43t-49 -21.5q-20 0 -46 41t-26 61q0 27 54 57.5t144.5 52t186.5 21.5q190 0 296.5 -85t106.5 -236v-459q0 -135 12.5 -193.5t12.5 -64.5q0 -25 -39 -36t-72 -11 q-29 0 -42 31.5t-20 66.5l-9 45q-139 -154 -344 -153q-158 0 -254.5 77.5t-96.5 229.5zM285 305q0 -82 44 -125t130 -43q100 0 173 37t148 105v241q-154 -2 -251 -12t-170.5 -57.5t-73.5 -145.5zM385 1327q0 72 50 123t122 51t123 -51t51 -123t-51 -122t-123 -50t-122 50 t-50 122zM457 1327q0 -43 28.5 -71.5t71.5 -28.5t72.5 28.5t29.5 71.5t-29.5 73t-72.5 30t-71.5 -30t-28.5 -73z" />
<glyph unicode="&#xe6;" horiz-adv-x="1677" d="M100 295q0 137 84 212t212 101.5t304 30.5q12 127 58 213q-53 84 -203 84q-90 0 -157.5 -21.5t-112.5 -43t-49 -21.5q-20 0 -46 41t-26 61q0 27 54 57.5t144.5 52t186.5 21.5q203 0 311 -98q115 98 303 98q209 0 315.5 -129t106.5 -376q0 -18 -24.5 -51t-42.5 -33h-639 q12 -186 85.5 -272.5t221.5 -86.5q86 0 148.5 21.5t103.5 43t47 21.5q20 0 45.5 -41t25.5 -61q0 -25 -51 -56.5t-136 -53t-181 -21.5q-246 0 -367 129q-70 -57 -164 -93t-206 -36q-158 0 -254.5 77.5t-96.5 229.5zM285 305q0 -82 44 -125t130 -43t152.5 28t129.5 79 q-45 104 -47 248q-186 -4 -297.5 -41t-111.5 -146zM879 641h524q0 295 -246 295q-256 0 -278 -295z" />
<glyph unicode="&#xe7;" horiz-adv-x="993" d="M106 541q0 293 139.5 417.5t346.5 124.5q119 0 213 -28.5t94 -65.5q0 -27 -23.5 -68.5t-41.5 -41.5q-4 0 -9.5 3t-13.5 5q-111 49 -223 49q-297 0 -297 -391q0 -217 72.5 -313.5t244.5 -96.5q125 0 232 53l22 9q20 0 45 -40t25 -65q0 -22 -41 -45.5t-111.5 -40 t-152.5 -18.5l-25 -88h8q59 0 116.5 -31t57.5 -117q0 -182 -235 -182q-80 0 -158 24.5t-78 63.5q0 53 39 53q16 0 51 -14q68 -27 119 -27q117 0 117 72q0 35 -20.5 50t-59.5 28q-29 8 -42 16t-13 25q0 12 8 40.5t27 88.5q-217 16 -325 148t-108 403z" />
<glyph unicode="&#xe8;" horiz-adv-x="1103" d="M113 528q0 272 120.5 413.5t356.5 141.5q209 0 315.5 -136t106.5 -398q0 -18 -24.5 -51t-43.5 -33h-647q12 -170 88 -250t227 -80q86 0 148.5 21.5t103.5 43t47 21.5q20 0 46 -41t26 -61q0 -25 -51 -56.5t-136 -53t-182 -21.5q-256 0 -378.5 133t-122.5 407zM297 612h532 q0 324 -245 324q-264 0 -287 -324zM324 1473q0 14 23.5 20t74.5 6q49 0 80 -12t47 -41q59 -102 89 -157.5t30 -69.5q0 -20 -47 -21q-70 0 -105 37l-78 88q-78 90 -96 113.5t-18 36.5z" />
<glyph unicode="&#xe9;" horiz-adv-x="1103" d="M113 528q0 272 120.5 413.5t356.5 141.5q209 0 315.5 -136t106.5 -398q0 -18 -24.5 -51t-43.5 -33h-647q12 -170 88 -250t227 -80q86 0 148.5 21.5t103.5 43t47 21.5q20 0 46 -41t26 -61q0 -25 -51 -56.5t-136 -53t-182 -21.5q-256 0 -378.5 133t-122.5 407zM297 612h532 q0 324 -245 324q-264 0 -287 -324zM467 1219q0 14 29.5 69t88.5 158q16 29 47 41t80 12q51 0 75 -6t24 -20q0 -16 -31 -54.5t-162 -183.5q-33 -37 -104 -37q-47 1 -47 21z" />
<glyph unicode="&#xea;" horiz-adv-x="1103" d="M113 528q0 272 120.5 413.5t356.5 141.5q209 0 315.5 -136t106.5 -398q0 -18 -24.5 -51t-43.5 -33h-647q12 -170 88 -250t227 -80q86 0 148.5 21.5t103.5 43t47 21.5q20 0 46 -41t26 -61q0 -25 -51 -56.5t-136 -53t-182 -21.5q-256 0 -378.5 133t-122.5 407zM297 612h532 q0 324 -245 324q-264 0 -287 -324zM305 1208q0 16 13 37l114 180q31 45 94 45h52q63 0 94 -45l117 -180q12 -18 12 -35q0 -31 -49 -30h-4q-39 0 -68 26l-129 152l-125 -152q-29 -27 -70 -26h-4q-47 -1 -47 28z" />
<glyph unicode="&#xeb;" horiz-adv-x="1103" d="M113 528q0 272 120.5 413.5t356.5 141.5q209 0 315.5 -136t106.5 -398q0 -18 -24.5 -51t-43.5 -33h-647q12 -170 88 -250t227 -80q86 0 148.5 21.5t103.5 43t47 21.5q20 0 46 -41t26 -61q0 -25 -51 -56.5t-136 -53t-182 -21.5q-256 0 -378.5 133t-122.5 407zM297 612h532 q0 324 -245 324q-264 0 -287 -324zM319 1288v105q0 45 91 45q82 0 81 -45v-105q0 -45 -90 -45q-82 0 -82 45zM614 1288v105q0 45 90 45q82 0 82 -45v-105q0 -45 -90 -45q-82 0 -82 45z" />
<glyph unicode="&#xec;" horiz-adv-x="542" d="M43 1473q0 14 23.5 20t74.5 6q49 0 80 -12t47 -41q59 -102 89 -157.5t30 -69.5q0 -20 -47 -21q-70 0 -105 37l-78 88q-78 90 -96 113.5t-18 36.5zM186 41v989q0 45 82 45h8q82 0 82 -45v-989q0 -45 -82 -45h-8q-82 0 -82 45z" />
<glyph unicode="&#xed;" horiz-adv-x="542" d="M186 41v989q0 45 82 45h8q82 0 82 -45v-989q0 -45 -82 -45h-8q-82 0 -82 45zM187 1219q0 14 29.5 69t88.5 158q16 29 47 41t80 12q51 0 75 -6t24 -20q0 -16 -31 -54.5t-162 -183.5q-33 -37 -104 -37q-47 1 -47 21z" />
<glyph unicode="&#xee;" horiz-adv-x="542" d="M24 1208q0 16 13 37l114 180q31 45 94 45h52q63 0 94 -45l117 -180q12 -18 12 -35q0 -31 -49 -30h-4q-39 0 -68 26l-129 152l-125 -152q-29 -27 -70 -26h-4q-47 -1 -47 28zM186 41v989q0 45 82 45h8q82 0 82 -45v-989q0 -45 -82 -45h-8q-82 0 -82 45z" />
<glyph unicode="&#xef;" horiz-adv-x="542" d="M38 1288v105q0 45 91 45q82 0 81 -45v-105q0 -45 -90 -45q-82 0 -82 45zM186 41v989q0 45 82 45h8q82 0 82 -45v-989q0 -45 -82 -45h-8q-82 0 -82 45zM333 1288v105q0 45 90 45q82 0 82 -45v-105q0 -45 -90 -45q-82 0 -82 45z" />
<glyph unicode="&#xf0;" horiz-adv-x="1165" d="M113 530q0 266 122.5 409.5t352.5 143.5q90 0 164 -24q-45 98 -95 184l-176 -24q-20 0 -36.5 21.5t-16.5 43.5q0 25 31 27l147 20q-23 31 -38 57.5t-15 41.5q0 27 33 28q29 4 55 4q33 0 53 -24q41 -49 68 -86l160 22q25 0 38 -24.5t13 -40.5q0 -23 -31 -27l-123 -16 q109 -170 171.5 -357.5t62.5 -378.5q0 -266 -118 -404t-347 -138q-231 0 -353 139t-122 403zM289 535q0 -205 71.5 -302.5t221.5 -97.5q149 0 220.5 97.5t71.5 302.5t-71.5 303t-220.5 98q-150 0 -221.5 -98.5t-71.5 -302.5z" />
<glyph unicode="&#xf1;" horiz-adv-x="1140" d="M152 1018q0 25 38.5 36t71.5 11q29 0 42 -29.5t20.5 -62.5t9.5 -43q66 72 149.5 112.5t169.5 40.5q156 0 245 -88t89 -243v-711q0 -45 -82 -45h-8q-82 0 -82 45v694q0 94 -54 146.5t-155 52.5q-70 0 -138.5 -39t-119.5 -104v-750q0 -45 -82 -45h-8q-82 0 -82 45v719 q0 135 -12 193.5t-12 64.5zM217 1245q0 12 6 27q33 76 79 108.5t110 32.5q43 0 86 -11t112 -36q59 -20 93 -30.5t65 -10.5q29 0 49.5 13.5t40.5 45.5q20 31 41 31q12 0 20 -6l17 -6q25 -8 24 -25q0 -12 -10 -28q-33 -74 -78 -107t-108 -33q-74 0 -205 50q-57 20 -92 29 t-66 9q-27 0 -45 -13t-41 -48q-16 -29 -35 -29q-6 0 -22 4l-21 9q-20 8 -20 24z" />
<glyph unicode="&#xf2;" horiz-adv-x="1165" d="M113 530q0 266 122.5 409.5t352.5 143.5q225 0 345 -142t120 -411q0 -266 -118 -404t-347 -138q-232 0 -353.5 139t-121.5 403zM293 535q0 -205 69.5 -302.5t219.5 -97.5q149 0 220.5 97.5t71.5 302.5t-71.5 303t-220.5 98q-150 0 -219.5 -97.5t-69.5 -303.5zM355 1473 q0 14 23.5 20t74.5 6q49 0 80 -12t47 -41q59 -102 89 -157.5t30 -69.5q0 -20 -47 -21q-70 0 -105 37l-78 88q-78 90 -96 113.5t-18 36.5z" />
<glyph unicode="&#xf3;" horiz-adv-x="1165" d="M113 530q0 266 122.5 409.5t352.5 143.5q225 0 345 -142t120 -411q0 -266 -118 -404t-347 -138q-232 0 -353.5 139t-121.5 403zM293 535q0 -205 69.5 -302.5t219.5 -97.5q149 0 220.5 97.5t71.5 302.5t-71.5 303t-220.5 98q-150 0 -219.5 -97.5t-69.5 -303.5zM498 1219 q0 14 29.5 69t88.5 158q16 29 47 41t80 12q51 0 75 -6t24 -20q0 -16 -31 -54.5t-162 -183.5q-33 -37 -104 -37q-47 1 -47 21z" />
<glyph unicode="&#xf4;" horiz-adv-x="1165" d="M113 530q0 266 122.5 409.5t352.5 143.5q225 0 345 -142t120 -411q0 -266 -118 -404t-347 -138q-232 0 -353.5 139t-121.5 403zM293 535q0 -205 69.5 -302.5t219.5 -97.5q149 0 220.5 97.5t71.5 302.5t-71.5 303t-220.5 98q-150 0 -219.5 -97.5t-69.5 -303.5zM336 1208 q0 16 13 37l114 180q31 45 94 45h52q63 0 94 -45l117 -180q12 -18 12 -35q0 -31 -49 -30h-4q-39 0 -68 26l-129 152l-125 -152q-29 -27 -70 -26h-4q-47 -1 -47 28z" />
<glyph unicode="&#xf5;" horiz-adv-x="1165" d="M113 530q0 266 122.5 409.5t352.5 143.5q225 0 345 -142t120 -411q0 -266 -118 -404t-347 -138q-232 0 -353.5 139t-121.5 403zM229 1245q0 12 6 27q33 76 79 108.5t110 32.5q43 0 86 -11t112 -36q59 -20 93 -30.5t65 -10.5q29 0 49.5 13.5t40.5 45.5q20 31 41 31 q12 0 20 -6l17 -6q25 -8 24 -25q0 -12 -10 -28q-33 -74 -78 -107t-108 -33q-74 0 -205 50q-57 20 -92 29t-66 9q-27 0 -45 -13t-41 -48q-16 -29 -35 -29q-6 0 -22 4l-21 9q-20 8 -20 24zM293 535q0 -205 69.5 -302.5t219.5 -97.5q149 0 220.5 97.5t71.5 302.5t-71.5 303 t-220.5 98q-150 0 -219.5 -97.5t-69.5 -303.5z" />
<glyph unicode="&#xf6;" horiz-adv-x="1165" d="M113 530q0 266 122.5 409.5t352.5 143.5q225 0 345 -142t120 -411q0 -266 -118 -404t-347 -138q-232 0 -353.5 139t-121.5 403zM293 535q0 -205 69.5 -302.5t219.5 -97.5q149 0 220.5 97.5t71.5 302.5t-71.5 303t-220.5 98q-150 0 -219.5 -97.5t-69.5 -303.5zM350 1288 v105q0 45 91 45q82 0 81 -45v-105q0 -45 -90 -45q-82 0 -82 45zM645 1288v105q0 45 90 45q82 0 82 -45v-105q0 -45 -90 -45q-82 0 -82 45z" />
<glyph unicode="&#xf7;" horiz-adv-x="1146" d="M98 465v14q0 61 62 62h827q61 0 62 -62v-14q0 -61 -62 -62h-827q-29 0 -45.5 16.5t-16.5 45.5zM487 41v104q0 45 82 45h9q82 0 81 -45v-104q0 -45 -81 -45h-9q-82 0 -82 45zM487 799v104q0 45 82 45h9q82 0 81 -45v-104q0 -45 -81 -45h-9q-82 0 -82 45z" />
<glyph unicode="&#xf8;" horiz-adv-x="1165" d="M113 530q0 266 122.5 409.5t352.5 143.5q201 0 321 -116l72 84q16 16 29 16q12 0 28.5 -15.5t16.5 -27.5t-13 -29l-79 -94q90 -137 90 -371q0 -266 -118 -404t-347 -138q-203 0 -320 104l-61 -72q-12 -16 -29 -16q-14 0 -30.5 15.5t-16.5 27.5q0 10 14 29l68 78 q-100 137 -100 376zM293 535q0 -152 37 -244l471 549q-70 96 -219 96q-150 0 -219.5 -97.5t-69.5 -303.5zM375 217q70 -82 207 -82q150 0 221 97.5t71 302.5q1 141 -32 227z" />
<glyph unicode="&#xf9;" horiz-adv-x="1140" d="M154 319v711q0 45 82 45h8q82 0 82 -45v-694q0 -94 54 -146.5t155 -52.5q70 0 138 39t120 105v749q0 45 81 45h9q82 0 82 -45v-727q0 -135 12 -193.5t12 -64.5q0 -25 -39 -36t-71 -11q-29 0 -42.5 31.5t-20.5 66.5l-9 45q-66 -72 -150 -112.5t-170 -40.5q-155 0 -244 88 t-89 243zM342 1473q0 14 23.5 20t74.5 6q49 0 80 -12t47 -41q59 -102 89 -157.5t30 -69.5q0 -20 -47 -21q-70 0 -105 37l-78 88q-78 90 -96 113.5t-18 36.5z" />
<glyph unicode="&#xfa;" horiz-adv-x="1140" d="M154 319v711q0 45 82 45h8q82 0 82 -45v-694q0 -94 54 -146.5t155 -52.5q70 0 138 39t120 105v749q0 45 81 45h9q82 0 82 -45v-727q0 -135 12 -193.5t12 -64.5q0 -25 -39 -36t-71 -11q-29 0 -42.5 31.5t-20.5 66.5l-9 45q-66 -72 -150 -112.5t-170 -40.5q-155 0 -244 88 t-89 243zM486 1219q0 14 29.5 69t88.5 158q16 29 47 41t80 12q51 0 75 -6t24 -20q0 -16 -31 -54.5t-162 -183.5q-33 -37 -104 -37q-47 1 -47 21z" />
<glyph unicode="&#xfb;" horiz-adv-x="1140" d="M154 319v711q0 45 82 45h8q82 0 82 -45v-694q0 -94 54 -146.5t155 -52.5q70 0 138 39t120 105v749q0 45 81 45h9q82 0 82 -45v-727q0 -135 12 -193.5t12 -64.5q0 -25 -39 -36t-71 -11q-29 0 -42.5 31.5t-20.5 66.5l-9 45q-66 -72 -150 -112.5t-170 -40.5q-155 0 -244 88 t-89 243zM323 1208q0 16 13 37l114 180q31 45 94 45h52q63 0 94 -45l117 -180q12 -18 12 -35q0 -31 -49 -30h-4q-39 0 -68 26l-129 152l-125 -152q-29 -27 -70 -26h-4q-47 -1 -47 28z" />
<glyph unicode="&#xfc;" horiz-adv-x="1140" d="M154 319v711q0 45 82 45h8q82 0 82 -45v-694q0 -94 54 -146.5t155 -52.5q70 0 138 39t120 105v749q0 45 81 45h9q82 0 82 -45v-727q0 -135 12 -193.5t12 -64.5q0 -25 -39 -36t-71 -11q-29 0 -42.5 31.5t-20.5 66.5l-9 45q-66 -72 -150 -112.5t-170 -40.5q-155 0 -244 88 t-89 243zM337 1288v105q0 45 91 45q82 0 81 -45v-105q0 -45 -90 -45q-82 0 -82 45zM632 1288v105q0 45 90 45q82 0 82 -45v-105q0 -45 -90 -45q-82 0 -82 45z" />
<glyph unicode="&#xfd;" horiz-adv-x="985" d="M37 1040q0 35 88 35h16q72 0 82 -33l209 -555q33 -90 66 -206h4q4 14 8 27.5t8 25.5l51 153l205 555q10 33 84 33h6q82 0 82 -35q0 -10 -6 -28l-526 -1395q-16 -43 -97 -43h-30q-68 0 -68 33q0 8 10 35l172 417l-358 955q-6 18 -6 26zM408 1219q0 14 29.5 69t88.5 158 q16 29 47 41t80 12q51 0 75 -6t24 -20q0 -16 -31 -54.5t-162 -183.5q-33 -37 -104 -37q-47 1 -47 21z" />
<glyph unicode="&#xfe;" horiz-adv-x="1167" d="M174 -381v1876q0 45 82 45h8q82 0 82 -45v-551q141 139 311 139q121 0 211 -70.5t138.5 -195.5t48.5 -285q0 -172 -52.5 -294.5t-146.5 -186t-217 -63.5q-90 0 -158.5 26.5t-134.5 77.5v-473q0 -45 -82 -45h-8q-82 0 -82 45zM346 231q111 -92 254 -92q135 0 204.5 98.5 t69.5 282.5q0 199 -65.5 306.5t-185.5 107.5q-70 0 -142.5 -37t-134.5 -104v-562z" />
<glyph unicode="&#xff;" horiz-adv-x="985" d="M37 1040q0 35 88 35h16q72 0 82 -33l209 -555q33 -90 66 -206h4q4 14 8 27.5t8 25.5l51 153l205 555q10 33 84 33h6q82 0 82 -35q0 -10 -6 -28l-526 -1395q-16 -43 -97 -43h-30q-68 0 -68 33q0 8 10 35l172 417l-358 955q-6 18 -6 26zM260 1288v105q0 45 91 45 q82 0 81 -45v-105q0 -45 -90 -45q-82 0 -82 45zM555 1288v105q0 45 90 45q82 0 82 -45v-105q0 -45 -90 -45q-82 0 -82 45z" />
<glyph unicode="&#x152;" horiz-adv-x="2078" d="M117 721q0 358 160.5 541.5t470.5 183.5q293 0 450 -168v94q0 33 14.5 47.5t47.5 14.5h675q23 0 32 -14.5t9 -47.5v-33q0 -33 -9 -47t-32 -14h-557v-467h496q23 0 32 -14.5t9 -46.5v-33q0 -33 -9.5 -47.5t-31.5 -14.5h-496v-499h559q23 0 32 -14.5t9 -47.5v-33 q0 -33 -9 -47t-32 -14h-677q-33 0 -47.5 14.5t-14.5 46.5v99q-156 -172 -450 -172q-307 0 -469 187t-162 546zM303 721q0 -283 113.5 -430.5t331.5 -147.5q217 0 331.5 147.5t114.5 430.5q0 281 -114.5 425t-331.5 144t-331 -144.5t-114 -424.5z" />
<glyph unicode="&#x153;" horiz-adv-x="1792" d="M113 530q0 266 122.5 409.5t352.5 143.5q219 0 338 -137q121 137 352 137q209 0 315.5 -136t106.5 -398q0 -18 -24.5 -51t-43.5 -33h-647q12 -170 88 -250t227 -80q86 0 148.5 21.5t103.5 43t47 21.5q21 0 46.5 -41t25.5 -61q0 -25 -51 -56.5t-136 -53t-181 -21.5 q-248 0 -375 129q-117 -129 -340 -129q-231 0 -353 139t-122 403zM293 535q0 -205 69.5 -302.5t219.5 -97.5q184 0 260 123q-41 113 -41 270q0 166 43 279q-72 129 -262 129q-150 0 -219.5 -97.5t-69.5 -303.5zM985 612h533q0 324 -246 324q-264 0 -287 -324z" />
<glyph unicode="&#x178;" horiz-adv-x="1144" d="M37 1403q0 35 94 35h23q35 0 55 -6.5t33 -24.5l336 -504l344 506q18 29 92 29h14q43 -2 61.5 -10.5t18.5 -24.5q0 -14 -16 -37l-430 -637v-688q0 -45 -82 -45h-17q-82 0 -82 45v694l-428 631q-16 23 -16 37zM340 1650v105q0 45 91 45q82 0 81 -45v-105q0 -45 -90 -45 q-82 0 -82 45zM635 1650v105q0 45 90 45q82 0 82 -45v-105q0 -45 -90 -45q-82 0 -82 45z" />
<glyph unicode="&#x2c6;" d="M74 1208q0 16 12 37l115 180q31 45 94 45h51q63 0 94 -45l117 -180q12 -18 12 -35q0 -31 -49 -30h-4q-39 0 -67 26l-130 152l-124 -152q-29 -27 -70 -26h-4q-47 -1 -47 28z" />
<glyph unicode="&#x2dc;" horiz-adv-x="747" d="M20 1245q0 12 7 27q33 76 79 108.5t109 32.5q43 0 86 -11t113 -36q59 -20 93 -30.5t64 -10.5q29 0 49.5 13.5t41.5 45.5q20 31 40 31q10 0 21 -6l16 -6q25 -8 25 -25q0 -12 -10 -28q-33 -74 -78 -107t-109 -33q-74 0 -205 50q-57 20 -91.5 29t-65.5 9q-27 0 -45.5 -13 t-40.5 -48q-16 -29 -35 -29q-6 0 -23 4l-20 9q-20 8 -21 24z" />
<glyph unicode="&#x2000;" horiz-adv-x="931" />
<glyph unicode="&#x2001;" horiz-adv-x="1863" />
<glyph unicode="&#x2002;" horiz-adv-x="931" />
<glyph unicode="&#x2003;" horiz-adv-x="1863" />
<glyph unicode="&#x2004;" horiz-adv-x="621" />
<glyph unicode="&#x2005;" horiz-adv-x="465" />
<glyph unicode="&#x2006;" horiz-adv-x="310" />
<glyph unicode="&#x2007;" horiz-adv-x="310" />
<glyph unicode="&#x2008;" horiz-adv-x="232" />
<glyph unicode="&#x2009;" horiz-adv-x="372" />
<glyph unicode="&#x200a;" horiz-adv-x="103" />
<glyph unicode="&#x2010;" d="M90 532v21q0 33 10.5 47t30.5 14h387q23 0 32 -14t9 -47v-21q0 -33 -9 -47t-32 -14h-387q-20 0 -30.5 14.5t-10.5 46.5z" />
<glyph unicode="&#x2011;" d="M90 532v21q0 33 10.5 47t30.5 14h387q23 0 32 -14t9 -47v-21q0 -33 -9 -47t-32 -14h-387q-20 0 -30.5 14.5t-10.5 46.5z" />
<glyph unicode="&#x2012;" d="M90 532v21q0 33 10.5 47t30.5 14h387q23 0 32 -14t9 -47v-21q0 -33 -9 -47t-32 -14h-387q-20 0 -30.5 14.5t-10.5 46.5z" />
<glyph unicode="&#x2013;" horiz-adv-x="1024" d="M0 532v21q0 33 10 47t31 14h942q23 0 32 -14t9 -47v-21q0 -33 -9 -47t-32 -14h-942q-21 0 -31 14.5t-10 46.5z" />
<glyph unicode="&#x2014;" horiz-adv-x="2048" d="M0 532v21q0 33 10 47t31 14h1966q23 0 32 -14t9 -47v-21q0 -33 -9 -47t-32 -14h-1966q-21 0 -31 14.5t-10 46.5z" />
<glyph unicode="&#x2018;" horiz-adv-x="434" d="M119 1112q0 115 37 206t87 143t87 52q23 0 41 -7t18 -23q0 -12 -18 -49q-70 -133 -70 -314q0 -31 -20.5 -48t-61.5 -17h-18q-39 0 -60.5 15t-21.5 42z" />
<glyph unicode="&#x2019;" horiz-adv-x="434" d="M66 1116q0 12 18 49q70 139 70 314q0 31 20.5 48t61.5 17h18q39 0 60.5 -15.5t21.5 -41.5q0 -115 -37 -206t-87 -143.5t-87 -52.5q-23 0 -41 7.5t-18 23.5z" />
<glyph unicode="&#x201a;" horiz-adv-x="405" d="M25 -205q0 12 18 49q70 139 70 314q0 31 20.5 48t61.5 17h18q39 0 60.5 -15.5t21.5 -41.5q0 -115 -37 -206t-87 -143.5t-87 -52.5q-23 0 -41 7.5t-18 23.5z" />
<glyph unicode="&#x201c;" horiz-adv-x="716" d="M82 1112q0 115 37 206t87 143t87 52q23 0 41 -7t18 -23q0 -12 -18 -49q-70 -133 -70 -314q0 -31 -20.5 -48t-61.5 -17h-18q-39 0 -60.5 15t-21.5 42zM367 1112q0 115 37 206t87 143t87 52q23 0 41 -7t18 -23q0 -12 -18 -49q-70 -133 -70 -314q0 -31 -20.5 -48t-61.5 -17 h-18q-39 0 -60.5 15t-21.5 42z" />
<glyph unicode="&#x201d;" horiz-adv-x="716" d="M70 1116q0 12 18 49q70 139 70 314q0 31 20.5 48t61.5 17h18q39 0 60.5 -15.5t21.5 -41.5q0 -115 -37 -206t-87 -143.5t-87 -52.5q-23 0 -41 7.5t-18 23.5zM355 1116q0 12 18 49q70 139 70 314q0 31 20.5 48t61.5 17h18q39 0 60.5 -15.5t21.5 -41.5q0 -115 -37 -206 t-87 -143.5t-87 -52.5q-23 0 -41 7.5t-18 23.5z" />
<glyph unicode="&#x201e;" horiz-adv-x="688" d="M25 -207q0 12 18 49q70 139 70 314q0 31 20.5 48t61.5 17h18q39 0 60.5 -15.5t21.5 -41.5q0 -115 -37 -206t-87 -143.5t-87 -52.5q-23 0 -41 7.5t-18 23.5zM310 -207q0 12 18 49q70 139 70 314q0 31 20.5 48t61.5 17h18q39 0 60.5 -15.5t21.5 -41.5q0 -115 -37 -206 t-87 -143.5t-87 -52.5q-23 0 -41 7.5t-18 23.5z" />
<glyph unicode="&#x2022;" horiz-adv-x="688" d="M86 668q0 109 75 183.5t181 74.5q109 0 183.5 -75t74.5 -183q0 -106 -74.5 -181t-183.5 -75q-106 0 -181 74.5t-75 181.5z" />
<glyph unicode="&#x2026;" horiz-adv-x="1261" d="M104 41v135q0 45 82 45h35q82 0 82 -45v-135q0 -45 -82 -45h-35q-82 0 -82 45zM535 41v135q0 45 81 45h35q82 0 82 -45v-135q0 -45 -82 -45h-35q-81 0 -81 45zM961 41v135q0 45 81 45h35q82 0 82 -45v-135q0 -45 -82 -45h-35q-81 0 -81 45z" />
<glyph unicode="&#x202f;" horiz-adv-x="372" />
<glyph unicode="&#x2039;" horiz-adv-x="614" d="M94 528q0 25 27 58l266 319q23 25 45 25q20 0 46 -20.5t26 -45.5q0 -18 -17 -41l-227 -295l227 -297q16 -23 17 -38q0 -18 -23.5 -43t-48.5 -25q-22 0 -45 27l-266 319q-27 33 -27 57z" />
<glyph unicode="&#x203a;" horiz-adv-x="614" d="M111 193q0 16 16 38l227 297l-227 295q-16 23 -16 41q0 25 25.5 45.5t45.5 20.5q25 0 45 -25l267 -319q27 -33 26 -58q0 -25 -26 -57l-267 -319q-23 -27 -45 -27t-46.5 24.5t-24.5 43.5z" />
<glyph unicode="&#x205f;" horiz-adv-x="465" />
<glyph unicode="&#x20ac;" horiz-adv-x="1228" d="M0 545v14q0 33 10 47.5t31 14.5h100q-2 31 -2 96q0 63 2 94h-100q-20 0 -30.5 14.5t-10.5 46.5v15q0 33 10 47t31 14h117q41 246 195.5 372t394.5 126q88 0 168.5 -19.5t131 -50t50.5 -57.5t-25.5 -69t-44.5 -42q-4 0 -45 24.5t-101.5 45t-138.5 20.5q-168 0 -268 -82.5 t-135 -267.5h569q23 0 32 -14t9 -47v-15q0 -33 -9 -47t-32 -14h-585q-2 -31 -2 -96q0 -66 2 -94h585q23 0 32 -14.5t9 -47.5v-14q0 -33 -9 -47.5t-32 -14.5h-569q35 -178 137.5 -263t249.5 -85q94 0 162.5 24.5t114 51.5t51.5 27q18 0 44.5 -42t26.5 -61q0 -29 -52 -63.5 t-141 -59t-190 -24.5q-513 -1 -589 495h-113q-20 0 -30.5 14.5t-10.5 47.5z" />
<glyph unicode="&#x2122;" horiz-adv-x="1581" d="M61 1380v19q0 35 23 35h541q23 0 22 -35v-19q0 -35 -22 -34h-217v-697q0 -25 -48 -24h-8q-47 -1 -47 24v697h-221q-23 0 -23 34zM721 649v762q0 25 45 25h43q37 0 47 -21l219 -379l29 -71l31 65l217 385q14 20 49 21h39q45 0 45 -25v-762q0 -25 -45 -24h-8q-47 0 -48 24 v621h-6l-225 -404q-8 -14 -25 -14h-47q-16 0 -24 14l-230 410h-6v-627q0 -25 -47 -24h-8q-45 -1 -45 24z" />
<glyph unicode="&#x25fc;" horiz-adv-x="1075" d="M0 0v1075h1075v-1075h-1075z" />
</font>
</defs>
</svg>
