<?xml version="1.0" standalone="no"?>
<!DOCTYPE svg PUBLIC "-//W3C//DTD SVG 1.1//EN" "http://www.w3.org/Graphics/SVG/1.1/DTD/svg11.dtd" >
<svg xmlns="http://www.w3.org/2000/svg" xmlns:xlink="http://www.w3.org/1999/xlink" version="1.1">
<metadata></metadata>
<defs>
<font id="alfa_slab_oneregular" horiz-adv-x="1294" >
<font-face units-per-em="2048" ascent="1638" descent="-410" />
<missing-glyph horiz-adv-x="614" />
<glyph unicode="&#xfb01;" horiz-adv-x="1495" d="M37 0v336h90v467h-90v336h94q0 250 122 366.5t355 116.5q100 0 182 -13.5t132 -31.5v16h417v-342h-399v-4q-109 10 -201 10q-80 0 -110.5 -26.5t-30.5 -91.5h160v-336h-160v-467h160v-336h-721zM823 0v336h90v467h-90v336h561v-803h91v-336h-652z" />
<glyph unicode="&#xfb02;" horiz-adv-x="1503" d="M37 0v336h90v467h-90v336h94q0 250 122 366.5t355 116.5q150 0 260 -29h516v-1257h91v-338h-652v338h90v913q-90 8 -174 8q-80 0 -110.5 -26.5t-30.5 -91.5h160v-336h-160v-467h160v-336h-721z" />
<glyph horiz-adv-x="0" />
<glyph unicode="&#xd;" horiz-adv-x="614" />
<glyph horiz-adv-x="0" />
<glyph horiz-adv-x="0" />
<glyph unicode=" "  horiz-adv-x="614" />
<glyph unicode="&#x09;" horiz-adv-x="614" />
<glyph unicode="&#xa0;" horiz-adv-x="614" />
<glyph unicode="!" horiz-adv-x="694" d="M41 1491v102h612v-102l-96 -1042h-422zM115 0v336h463v-336h-463z" />
<glyph unicode="&#x22;" horiz-adv-x="729" d="M51 1593h293l-31 -471h-231zM385 1593h293l-31 -471h-231z" />
<glyph unicode="#" horiz-adv-x="1499" d="M45 395l33 285h231l27 215h-250l33 285h254l51 413h291v-45l-47 -368h245l52 413h290v-45l-47 -368h246l-33 -285h-247l-27 -215h266l-33 -285h-268l-47 -395h-293v45l43 350h-244l-47 -395h-293v45l43 350h-229zM606 680h244l27 215h-244z" />
<glyph unicode="$" horiz-adv-x="1400" d="M33 1128q0 211 123 334t403 152v235h268v-231q166 -10 301.5 -48t200.5 -79v-367h-430q0 102 -113 103q-68 0 -97.5 -17.5t-29.5 -60.5q0 -33 27 -49.5t100 -38.5q193 -61 313 -124t194.5 -168t74.5 -271q0 -233 -138 -364.5t-403 -156.5v-247h-268v245q-158 10 -296 42 t-212 65v405h451q0 -66 26.5 -93t100.5 -27q66 0 95.5 20.5t29.5 61.5q0 29 -26 52t-93 48q-227 84 -351 154.5t-187.5 170t-63.5 254.5z" />
<glyph unicode="%" horiz-adv-x="1812" d="M61 1200q0 217 86 315.5t248 98.5q336 0 336 -414q0 -199 -80 -304t-256 -105q-334 -1 -334 409zM325 0v66l953 1527h208v-65l-950 -1528h-211zM337 1044q0 -76 58 -75q59 -1 59 75v318q0 74 -59 74q-57 0 -58 -74v-318zM1081 389q0 217 86 315.5t248 98.5 q336 0 336 -414q0 -199 -80 -304t-256 -105q-334 -1 -334 409zM1357 233q0 -76 58 -75q59 -1 59 75v318q0 74 -59 74q-57 0 -58 -74v-318z" />
<glyph unicode="&#x26;" horiz-adv-x="1695" d="M33 430q0 143 86 248.5t215 159.5q-115 82 -172.5 168t-57.5 200q0 131 84 225.5t232.5 142.5t339.5 48q193 0 352.5 -47t237.5 -105v-393h-430v37q0 74 -35 108.5t-105 34.5q-129 0 -129 -100q0 -39 32 -73.5t101 -88.5l334 -252q8 43 8 99v37h494v-342h-119l-18 -68 l184 -139l-250 -330l-149 115q-205 -143 -551 -144q-330 0 -507 122t-177 337zM590 453q0 -61 46 -89t134 -28q101 0 164 37l-260 200q-39 -18 -61.5 -49.5t-22.5 -70.5z" />
<glyph unicode="'" horiz-adv-x="395" d="M51 1593h293l-31 -471h-231z" />
<glyph unicode="(" horiz-adv-x="765" d="M74 672q0 358 125 663t323 484l223 -103q-143 -209 -216.5 -473t-73.5 -571t73.5 -571.5t216.5 -473.5l-223 -102q-198 178 -323 483t-125 664z" />
<glyph unicode=")" horiz-adv-x="765" d="M20 -373q143 209 217 473.5t74 571.5t-73.5 571t-217.5 473l224 103q199 -178 323.5 -483.5t124.5 -663.5t-125 -663.5t-323 -483.5z" />
<glyph unicode="*" horiz-adv-x="837" d="M33 1128l22 19l205 67l-205 68l-22 14l123 211l24 -14l154 -127l-37 193v34h246v-34l-37 -193l151 127l23 14l125 -211l-25 -14l-207 -68l207 -67l25 -19l-125 -204l-23 14l-151 123l37 -193v-30h-246v30l37 193l-154 -123l-24 -14z" />
<glyph unicode="+" horiz-adv-x="1179" d="M82 530v342h338v338h342v-338h336v-342h-336v-337h-342v337h-338z" />
<glyph unicode="," horiz-adv-x="501" d="M82 -330l106 330h-104v336h319v-336l-145 -330h-176z" />
<glyph unicode="-" horiz-adv-x="796" d="M70 408v335h657v-335h-657z" />
<glyph unicode="." horiz-adv-x="499" d="M82 0v336h319v-336h-319z" />
<glyph unicode="/" horiz-adv-x="866" d="M-41 -244l657 1968h291v-65l-655 -1968h-293v65z" />
<glyph unicode="0" horiz-adv-x="1499" d="M29 797q0 432 187 628.5t534 196.5q346 0 533 -196.5t187 -628.5q0 -399 -173 -612.5t-547 -213.5q-347 0 -534 197t-187 629zM610 487q0 -152 140 -151q139 -1 139 151v619q0 152 -139 151q-139 0 -140 -151v-619z" />
<glyph unicode="1" horiz-adv-x="1069" d="M29 1257v232l454 104h344v-1257h172v-336h-909v336h197v921h-258z" />
<glyph unicode="2" horiz-adv-x="1329" d="M25 0v176q0 176 52 311.5t171 255t327 248.5q61 39 87 66.5t26 66.5q0 84 -121 84q-90 0 -206.5 -47t-210.5 -119l-121 437q131 66 301 111.5t342 45.5q283 0 438.5 -125t155.5 -354q0 -123 -54.5 -216t-131 -156.5t-199.5 -145.5q-137 -90 -202 -154.5t-65 -148.5h248 v117h420v-453h-1257z" />
<glyph unicode="3" horiz-adv-x="1275" d="M29 1464q125 66 284.5 112t321.5 46q283 0 434.5 -119t151.5 -336q0 -135 -63.5 -222t-162.5 -132q64 -16 122.5 -66.5t96 -126t37.5 -167.5q0 -225 -160.5 -353.5t-476.5 -128.5q-150 0 -299 34t-266 83v436q127 -55 263.5 -90t258.5 -35q86 0 126 27t40 88 q0 119 -143 119h-148v336h115q135 0 135 114q0 111 -135 111q-98 0 -204.5 -46t-206.5 -120z" />
<glyph unicode="4" horiz-adv-x="1421" d="M37 256v336l706 1001h500v-1026h141v-311h-141v-256h-541v256h-665zM416 567h286v404z" />
<glyph unicode="5" horiz-adv-x="1333" d="M45 637l88 956h1090v-397h-680l-19 -211q129 68 310 68q229 0 350 -135.5t121 -366.5q0 -174 -79 -305t-234.5 -203t-377.5 -72q-150 0 -299 34t-266 83v436q266 -125 483 -125q113 0 168.5 46.5t55.5 144.5q0 72 -33 112.5t-105 40.5q-55 0 -88.5 -27.5t-54.5 -78.5 h-430z" />
<glyph unicode="6" horiz-adv-x="1419" d="M37 766q0 442 208 649t572 207q150 0 279 -25.5t207 -66.5v-414q-78 35 -178.5 56.5t-213.5 21.5q-293 0 -293 -217v-25q63 23 143.5 38.5t158.5 15.5q227 0 355 -131.5t128 -364.5q0 -260 -171 -399.5t-482 -139.5q-360 0 -536.5 195.5t-176.5 599.5zM618 494 q0 -82 35 -120t105 -38q69 0 104 42t35 132q0 82 -36 128t-109 46q-70 0 -134 -27v-163z" />
<glyph unicode="7" horiz-adv-x="1327" d="M20 1008v585h1287v-311q-113 -168 -222.5 -392t-182.5 -460.5t-73 -429.5h-579q0 182 76.5 403.5t193.5 429t236 363.5h-305v-188h-431z" />
<glyph unicode="8" horiz-adv-x="1433" d="M20 428q0 162 89.5 260t212.5 139q-109 39 -182.5 126t-73.5 225q0 219 164.5 331.5t486.5 112.5q319 0 483 -112.5t164 -331.5q0 -139 -65.5 -225.5t-165.5 -125.5q114 -41 197 -136t83 -251q0 -231 -177 -350t-519 -119t-519.5 116t-177.5 341zM557 500 q0 -164 160 -164t160 164q0 82 -41 125t-119 43t-119 -43t-41 -125zM578 1114q0 -135 139 -135t139 135q0 143 -139 143t-139 -143z" />
<glyph unicode="9" horiz-adv-x="1419" d="M20 1073q0 272 168 410.5t478 138.5q364 0 542 -195.5t178 -599.5q0 -442 -207.5 -649t-572.5 -207q-150 0 -278.5 26t-206.5 66v414q78 -35 178 -56.5t213 -21.5q293 0 293 217v23q-131 -51 -283 -51q-238 0 -370 128t-132 357zM526 1081q0 -82 36 -127t110 -45 q70 0 133 27v164q0 82 -35 119.5t-104 37.5q-70 0 -105 -43t-35 -133z" />
<glyph unicode=":" horiz-adv-x="499" d="M82 0v336h319v-336h-319zM82 666v335h319v-335h-319z" />
<glyph unicode=";" horiz-adv-x="501" d="M82 -330l106 330h-104v336h319v-336l-145 -330h-176zM84 666v335h319v-335h-319z" />
<glyph unicode="&#x3c;" horiz-adv-x="1021" d="M74 471v377l815 332h43v-320l-555 -188v-23l555 -190v-318h-43z" />
<glyph unicode="=" horiz-adv-x="1013" d="M82 270v342h850v-342h-850zM82 772v340h850v-340h-850z" />
<glyph unicode="&#x3e;" horiz-adv-x="1021" d="M90 141v318l555 190v23l-555 188v320h43l815 -332v-377l-815 -330h-43z" />
<glyph unicode="?" horiz-adv-x="1290" d="M29 1464q135 63 313 110.5t354 47.5q174 0 304 -52t200 -148.5t70 -223.5q0 -111 -36 -186.5t-87 -123.5t-135 -106q-70 -49 -112 -86t-69.5 -90t-27.5 -127v-30h-490v94q0 92 34 160.5t81 111.5t121 94t108.5 88t34.5 88q0 82 -123 82q-96 0 -214.5 -36.5t-217.5 -83.5z M313 0v336h488v-336h-488z" />
<glyph unicode="@" horiz-adv-x="2351" d="M66 440q0 354 161.5 622.5t439 414t613.5 145.5q307 0 532.5 -107.5t345 -306t119.5 -465.5q0 -256 -86 -430t-223 -258t-289 -84q-150 0 -228.5 60.5t-100.5 150.5q-57 -82 -156.5 -146.5t-226.5 -64.5q-195 0 -298.5 135.5t-103.5 374.5q0 225 89 380t244 230.5 t351 75.5q125 0 264.5 -33.5t260.5 -89.5v-714q0 -23 12 -34t31 -11q33 0 62.5 50t48 144t18.5 219q0 309 -183.5 463t-525.5 154q-248 0 -438.5 -106.5t-296 -298t-105.5 -441.5q0 -336 167 -488.5t460 -152.5q133 0 243.5 15.5t164.5 33.5v-297q-72 -25 -193 -44t-248 -19 q-450 0 -687.5 231.5t-237.5 691.5zM1065 426q0 -111 94 -111q41 0 80 25t64 59v471q-53 14 -103 15q-61 0 -98 -50.5t-37 -121.5v-287z" />
<glyph unicode="A" horiz-adv-x="1650" d="M25 0v336h81l347 1257h745l346 -1257h82v-336h-803v336h123l-33 164h-278l-33 -164h123v-336h-700zM680 717h188l-84 407h-20z" />
<glyph unicode="B" horiz-adv-x="1587" d="M41 0v336h102v921h-102v336h940q256 0 399.5 -104.5t143.5 -298.5q0 -121 -57.5 -204t-134.5 -125t-148 -56v-21q145 -14 262 -92t117 -278q0 -215 -162 -314.5t-420 -99.5h-940zM717 336h125q59 0 89 31.5t30 99.5v90q0 68 -30 99.5t-89 31.5h-125v-352zM717 922h110 q59 0 89 31.5t30 99.5v73q0 68 -29.5 99.5t-89.5 31.5h-110v-335z" />
<glyph unicode="C" horiz-adv-x="1478" d="M29 797q0 825 802 825q195 0 362 -47t249 -105v-512h-492v148q0 78 -34.5 114.5t-104.5 36.5t-104.5 -36.5t-34.5 -114.5v-619q0 -78 34.5 -114.5t104.5 -36.5t104.5 37t34.5 114v166h492v-530q-84 -57 -249 -104.5t-357 -47.5q-387 0 -597 197t-210 629z" />
<glyph unicode="D" horiz-adv-x="1646" d="M41 0v336h102v919h-102v338h831q342 0 544 -187t202 -609t-202 -609.5t-544 -187.5h-831zM717 336h119q70 0 104.5 37t34.5 114v619q0 151 -137 151h-2h-119v-921z" />
<glyph unicode="E" horiz-adv-x="1460" d="M41 0v336h102v921h-102v336h1382v-618h-458v282h-248v-323h180v-234h-180v-364h248v323h458v-659h-1382z" />
<glyph unicode="F" d="M41 0v336h102v921h-102v336h1225v-530h-363v194h-186v-339h309v-234h-309v-348h268v-336h-944z" />
<glyph unicode="G" horiz-adv-x="1601" d="M29 797q0 432 216 628.5t617 196.5q195 0 365 -41t256 -92v-490h-512v97q0 86 -36 123.5t-114 37.5t-113.5 -37.5t-35.5 -123.5v-598q0 -86 35.5 -124t113.5 -38t114 38t36 124v14h-111v305h725v-305h-102v-410q-90 -51 -263 -91t-374 -40q-383 0 -600 202t-217 624z" />
<glyph unicode="H" horiz-adv-x="1720" d="M41 0v336h102v921h-102v336h774v-336h-98v-311h287v311h-99v336h774v-336h-102v-921h102v-336h-774v336h99v338h-287v-338h98v-336h-774z" />
<glyph unicode="I" horiz-adv-x="860" d="M41 0v336h102v921h-102v336h778v-336h-102v-921h102v-336h-778z" />
<glyph unicode="J" horiz-adv-x="1363" d="M25 106v361h409v-21q0 -110 105 -110h2q55 0 82.5 29.5t27.5 93.5v798h-184v336h860v-336h-102v-688q0 -301 -176.5 -449.5t-489.5 -148.5q-158 0 -299 36t-235 99z" />
<glyph unicode="K" horiz-adv-x="1710" d="M41 0v336h102v921h-102v336h774v-336h-98v-270l317 270h-129v336h762v-336h-102l-342 -282l352 -639h102v-336h-559l-307 635l-94 -78v-221h98v-336h-774z" />
<glyph unicode="L" horiz-adv-x="1337" d="M41 0v336h102v921h-102v336h864v-336h-188v-921h184v188h408v-524h-1268z" />
<glyph unicode="M" horiz-adv-x="2340" d="M41 0v336h102v921h-102v336h938l213 -639l205 639h903v-336h-102v-921h102v-336h-774v336h98v717l-348 -1053h-303l-359 1042v-706h99v-336h-672z" />
<glyph unicode="N" horiz-adv-x="1929" d="M41 0v336h102v921h-102v336h739l539 -821v485h-98v336h671v-336h-102v-1257h-576l-600 924v-588h99v-336h-672z" />
<glyph unicode="O" horiz-adv-x="1622" d="M29 797q0 432 203.5 628.5t578.5 196.5t578.5 -196.5t203.5 -628.5t-203.5 -629t-578.5 -197t-578.5 197t-203.5 629zM672 487q0 -80 34.5 -115.5t104.5 -35.5t104.5 37t34.5 114v619q0 78 -34.5 114.5t-104.5 36.5t-104.5 -36.5t-34.5 -114.5v-619z" />
<glyph unicode="P" horiz-adv-x="1511" d="M41 0v336h102v921h-102v336h899q264 0 403.5 -113.5t139.5 -367.5t-139.5 -367.5t-403.5 -113.5h-223v-295h196v-336h-872zM717 922h69q119 0 119 131v73q0 68 -29.5 99.5t-89.5 31.5h-69v-335z" />
<glyph unicode="Q" horiz-adv-x="1658" d="M29 797q0 416 205.5 620.5t576.5 204.5q369 0 575.5 -181t206.5 -542q0 -156 -50 -292t-173 -251l10 -20h246v-496q-434 0 -695 27t-449.5 114t-315.5 261q-137 199 -137 555zM672 487q0 -151 137 -151h2h2q137 0 137 151v619q0 151 -137 151h-2q-139 0 -139 -151v-619z " />
<glyph unicode="R" horiz-adv-x="1638" d="M41 0v336h102v921h-102v336h940q264 0 403.5 -108.5t139.5 -351.5q0 -137 -55.5 -237.5t-157.5 -139.5l2 -21q197 -31 196 -241v-158h97v-336h-650v481q0 80 -23.5 121t-73.5 55.5t-142 14.5v-336h135v-336h-811zM717 922h110q59 0 89 31.5t30 99.5v73q0 68 -29.5 99.5 t-89.5 31.5h-110v-335z" />
<glyph unicode="S" horiz-adv-x="1380" d="M16 1128q0 242 159 368t530 126q178 0 334.5 -36t252.5 -95v-367h-409q0 102 -127 103q-61 0 -87 -15.5t-26 -54.5q0 -35 29.5 -55.5t97.5 -42.5l178 -62q217 -74 316.5 -191.5t99.5 -307.5q0 -260 -175 -393.5t-513 -133.5q-197 0 -372 34t-269 77v405h450 q0 -63 29 -91.5t104 -28.5q63 0 91 19.5t28 57.5q0 33 -26.5 56.5t-92.5 48.5l-176 61q-227 86 -326.5 203t-99.5 315z" />
<glyph unicode="T" horiz-adv-x="1597" d="M29 1098v495h1540v-495h-352v159h-132v-921h144v-336h-860v336h143v921h-131v-159h-352z" />
<glyph unicode="U" horiz-adv-x="1599" d="M33 1257v336h758v-336h-82v-790q0 -68 29.5 -99.5t88.5 -31.5t89 31.5t30 99.5v790h-82v336h703v-336h-103v-686q0 -317 -170 -458.5t-487 -141.5q-322 0 -497 141.5t-175 458.5v686h-102z" />
<glyph unicode="V" horiz-adv-x="1609" d="M25 1257v336h786v-336h-106l141 -686h20l142 686h-107v336h684v-336h-82l-366 -1257h-664l-367 1257h-81z" />
<glyph unicode="W" horiz-adv-x="2471" d="M25 1257v336h757v-336h-77l79 -522h21l194 858h590l180 -858h21l80 522h-78v336h655v-336h-82l-305 -1257h-612l-186 885h-21l-197 -885h-612l-326 1257h-81z" />
<glyph unicode="X" horiz-adv-x="1638" d="M29 0v336h106l393 442l-409 479h-86v336h768v-336h-78l113 -167h20l113 167h-78v336h711v-336h-107l-387 -436l416 -485h86v-336h-774v336h84l-119 168h-21l-118 -168h83v-336h-716z" />
<glyph unicode="Y" horiz-adv-x="1589" d="M25 1257v336h792v-336h-72l121 -317h21l121 317h-72v336h629v-336h-82l-396 -708v-213h103v-336h-778v336h102v213l-408 708h-81z" />
<glyph unicode="Z" horiz-adv-x="1411" d="M29 0v295l630 962h-213v-167h-407v503h1311v-295l-629 -962h254v168h407v-504h-1353z" />
<glyph unicode="[" horiz-adv-x="665" d="M90 -539v2327l547 47l25 -264l-228 -47v-1798l228 -48l-25 -264z" />
<glyph unicode="\" horiz-adv-x="868" d="M-41 1659v65h293l657 -1968v-65h-295z" />
<glyph unicode="]" horiz-adv-x="665" d="M4 -322l227 48v1798l-227 47l25 264l546 -47v-2327l-546 -47z" />
<glyph unicode="^" horiz-adv-x="845" d="M29 1069v31l239 493h310l239 -493v-31h-258l-127 291h-18l-127 -291h-258z" />
<glyph unicode="_" horiz-adv-x="1228" d="M0 -147h1229v-193h-1229v193z" />
<glyph unicode="`" horiz-adv-x="825" d="M82 1538v55h438l223 -311v-31h-327z" />
<glyph unicode="a" horiz-adv-x="1259" d="M37 285q0 387 657 397q-6 70 -53 95.5t-160 25.5q-92 0 -197.5 -19.5t-193.5 -52.5v377q109 27 236 43t247 16q305 0 436.5 -110.5t131.5 -341.5v-379h90v-336h-541v139q-45 -66 -126 -117t-197 -51q-154 0 -242 82t-88 232zM498 373q0 -35 21.5 -56.5t60.5 -21.5 q53 0 81.5 45t28.5 127v12q-92 0 -142 -24.5t-50 -81.5z" />
<glyph unicode="b" horiz-adv-x="1355" d="M37 0v336h90v921h-90v336h561v-594q51 66 132 117t185 51q209 0 314.5 -155.5t105.5 -442.5t-105.5 -442.5t-314.5 -155.5q-104 0 -185 51.5t-132 116.5v-139h-561zM598 467q0 -68 29.5 -99.5t89.5 -31.5q59 0 89 31.5t30 99.5v205q0 68 -30 99.5t-89 31.5t-89 -32 t-30 -99v-205z" />
<glyph unicode="c" horiz-adv-x="1150" d="M29 569q0 293 163.5 445.5t454.5 152.5q141 0 270.5 -38.5t200.5 -88.5v-405h-352v37q0 68 -28.5 99.5t-90.5 31.5q-119 0 -119 -131v-176q0 -160 183 -160q170 0 395 37v-322q-70 -31 -196 -55.5t-261 -24.5q-293 0 -456.5 152.5t-163.5 445.5z" />
<glyph unicode="d" horiz-adv-x="1347" d="M20 569q0 287 105.5 442.5t314.5 155.5q104 0 185.5 -51t132.5 -117v258h-121v336h592v-1257h90v-336h-561v139q-51 -66 -132 -117t-186 -51q-209 0 -314.5 156t-105.5 442zM520 467q0 -68 30 -99.5t89 -31.5t89 31.5t30 99.5v205q0 68 -30 99.5t-89 31.5t-89 -32 t-30 -99v-205z" />
<glyph unicode="e" horiz-adv-x="1216" d="M29 569q0 293 163.5 445.5t454.5 152.5q289 0 417 -150.5t128 -373.5v-147h-664v-13q0 -76 45 -111.5t150 -35.5q125 0 237.5 18.5t196.5 46.5v-327q-72 -39 -210 -71t-300 -32q-291 0 -454.5 152.5t-163.5 445.5zM528 721h238v24q0 70 -29.5 101t-89.5 31q-59 0 -89 -32 t-30 -100v-24z" />
<glyph unicode="f" horiz-adv-x="786" d="M37 0v336h90v467h-90v336h94q0 250 122 366.5t355 116.5q113 0 202 -16.5t130 -36.5v-322q-109 10 -201 10q-80 0 -110.5 -26.5t-30.5 -91.5h160v-336h-160v-467h160v-336h-721z" />
<glyph unicode="g" horiz-adv-x="1339" d="M20 569q0 287 105.5 442.5t314.5 155.5q104 0 185.5 -51t132.5 -117v140h561v-336h-90v-721q0 -297 -147.5 -431t-444.5 -134q-148 0 -282 20.5t-208 46.5v336q217 -39 390 -39q117 0 169 36t52 134v88q-51 -66 -132 -117t-186 -51q-209 0 -314.5 156t-105.5 442z M520 467q0 -68 30 -99.5t89 -31.5t89 31.5t30 99.5v205q0 68 -30 99.5t-89 31.5t-89 -32t-30 -99v-205z" />
<glyph unicode="h" horiz-adv-x="1425" d="M37 0v336h90v921h-90v336h561v-614q76 94 164 141t205 47q170 0 255 -106.5t85 -292.5v-432h90v-336h-647v336h86v336q0 68 -29 99.5t-86 31.5q-123 0 -123 -131v-336h86v-336h-647z" />
<glyph unicode="i" horiz-adv-x="708" d="M37 0v336h90v467h-90v336h561v-803h90v-336h-651zM135 1251v342h418v-342h-418z" />
<glyph unicode="j" horiz-adv-x="641" d="M-213 -104q96 -14 172 -15q158 0 158 148v774h-137v336h608v-1069q0 -281 -119 -417t-358 -136q-84 0 -173.5 14t-150.5 31v334zM125 1251v342h418v-342h-418z" />
<glyph unicode="k" horiz-adv-x="1388" d="M37 0v336h90v921h-90v336h561v-831h49l254 377h432v-336h-84l-174 -195l197 -272h88v-336h-502l-211 393h-49v-393h-561z" />
<glyph unicode="l" horiz-adv-x="716" d="M37 -2v338h90v921h-90v336h561v-1257h90v-338h-651z" />
<glyph unicode="m" horiz-adv-x="2134" d="M37 0v336h90v467h-90v336h561v-160q147 188 369 188q125 0 203.5 -58t111.5 -165q74 106 169 163.5t224 57.5q170 0 255 -106.5t85 -292.5v-430h90v-336h-647v336h86v336q0 68 -28.5 99.5t-85.5 31.5q-123 0 -123 -131v-336h86v-336h-643v336h86v336q0 68 -29 99.5 t-86 31.5q-123 0 -123 -131v-336h86v-336h-647z" />
<glyph unicode="n" horiz-adv-x="1425" d="M37 0v336h90v467h-90v336h561v-160q147 188 369 188q170 0 255 -106.5t85 -292.5v-432h90v-336h-647v336h86v336q0 68 -29 99.5t-86 31.5q-123 0 -123 -131v-336h86v-336h-647z" />
<glyph unicode="o" d="M29 569q0 293 163.5 445.5t454.5 152.5q295 0 457 -154.5t162 -443.5q0 -293 -164 -445.5t-455 -152.5t-454.5 152.5t-163.5 445.5zM528 467q0 -68 30 -99.5t89 -31.5q60 0 89.5 31.5t29.5 99.5v205q0 68 -29.5 99.5t-89.5 31.5q-59 0 -89 -32t-30 -99v-205z" />
<glyph unicode="p" horiz-adv-x="1347" d="M29 -119h90v922h-90v336h561v-140q51 66 132 117t185 51q209 0 314.5 -155.5t105.5 -442.5t-105.5 -442.5t-314.5 -155.5q-104 0 -185 51.5t-132 116.5v-258h141v-336h-702v336zM590 467q0 -68 29.5 -99.5t89.5 -31.5q59 0 88.5 31.5t29.5 99.5v205q0 68 -29.5 99.5 t-88.5 31.5t-89 -32t-30 -99v-205z" />
<glyph unicode="q" horiz-adv-x="1335" d="M20 569q0 287 105.5 442.5t314.5 155.5q104 0 185.5 -51t132.5 -117v140h561v-336h-90v-1258h-613v336h142v258q-51 -66 -132 -117t-186 -51q-209 0 -314.5 156t-105.5 442zM520 467q0 -68 30 -99.5t89 -31.5t89 31.5t30 99.5v205q0 68 -30 99.5t-89 31.5t-89 -32 t-30 -99v-205z" />
<glyph unicode="r" horiz-adv-x="1079" d="M41 0v336h90v467h-90v336h561v-150q57 86 131 132t178 46q41 0 78 -8t62 -20v-391q-82 34 -176 34h-5q-129 0 -198.5 -67.5t-69.5 -200.5v-178h184v-336h-745z" />
<glyph unicode="s" horiz-adv-x="1062" d="M37 53v303h332v-20q0 -98 125 -98q110 0 110 74q0 42 -31.5 62.5t-111.5 35.5l-103 18q-321 57 -321 363q0 180 135 278t365 98q256 0 432 -86v-284h-312v20q0 41 -27.5 62.5t-80.5 21.5q-102 0 -103 -65q0 -35 29 -53.5t105 -34.5l116 -23q182 -35 260 -129t78 -242 q0 -186 -130 -284.5t-369 -98.5q-258 0 -498 82z" />
<glyph unicode="t" horiz-adv-x="923" d="M16 803v336q78 0 117 40t39 109v92h434v-241h277v-336h-277v-336q0 -68 30 -99.5t89 -31.5q78 0 170 18v-321q-57 -23 -154.5 -42.5t-197.5 -19.5q-217 0 -327 105.5t-110 355.5v371h-90z" />
<glyph unicode="u" horiz-adv-x="1404" d="M25 803v336h561v-672q0 -68 29.5 -99.5t89.5 -31.5q59 0 88.5 31.5t29.5 99.5v336h-110v336h581v-803h90v-336h-561v160q-147 -188 -368 -189q-170 0 -255 106.5t-85 293.5v432h-90z" />
<glyph unicode="v" horiz-adv-x="1333" d="M20 803v336h633v-336h-86l109 -406h20l109 406h-86v336h594v-336h-86l-252 -803h-610l-259 803h-86z" />
<glyph unicode="w" horiz-adv-x="1957" d="M20 803v336h633v-336h-86l74 -320h21l149 656h377l149 -656h21l72 320h-87v336h594v-336h-86l-260 -803h-497l-113 569h-20l-113 -569h-471l-271 803h-86z" />
<glyph unicode="x" horiz-adv-x="1302" d="M25 0v336h86l247 221l-260 246h-65v336h639v-336h-58l80 -119h21l80 119h-58v336h533v-336h-86l-236 -217l264 -250h66v-336h-639v336h57l-80 121h-20l-80 -121h57v-336h-548z" />
<glyph unicode="y" d="M20 -8h283v-21q0 -51 53 -51q47 0 72 45l-324 838h-77v336h608v-336h-70l107 -320l98 320h-70v336h570v-336h-78l-268 -711q-100 -268 -229.5 -402t-340.5 -134q-86 0 -174 17t-160 48v371z" />
<glyph unicode="z" horiz-adv-x="1163" d="M29 0v305l499 498h-182v-74h-305v410h1075v-293l-487 -510h196v115h310v-451h-1106z" />
<glyph unicode="{" horiz-adv-x="612" d="M45 510v223q45 0 80 33t35 111q0 133 -27 284q-14 98 -20.5 154.5t-6.5 136.5q0 127 68 192.5t163 84t218 18.5v-182q-111 0 -111 -133q0 -70 6.5 -125.5t18.5 -130.5q25 -156 25 -275q0 -213 -158 -280q158 -70 158 -279q0 -119 -25 -274q-12 -76 -18.5 -131.5 t-6.5 -124.5q0 -76 33 -106t78 -30v-182q-123 0 -218 18.5t-163 84t-68 194.5q0 80 6.5 135.5t20.5 153.5q27 152 27 287q0 76 -35 109.5t-80 33.5z" />
<glyph unicode="|" horiz-adv-x="522" d="M127 -670v2595h268v-2595h-268z" />
<glyph unicode="}" horiz-adv-x="612" d="M57 -324q113 0 113 136q0 70 -6 125t-19 131q-27 145 -26 274q0 209 160 279q-160 68 -160 280q0 129 26 275q12 76 18.5 131t6.5 125q0 76 -30.5 104.5t-82.5 28.5v182q123 0 218.5 -18.5t163 -84t67.5 -192.5q0 -135 -27 -291q-25 -164 -24 -284q0 -78 33.5 -111 t78.5 -33v-223q-43 0 -77.5 -34t-34.5 -109q0 -135 26 -287q12 -84 18.5 -146.5t6.5 -142.5q0 -129 -67.5 -194.5t-163 -84t-218.5 -18.5v182z" />
<glyph unicode="~" horiz-adv-x="1265" d="M61 612q0 373 312 373q76 0 133 -11t156 -36q88 -25 151.5 -37t142.5 -12q133 0 134 74h114q0 -160 -56 -266.5t-241 -106.5q-78 0 -142.5 12t-148.5 37q-90 25 -155.5 37t-147.5 12q-76 0 -109.5 -23.5t-33.5 -52.5h-109z" />
<glyph unicode="&#xa1;" horiz-adv-x="706" d="M41 -352l94 1042h422l96 -1042v-103h-612v103zM115 803v336h463v-336h-463z" />
<glyph unicode="&#xa2;" horiz-adv-x="1134" d="M16 569q0 250 121 399.5t342 186.5v191h269v-185q109 -12 207 -48t151 -73v-405h-352v37q0 68 -29 99.5t-90 31.5q-119 0 -119 -131v-176q0 -160 182 -160q170 0 396 37v-322q-51 -20 -146.5 -42.5t-199.5 -33.5v-188h-269v197q-221 37 -342 185t-121 400z" />
<glyph unicode="&#xa3;" d="M49 156q176 205 176 424q0 45 -2 65h-172v256h99q-47 104 -48 260q0 127 65.5 231.5t202 167t337.5 62.5q145 0 277 -31.5t226 -85.5v-340h-370v43q-6 23 -34 40.5t-79 17.5q-70 0 -101.5 -33t-31.5 -111q0 -49 9 -92t34 -129h340v-256h-301q-2 -139 -60 -242 q47 -20 89.5 -30.5t95.5 -10.5q84 0 118.5 32t34.5 73h299q0 -209 -87 -352.5t-343 -143.5q-65 0 -114.5 9.5t-108.5 27.5q-59 16 -98 24.5t-88 8.5q-74 0 -121 -18.5t-68 -42.5z" />
<glyph unicode="&#xa4;" horiz-adv-x="1196" d="M16 328l164 164q-18 68 -18 178q0 98 18 174l-164 166l222 221l133 -135q92 43 227 43t227 -43l136 135l219 -221l-164 -164q20 -74 20 -176q0 -92 -20 -181l164 -161l-219 -219l-138 135q-88 -43 -225 -43t-225 43l-135 -135zM455 670q0 -115 33.5 -166t109.5 -51 q78 0 111.5 51t33.5 166t-33.5 166t-111.5 51q-76 0 -109.5 -50.5t-33.5 -166.5z" />
<glyph unicode="&#xa5;" horiz-adv-x="1570" d="M25 1257v336h784v-336h-72l121 -317h21l120 317h-71v336h618v-336h-71l-183 -327h183v-162h-273l-78 -139h351v-162h-396v-131h123v-336h-819v336h123v131h-414v162h369l-82 139h-287v162h195l-189 327h-73z" />
<glyph unicode="&#xa6;" horiz-adv-x="522" d="M127 426h268v-1096h-268v1096zM127 831v1094h268v-1094h-268z" />
<glyph unicode="&#xa7;" horiz-adv-x="1236" d="M45 639q0 178 131 279q-41 76 -41 174q0 170 128 272t394 102q131 0 240 -19.5t164 -41.5v-277q-176 29 -318 29q-84 0 -120.5 -13.5t-36.5 -41.5q0 -29 28.5 -42t126.5 -32q219 -43 331 -130t112 -243q0 -86 -31 -164.5t-90 -128.5q31 -68 31 -161q0 -188 -128 -291 t-388 -103q-132 0 -246.5 19.5t-175.5 44.5v285q78 -14 175 -25.5t161 -11.5q86 0 116.5 14t30.5 45q0 20 -12.5 31.5t-42 22t-103.5 28.5q-209 51 -322.5 138t-113.5 241zM428 676q0 -41 39 -63.5t151 -43.5q92 -16 125 -16q43 0 57.5 14.5t14.5 44.5q0 39 -35 62.5 t-133 44.5q-82 18 -141 18q-45 0 -61.5 -15t-16.5 -46z" />
<glyph unicode="&#xa8;" horiz-adv-x="1028" d="M82 1251v342h342v-342h-342zM606 1251v342h340v-342h-340z" />
<glyph unicode="&#xa9;" horiz-adv-x="1486" d="M61 940q0 193 89.5 348.5t245 244.5t347.5 89q193 0 348.5 -89t244.5 -244.5t89 -348.5t-89 -348.5t-244.5 -244.5t-348.5 -89q-192 0 -347.5 89t-245 245t-89.5 348zM276 940q0 -131 61.5 -237.5t168 -168t237.5 -61.5t237.5 61.5t168 168t61.5 237.5t-61.5 237.5 t-168 168t-237.5 61.5t-237.5 -61.5t-168 -168t-61.5 -237.5zM436 942q0 328 303 328q82 0 149.5 -20.5t100.5 -45.5v-200h-174v81q0 31 -18.5 44.5t-57.5 13.5q-37 0 -55 -13.5t-18 -44.5v-288q0 -55 73 -56q76 0 76 56v90h174v-209q-33 -25 -100.5 -44.5t-147.5 -19.5 q-305 0 -305 328z" />
<glyph unicode="&#xaa;" horiz-adv-x="690" d="M16 1184q0 197 369 196q0 43 -19.5 61.5t-74.5 18.5q-125 0 -238 -30v155q45 14 124 25.5t161 11.5q158 0 220.5 -59.5t62.5 -188.5v-168h45v-168h-281v70q-25 -33 -69 -58.5t-109 -25.5q-88 0 -139.5 41t-51.5 119zM225 1225q0 -39 64 -39q41 0 68.5 23.5t27.5 62.5v6 q-90 0 -125 -11.5t-35 -41.5z" />
<glyph unicode="&#xab;" horiz-adv-x="1064" d="M86 518v96l238 394h268l-162 -426v-31l162 -426h-268zM539 518v96l237 394h268l-161 -426v-31l161 -426h-268z" />
<glyph unicode="&#xac;" horiz-adv-x="1120" d="M82 578v294h944v-618h-330v324h-614z" />
<glyph unicode="&#xad;" horiz-adv-x="735" d="M70 408v335h596v-335h-596z" />
<glyph unicode="&#xae;" horiz-adv-x="1486" d="M61 940q0 193 89.5 348.5t245 244.5t347.5 89q193 0 348.5 -89t244.5 -244.5t89 -348.5t-89 -348.5t-244.5 -244.5t-348.5 -89q-192 0 -347.5 89t-245 245t-89.5 348zM276 940q0 -131 61.5 -237.5t168 -168t237.5 -61.5t237.5 61.5t168 168t61.5 237.5t-61.5 237.5 t-168 168t-237.5 61.5t-237.5 -61.5t-168 -168t-61.5 -237.5zM444 627v141h56v350h-56v144h379q215 0 215 -183q0 -113 -82 -153v-8q39 -8 58.5 -30t19.5 -67v-53h41v-141h-248v188q0 47 -28.5 62.5t-89.5 15.5v-125h53v-141h-318zM709 993h73q20 0 30.5 11.5t10.5 39.5v43 q0 51 -41 52h-73v-146z" />
<glyph unicode="&#xaf;" horiz-adv-x="897" d="M82 1311v241h733v-241h-733z" />
<glyph unicode="&#xb0;" horiz-adv-x="565" d="M41 1380q0 106 67.5 174t174.5 68q106 0 173.5 -67.5t67.5 -174.5q0 -106 -67.5 -173.5t-173.5 -67.5q-107 0 -174.5 67.5t-67.5 173.5zM188 1380q0 -41 27 -67.5t68 -26.5t66.5 26.5t25.5 67.5t-25.5 67t-66.5 26t-68 -26t-27 -67z" />
<glyph unicode="&#xb1;" horiz-adv-x="1181" d="M82 850v342h340v340h342v-340h336v-342h-336v-336h-342v336h-340zM117 86v324h942v-324h-942z" />
<glyph unicode="&#xb2;" horiz-adv-x="645" d="M41 879v111q0 102 43 172.5t152 158.5q35 27 47 45.5t12 40.5q0 49 -76 50q-76 0 -164 -33v207q115 51 264 51q129 0 202 -63.5t73 -172.5q0 -80 -35 -127t-104 -100q-51 -39 -75 -66.5t-24 -68.5h248v-205h-563z" />
<glyph unicode="&#xb3;" horiz-adv-x="641" d="M41 899v189q78 -16 141 -17q68 0 97.5 16.5t29.5 51.5q0 33 -25.5 48t-80.5 15h-35v156h35q57 0 80.5 13.5t23.5 46.5q0 35 -27.5 49t-89.5 14q-68 0 -143 -16v184q129 37 252 37q133 0 209 -58.5t76 -164.5q0 -119 -107 -177q123 -59 123 -190q0 -111 -89 -172t-235 -61 q-72 0 -137 11t-98 25z" />
<glyph unicode="&#xb4;" horiz-adv-x="825" d="M82 1251v31l223 311h438v-55l-333 -287h-328z" />
<glyph unicode="&#xb5;" horiz-adv-x="1380" d="M0 803v336h561v-672q0 -68 30 -99.5t89 -31.5t89 31.5t30 99.5v336h-111v336h582v-803h90v-336h-561v139q-45 -61 -130 -114.5t-184 -53.5l76 -426h-471v1258h-90z" />
<glyph unicode="&#xb6;" horiz-adv-x="1554" d="M29 1120q0 129 61.5 244t183 186.5t295.5 71.5q102 0 181 -13.5t176 -39.5q96 -25 161.5 -37t149.5 -12q102 0 150.5 28.5t48.5 73.5h114q0 -119 -27.5 -205t-115.5 -139v-1606h-336v1557q-53 6 -143 31v-1588h-334v944q-283 0 -424 136.5t-141 367.5z" />
<glyph unicode="&#xb7;" horiz-adv-x="417" d="M49 655v312h320v-312h-320z" />
<glyph unicode="&#xb8;" horiz-adv-x="704" d="M82 -322q125 -29 229 -28q35 0 52.5 18.5t17.5 46.5q0 29 -17.5 47.5t-52.5 18.5h-90v219h195v-80q92 0 149.5 -49t57.5 -143q0 -111 -77 -171.5t-212 -60.5q-117 0 -252 37v145z" />
<glyph unicode="&#xb9;" horiz-adv-x="569" d="M41 1446v140l182 75h219v-565h86v-217h-471v217h99v350h-115z" />
<glyph unicode="&#xba;" horiz-adv-x="659" d="M20 1323q0 145 82 222t228 77q156 0 232.5 -82t76.5 -217q0 -147 -82 -223t-227 -76q-146 0 -228 76t-82 223zM250 1251q0 -35 19.5 -50t60.5 -15t60.5 15.5t19.5 49.5v144q0 66 -80 65q-80 0 -80 -65v-144z" />
<glyph unicode="&#xbb;" horiz-adv-x="1064" d="M20 125l162 426v31l-162 426h269l237 -394v-96l-237 -393h-269zM473 125l162 426v31l-162 426h268l238 -394v-96l-238 -393h-268z" />
<glyph unicode="&#xbc;" horiz-adv-x="1589" d="M61 1378v140l182 75h219v-565h86v-217h-471v217h99v350h-115zM235 0v66l953 1527h208v-65l-950 -1528h-211zM872 131v168l326 483h268v-493h61v-158h-61v-131h-266v131h-328zM1050 289h150v221z" />
<glyph unicode="&#xbd;" horiz-adv-x="1660" d="M61 1378v140l182 75h219v-565h86v-217h-471v217h99v350h-115zM235 0v66l953 1527h208v-65l-950 -1528h-211zM1036 0v111q0 102 43 172.5t152 158.5q35 27 47 45.5t12 40.5q0 49 -76 50q-76 0 -164 -33v207q115 51 264 51q129 0 202 -63.5t73 -172.5q0 -80 -35 -127 t-104 -100q-51 -39 -75 -66.5t-24 -68.5h248v-205h-563z" />
<glyph unicode="&#xbe;" horiz-adv-x="1593" d="M61 827v189q78 -16 141 -17q68 0 97.5 16.5t29.5 51.5q0 33 -25.5 48t-80.5 15h-35v156h35q57 0 80.5 13.5t23.5 46.5q0 35 -27.5 49t-89.5 14q-68 0 -143 -16v184q129 37 252 37q133 0 209 -58.5t76 -164.5q0 -119 -107 -177q123 -59 123 -190q0 -111 -89 -172t-235 -61 q-72 0 -137 11t-98 25zM239 0v66l953 1527h208v-65l-950 -1528h-211zM877 131v168l326 483h268v-493h61v-158h-61v-131h-266v131h-328zM1055 289h150v221z" />
<glyph unicode="&#xbf;" horiz-adv-x="1290" d="M20 -59q0 111 36 186.5t87.5 123.5t135.5 105q70 49 111.5 86t69 90.5t27.5 126.5v31h490v-94q0 -92 -34 -160.5t-81 -111.5t-121 -95q-74 -51 -108.5 -88t-34.5 -88q0 -82 123 -82q96 0 215 37t217 84l109 -418q-135 -63 -313.5 -110t-354.5 -47q-174 0 -304 52 t-200 148.5t-70 223.5zM489 803v336h488v-336h-488z" />
<glyph unicode="&#xc0;" horiz-adv-x="1650" d="M25 0v336h81l347 1257h745l346 -1257h82v-336h-803v336h123l-33 164h-278l-33 -164h123v-336h-700zM358 1890v54h514l223 -197v-31h-403zM680 717h188l-84 407h-20z" />
<glyph unicode="&#xc1;" horiz-adv-x="1650" d="M25 0v336h81l347 1257h745l346 -1257h82v-336h-803v336h123l-33 164h-278l-33 -164h123v-336h-700zM559 1716v31l223 197h514v-54l-334 -174h-403zM680 717h188l-84 407h-20z" />
<glyph unicode="&#xc2;" horiz-adv-x="1650" d="M25 0v336h81l347 1257h745l346 -1257h82v-336h-803v336h123l-33 164h-278l-33 -164h123v-336h-700zM309 1716v31l260 258h512l260 -258v-31h-315l-191 166h-20l-191 -166h-315zM680 717h188l-84 407h-20z" />
<glyph unicode="&#xc3;" horiz-adv-x="1650" d="M25 0v336h81l347 1257h745l346 -1257h82v-336h-803v336h123l-33 164h-278l-33 -164h123v-336h-700zM329 1718q0 172 56.5 247t210.5 75q68 0 129 -10.5t143 -30.5q78 -16 123 -24.5t92 -8.5q57 0 90 18.5t33 53.5h115q0 -115 -22.5 -183.5t-80 -103.5t-164.5 -35 q-55 0 -113.5 10.5t-140.5 30.5q-86 18 -135 27.5t-98 9.5q-53 0 -88 -21.5t-35 -54.5h-115zM680 717h188l-84 407h-20z" />
<glyph unicode="&#xc4;" horiz-adv-x="1650" d="M25 0v336h81l347 1257h745l346 -1257h82v-336h-803v336h123l-33 164h-278l-33 -164h123v-336h-700zM393 1716v260h377v-260h-377zM680 717h188l-84 407h-20zM880 1716v260h377v-260h-377z" />
<glyph unicode="&#xc5;" horiz-adv-x="1650" d="M25 0v336h81l347 1257h745l346 -1257h82v-336h-803v336h123l-33 164h-278l-33 -164h123v-336h-700zM557 1962q0 106 75.5 176t192.5 70t192.5 -70t75.5 -176t-75.5 -176t-192.5 -70t-192.5 69.5t-75.5 176.5zM680 717h188l-84 407h-20zM735 1962q0 -41 25.5 -67.5 t64.5 -26.5t63.5 26.5t24.5 67.5t-24.5 66.5t-63.5 25.5t-64.5 -25.5t-25.5 -66.5z" />
<glyph unicode="&#xc6;" horiz-adv-x="2330" d="M25 0v336h81l531 1257h1657v-618h-459v282h-248v-323h180v-234h-180v-364h248v323h459v-659h-1383v336h103v164h-281l-59 -164h123v-336h-772zM821 737h193v473h-21z" />
<glyph unicode="&#xc7;" horiz-adv-x="1478" d="M29 797q0 825 802 825q195 0 362 -47t249 -105v-512h-492v148q0 78 -34.5 114.5t-104.5 36.5t-104.5 -36.5t-34.5 -114.5v-619q0 -78 34.5 -114.5t104.5 -36.5t104.5 37t34.5 114v166h492v-530q-72 -49 -209 -92t-301 -56v-55q92 0 149.5 -49t57.5 -143 q0 -111 -77 -171.5t-212 -60.5q-117 0 -252 37v145q125 -29 229 -28q35 0 52.5 18.5t17.5 46.5q0 29 -17.5 47.5t-52.5 18.5h-90v194q-709 47 -708 822z" />
<glyph unicode="&#xc8;" horiz-adv-x="1460" d="M41 0v336h102v921h-102v336h1382v-618h-458v282h-248v-323h180v-234h-180v-364h248v323h458v-659h-1382zM317 1890v54h514l223 -197v-31h-403z" />
<glyph unicode="&#xc9;" horiz-adv-x="1460" d="M41 0v336h102v921h-102v336h1382v-618h-458v282h-248v-323h180v-234h-180v-364h248v323h458v-659h-1382zM518 1716v31l223 197h514v-54l-334 -174h-403z" />
<glyph unicode="&#xca;" horiz-adv-x="1460" d="M41 0v336h102v921h-102v336h1382v-618h-458v282h-248v-323h180v-234h-180v-364h248v323h458v-659h-1382zM268 1716v31l260 258h512l260 -258v-31h-315l-191 166h-20l-191 -166h-315z" />
<glyph unicode="&#xcb;" horiz-adv-x="1460" d="M41 0v336h102v921h-102v336h1382v-618h-458v282h-248v-323h180v-234h-180v-364h248v323h458v-659h-1382zM352 1716v260h377v-260h-377zM839 1716v260h377v-260h-377z" />
<glyph unicode="&#xcc;" horiz-adv-x="860" d="M-37 1890v54h514l223 -197v-31h-403zM41 0v336h102v921h-102v336h778v-336h-102v-921h102v-336h-778z" />
<glyph unicode="&#xcd;" horiz-adv-x="860" d="M41 0v336h102v921h-102v336h778v-336h-102v-921h102v-336h-778zM164 1716v31l223 197h514v-54l-334 -174h-403z" />
<glyph unicode="&#xce;" horiz-adv-x="860" d="M-86 1716v31l260 258h512l260 -258v-31h-315l-191 166h-20l-191 -166h-315zM41 0v336h102v921h-102v336h778v-336h-102v-921h102v-336h-778z" />
<glyph unicode="&#xcf;" horiz-adv-x="860" d="M-2 1716v260h377v-260h-377zM41 0v336h102v921h-102v336h778v-336h-102v-921h102v-336h-778zM485 1716v260h377v-260h-377z" />
<glyph unicode="&#xd0;" horiz-adv-x="1691" d="M35 637v336h145v282h-123v338h852q342 0 544 -187t202 -609t-202 -609.5t-544 -187.5h-852v336h123v301h-145zM754 336h118q70 0 105 37t35 114v619q0 152 -140 151h-118v-284h125v-336h-125v-301z" />
<glyph unicode="&#xd1;" horiz-adv-x="1929" d="M41 0v336h102v921h-102v336h739l539 -821v485h-98v336h671v-336h-102v-1257h-576l-600 924v-588h99v-336h-672zM489 1718q0 172 56.5 247t210.5 75q68 0 129 -10.5t143 -30.5q78 -16 123 -24.5t92 -8.5q57 0 90 18.5t33 53.5h115q0 -115 -22.5 -183.5t-80 -103.5 t-164.5 -35q-55 0 -113.5 10.5t-140.5 30.5q-86 18 -135 27.5t-98 9.5q-53 0 -88 -21.5t-35 -54.5h-115z" />
<glyph unicode="&#xd2;" horiz-adv-x="1622" d="M29 797q0 432 203.5 628.5t578.5 196.5t578.5 -196.5t203.5 -628.5t-203.5 -629t-578.5 -197t-578.5 197t-203.5 629zM344 1890v54h514l223 -197v-31h-403zM672 487q0 -80 34.5 -115.5t104.5 -35.5t104.5 37t34.5 114v619q0 78 -34.5 114.5t-104.5 36.5t-104.5 -36.5 t-34.5 -114.5v-619z" />
<glyph unicode="&#xd3;" horiz-adv-x="1622" d="M29 797q0 432 203.5 628.5t578.5 196.5t578.5 -196.5t203.5 -628.5t-203.5 -629t-578.5 -197t-578.5 197t-203.5 629zM545 1716v31l223 197h514v-54l-334 -174h-403zM672 487q0 -80 34.5 -115.5t104.5 -35.5t104.5 37t34.5 114v619q0 78 -34.5 114.5t-104.5 36.5 t-104.5 -36.5t-34.5 -114.5v-619z" />
<glyph unicode="&#xd4;" horiz-adv-x="1622" d="M29 797q0 432 203.5 628.5t578.5 196.5t578.5 -196.5t203.5 -628.5t-203.5 -629t-578.5 -197t-578.5 197t-203.5 629zM295 1716v31l260 258h512l260 -258v-31h-315l-191 166h-20l-191 -166h-315zM672 487q0 -80 34.5 -115.5t104.5 -35.5t104.5 37t34.5 114v619 q0 78 -34.5 114.5t-104.5 36.5t-104.5 -36.5t-34.5 -114.5v-619z" />
<glyph unicode="&#xd5;" horiz-adv-x="1622" d="M29 797q0 432 203.5 628.5t578.5 196.5t578.5 -196.5t203.5 -628.5t-203.5 -629t-578.5 -197t-578.5 197t-203.5 629zM315 1718q0 172 56.5 247t210.5 75q68 0 129 -10.5t143 -30.5q78 -16 123 -24.5t92 -8.5q57 0 90 18.5t33 53.5h115q0 -115 -22.5 -183.5t-80 -103.5 t-164.5 -35q-55 0 -113.5 10.5t-140.5 30.5q-86 18 -135 27.5t-98 9.5q-53 0 -88 -21.5t-35 -54.5h-115zM672 487q0 -80 34.5 -115.5t104.5 -35.5t104.5 37t34.5 114v619q0 78 -34.5 114.5t-104.5 36.5t-104.5 -36.5t-34.5 -114.5v-619z" />
<glyph unicode="&#xd6;" horiz-adv-x="1622" d="M29 797q0 432 203.5 628.5t578.5 196.5t578.5 -196.5t203.5 -628.5t-203.5 -629t-578.5 -197t-578.5 197t-203.5 629zM379 1716v260h377v-260h-377zM672 487q0 -80 34.5 -115.5t104.5 -35.5t104.5 37t34.5 114v619q0 78 -34.5 114.5t-104.5 36.5t-104.5 -36.5 t-34.5 -114.5v-619zM866 1716v260h377v-260h-377z" />
<glyph unicode="&#xd7;" horiz-adv-x="1167" d="M66 416l264 264l-264 266l253 254l265 -266l266 266l252 -254l-266 -266l266 -264l-252 -252l-266 264l-265 -264z" />
<glyph unicode="&#xd8;" horiz-adv-x="1622" d="M29 797q0 432 203.5 628.5t578.5 196.5q289 0 467 -109l70 82h225v-61l-137 -162q157 -202 157 -575q0 -432 -203.5 -629t-578.5 -197q-285 0 -467 111l-70 -82h-225v61l135 160q-156 207 -155 576zM659 455q4 -70 42 -100.5t110 -30.5q76 0 114 36.5t38 114.5v338z M659 782l304 357q-6 68 -43 99.5t-109 31.5q-76 0 -114 -37t-38 -115v-336z" />
<glyph unicode="&#xd9;" horiz-adv-x="1599" d="M33 1257v336h758v-336h-82v-790q0 -68 29.5 -99.5t88.5 -31.5t89 31.5t30 99.5v790h-82v336h703v-336h-103v-686q0 -317 -170 -458.5t-487 -141.5q-322 0 -497 141.5t-175 458.5v686h-102zM356 1890v54h514l223 -197v-31h-403z" />
<glyph unicode="&#xda;" horiz-adv-x="1599" d="M33 1257v336h758v-336h-82v-790q0 -68 29.5 -99.5t88.5 -31.5t89 31.5t30 99.5v790h-82v336h703v-336h-103v-686q0 -317 -170 -458.5t-487 -141.5q-322 0 -497 141.5t-175 458.5v686h-102zM557 1716v31l223 197h514v-54l-334 -174h-403z" />
<glyph unicode="&#xdb;" horiz-adv-x="1599" d="M33 1257v336h758v-336h-82v-790q0 -68 29.5 -99.5t88.5 -31.5t89 31.5t30 99.5v790h-82v336h703v-336h-103v-686q0 -317 -170 -458.5t-487 -141.5q-322 0 -497 141.5t-175 458.5v686h-102zM307 1716v31l260 258h512l260 -258v-31h-315l-191 166h-20l-191 -166h-315z" />
<glyph unicode="&#xdc;" horiz-adv-x="1599" d="M33 1257v336h758v-336h-82v-790q0 -68 29.5 -99.5t88.5 -31.5t89 31.5t30 99.5v790h-82v336h703v-336h-103v-686q0 -317 -170 -458.5t-487 -141.5q-322 0 -497 141.5t-175 458.5v686h-102zM391 1716v260h377v-260h-377zM878 1716v260h377v-260h-377z" />
<glyph unicode="&#xdd;" horiz-adv-x="1589" d="M25 1257v336h792v-336h-72l121 -317h21l121 317h-72v336h629v-336h-82l-396 -708v-213h103v-336h-778v336h102v213l-408 708h-81zM611 1716v31l223 197h514v-54l-334 -174h-403z" />
<glyph unicode="&#xde;" horiz-adv-x="1560" d="M57 0v336h123v921h-123v336h820v-336h-123v-92h241q228 0 356 -76.5t128 -261.5q0 -358 -484 -358h-241v-133h196v-336h-893zM754 678h49q45 0 71.5 22.5t26.5 67.5v33q0 45 -26.5 67.5t-71.5 22.5h-49v-213z" />
<glyph unicode="&#xdf;" horiz-adv-x="1452" d="M37 0v336h90v467h-90v336h94q0 178 61.5 283.5t190.5 152.5t340 47q254 0 398.5 -90t144.5 -285q0 -82 -29 -140t-80 -128q-35 -49 -50 -78t-15 -59q0 -53 30.5 -87t100.5 -83q66 -47 104.5 -83t67 -96.5t28.5 -146.5q0 -170 -100 -272.5t-297 -102.5q-86 0 -176 19.5 t-150 44.5v284q37 -16 83 -26t83 -10q102 0 103 73q0 39 -29 71t-90 77q-90 68 -139 129t-49 155q0 59 21.5 105.5t61.5 103.5q37 49 54.5 85t17.5 79q0 47 -25.5 71.5t-82.5 24.5q-61 0 -86 -29.5t-25 -90.5v-1137h-561z" />
<glyph unicode="&#xe0;" horiz-adv-x="1259" d="M37 285q0 387 657 397q-6 70 -53 95.5t-160 25.5q-92 0 -197.5 -19.5t-193.5 -52.5v377q109 27 236 43t247 16q305 0 436.5 -110.5t131.5 -341.5v-379h90v-336h-541v139q-45 -66 -126 -117t-197 -51q-154 0 -242 82t-88 232zM151 1548v56h439l223 -312v-30h-328zM498 373 q0 -35 21.5 -56.5t60.5 -21.5q53 0 81.5 45t28.5 127v12q-92 0 -142 -24.5t-50 -81.5z" />
<glyph unicode="&#xe1;" horiz-adv-x="1259" d="M37 285q0 387 657 397q-6 70 -53 95.5t-160 25.5q-92 0 -197.5 -19.5t-193.5 -52.5v377q109 27 236 43t247 16q305 0 436.5 -110.5t131.5 -341.5v-379h90v-336h-541v139q-45 -66 -126 -117t-197 -51q-154 0 -242 82t-88 232zM467 1262v30l223 312h438v-56l-333 -286h-328 zM498 373q0 -35 21.5 -56.5t60.5 -21.5q53 0 81.5 45t28.5 127v12q-92 0 -142 -24.5t-50 -81.5z" />
<glyph unicode="&#xe2;" horiz-adv-x="1259" d="M37 285q0 387 657 397q-6 70 -53 95.5t-160 25.5q-92 0 -197.5 -19.5t-193.5 -52.5v377q109 27 236 43t247 16q305 0 436.5 -110.5t131.5 -341.5v-379h90v-336h-541v139q-45 -66 -126 -117t-197 -51q-154 0 -242 82t-88 232zM201 1262v30l241 312h406l241 -312v-30h-307 l-127 133h-20l-127 -133h-307zM498 373q0 -35 21.5 -56.5t60.5 -21.5q53 0 81.5 45t28.5 127v12q-92 0 -142 -24.5t-50 -81.5z" />
<glyph unicode="&#xe3;" horiz-adv-x="1259" d="M37 285q0 387 657 397q-6 70 -53 95.5t-160 25.5q-92 0 -197.5 -19.5t-193.5 -52.5v377q109 27 236 43t247 16q305 0 436.5 -110.5t131.5 -341.5v-379h90v-336h-541v139q-45 -66 -126 -117t-197 -51q-154 0 -242 82t-88 232zM209 1284q0 176 52 263t194 87q63 0 115 -13 t124 -38q61 -23 102.5 -33t84.5 -10q45 0 65.5 21.5t20.5 50.5h114q0 -178 -46 -264t-185 -86q-64 0 -121 14t-133 41q-63 23 -105.5 33t-81.5 10t-62.5 -20.5t-23.5 -55.5h-114zM498 373q0 -35 21.5 -56.5t60.5 -21.5q53 0 81.5 45t28.5 127v12q-92 0 -142 -24.5t-50 -81.5 z" />
<glyph unicode="&#xe4;" horiz-adv-x="1259" d="M37 285q0 387 657 397q-6 70 -53 95.5t-160 25.5q-92 0 -197.5 -19.5t-193.5 -52.5v377q109 27 236 43t247 16q305 0 436.5 -110.5t131.5 -341.5v-379h90v-336h-541v139q-45 -66 -126 -117t-197 -51q-154 0 -242 82t-88 232zM213 1282v342h342v-342h-342zM498 373 q0 -35 21.5 -56.5t60.5 -21.5q53 0 81.5 45t28.5 127v12q-92 0 -142 -24.5t-50 -81.5zM737 1282v342h340v-342h-340z" />
<glyph unicode="&#xe5;" horiz-adv-x="1259" d="M37 285q0 387 657 397q-6 70 -53 95.5t-160 25.5q-92 0 -197.5 -19.5t-193.5 -52.5v377q109 27 236 43t247 16q305 0 436.5 -110.5t131.5 -341.5v-379h90v-336h-541v139q-45 -66 -126 -117t-197 -51q-154 0 -242 82t-88 232zM395 1511q0 109 72 179.5t184 70.5 q113 0 184.5 -70.5t71.5 -179.5t-71.5 -179t-184.5 -70q-112 0 -184 70.5t-72 178.5zM498 373q0 -35 21.5 -56.5t60.5 -21.5q53 0 81.5 45t28.5 127v12q-92 0 -142 -24.5t-50 -81.5zM569 1511q0 -39 23.5 -63.5t58.5 -24.5t57.5 25t22.5 63q0 39 -22.5 62.5t-57.5 23.5 t-58.5 -23.5t-23.5 -62.5z" />
<glyph unicode="&#xe6;" horiz-adv-x="1853" d="M37 285q0 387 657 397q-6 70 -53 95.5t-160 25.5q-92 0 -197.5 -19.5t-193.5 -52.5v377q109 27 236 43t247 16q248 0 379 -98q147 98 355 98q274 0 398 -151.5t124 -372.5v-147h-664v-13q0 -76 45 -111.5t150 -35.5q125 0 237.5 18.5t196.5 46.5v-327q-72 -39 -210 -71 t-300 -32q-168 0 -296 52.5t-208 154.5q-70 -88 -172 -147.5t-241 -59.5q-154 0 -242 82t-88 232zM498 373q0 -35 21.5 -56.5t60.5 -21.5q53 0 81.5 45t28.5 127v12q-92 0 -142 -24.5t-50 -81.5zM1165 721h238v24q0 70 -30 101t-89 31t-89 -32t-30 -100v-24z" />
<glyph unicode="&#xe7;" horiz-adv-x="1150" d="M29 569q0 293 163.5 445.5t454.5 152.5q141 0 270.5 -38.5t200.5 -88.5v-405h-352v37q0 68 -28.5 99.5t-90.5 31.5q-119 0 -119 -131v-176q0 -160 183 -160q170 0 395 37v-322q-59 -25 -155.5 -47t-205.5 -29v-55q92 0 149.5 -49t57.5 -143q0 -111 -76.5 -171.5 t-211.5 -60.5q-117 0 -252 37v145q125 -29 229 -28q35 0 52.5 18.5t17.5 46.5q0 29 -17.5 47.5t-52.5 18.5h-90v194q-248 25 -385 175.5t-137 418.5z" />
<glyph unicode="&#xe8;" horiz-adv-x="1216" d="M29 569q0 293 163.5 445.5t454.5 152.5q289 0 417 -150.5t128 -373.5v-147h-664v-13q0 -76 45 -111.5t150 -35.5q125 0 237.5 18.5t196.5 46.5v-327q-72 -39 -210 -71t-300 -32q-291 0 -454.5 152.5t-163.5 445.5zM153 1548v56h439l223 -312v-30h-328zM528 721h238v24 q0 70 -29.5 101t-89.5 31q-59 0 -89 -32t-30 -100v-24z" />
<glyph unicode="&#xe9;" horiz-adv-x="1216" d="M29 569q0 293 163.5 445.5t454.5 152.5q289 0 417 -150.5t128 -373.5v-147h-664v-13q0 -76 45 -111.5t150 -35.5q125 0 237.5 18.5t196.5 46.5v-327q-72 -39 -210 -71t-300 -32q-291 0 -454.5 152.5t-163.5 445.5zM469 1262v30l223 312h438v-56l-333 -286h-328zM528 721 h238v24q0 70 -29.5 101t-89.5 31q-59 0 -89 -32t-30 -100v-24z" />
<glyph unicode="&#xea;" horiz-adv-x="1216" d="M29 569q0 293 163.5 445.5t454.5 152.5q289 0 417 -150.5t128 -373.5v-147h-664v-13q0 -76 45 -111.5t150 -35.5q125 0 237.5 18.5t196.5 46.5v-327q-72 -39 -210 -71t-300 -32q-291 0 -454.5 152.5t-163.5 445.5zM203 1262v30l241 312h406l241 -312v-30h-307l-127 133 h-20l-127 -133h-307zM528 721h238v24q0 70 -29.5 101t-89.5 31q-59 0 -89 -32t-30 -100v-24z" />
<glyph unicode="&#xeb;" horiz-adv-x="1216" d="M29 569q0 293 163.5 445.5t454.5 152.5q289 0 417 -150.5t128 -373.5v-147h-664v-13q0 -76 45 -111.5t150 -35.5q125 0 237.5 18.5t196.5 46.5v-327q-72 -39 -210 -71t-300 -32q-291 0 -454.5 152.5t-163.5 445.5zM215 1282v342h342v-342h-342zM528 721h238v24 q0 70 -29.5 101t-89.5 31q-59 0 -89 -32t-30 -100v-24zM739 1282v342h340v-342h-340z" />
<glyph unicode="&#xec;" horiz-adv-x="708" d="M-59 1548v56h417l162 -312v-30h-307zM37 0v336h90v467h-90v336h561v-803h90v-336h-651z" />
<glyph unicode="&#xed;" horiz-adv-x="708" d="M37 0v336h90v467h-90v336h561v-803h90v-336h-651zM164 1262v30l223 312h438v-56l-333 -286h-328z" />
<glyph unicode="&#xee;" horiz-adv-x="708" d="M-102 1262v30l241 312h406l241 -312v-30h-307l-127 133h-20l-127 -133h-307zM37 0v336h90v467h-90v336h561v-803h90v-336h-651z" />
<glyph unicode="&#xef;" horiz-adv-x="708" d="M-90 1282v342h342v-342h-342zM37 0v336h90v467h-90v336h561v-803h90v-336h-651zM434 1282v342h340v-342h-340z" />
<glyph unicode="&#xf0;" horiz-adv-x="1241" d="M16 528q0 266 138.5 411.5t380.5 145.5q96 0 167 -22l13 16q-94 115 -201 199l-166 -139l-119 139l133 113q-86 59 -200 120v43l233 146q115 -53 205 -107l168 142l121 -142l-127 -106q244 -176 367.5 -392t123.5 -464q0 -659 -618 -660q-291 0 -455 141.5t-164 415.5z M516 467q0 -68 29.5 -99.5t89.5 -31.5q59 0 89 31.5t30 99.5v123q0 68 -30 99.5t-89 31.5t-89 -32t-30 -99v-123z" />
<glyph unicode="&#xf1;" horiz-adv-x="1425" d="M37 0v336h90v467h-90v336h561v-160q147 188 369 188q170 0 255 -106.5t85 -292.5v-432h90v-336h-647v336h86v336q0 68 -29 99.5t-86 31.5q-123 0 -123 -131v-336h86v-336h-647zM283 1284q0 176 52 263t194 87q63 0 115 -13t124 -38q61 -23 102.5 -33t84.5 -10 q45 0 65.5 21.5t20.5 50.5h114q0 -178 -46 -264t-185 -86q-64 0 -121 14t-133 41q-63 23 -105.5 33t-81.5 10t-62.5 -20.5t-23.5 -55.5h-114z" />
<glyph unicode="&#xf2;" d="M29 569q0 293 163.5 445.5t454.5 152.5q295 0 457 -154.5t162 -443.5q0 -293 -164 -445.5t-455 -152.5t-454.5 152.5t-163.5 445.5zM153 1548v56h439l223 -312v-30h-328zM528 467q0 -68 30 -99.5t89 -31.5q60 0 89.5 31.5t29.5 99.5v205q0 68 -29.5 99.5t-89.5 31.5 q-59 0 -89 -32t-30 -99v-205z" />
<glyph unicode="&#xf3;" d="M29 569q0 293 163.5 445.5t454.5 152.5q295 0 457 -154.5t162 -443.5q0 -293 -164 -445.5t-455 -152.5t-454.5 152.5t-163.5 445.5zM469 1262v30l223 312h438v-56l-333 -286h-328zM528 467q0 -68 30 -99.5t89 -31.5q60 0 89.5 31.5t29.5 99.5v205q0 68 -29.5 99.5 t-89.5 31.5q-59 0 -89 -32t-30 -99v-205z" />
<glyph unicode="&#xf4;" d="M29 569q0 293 163.5 445.5t454.5 152.5q295 0 457 -154.5t162 -443.5q0 -293 -164 -445.5t-455 -152.5t-454.5 152.5t-163.5 445.5zM203 1262v30l241 312h406l241 -312v-30h-307l-127 133h-20l-127 -133h-307zM528 467q0 -68 30 -99.5t89 -31.5q60 0 89.5 31.5t29.5 99.5 v205q0 68 -29.5 99.5t-89.5 31.5q-59 0 -89 -32t-30 -99v-205z" />
<glyph unicode="&#xf5;" d="M29 569q0 293 163.5 445.5t454.5 152.5q295 0 457 -154.5t162 -443.5q0 -293 -164 -445.5t-455 -152.5t-454.5 152.5t-163.5 445.5zM211 1284q0 176 52 263t194 87q63 0 115 -13t124 -38q61 -23 102.5 -33t84.5 -10q45 0 65.5 21.5t20.5 50.5h114q0 -178 -46 -264 t-185 -86q-64 0 -121 14t-133 41q-63 23 -105.5 33t-81.5 10t-62.5 -20.5t-23.5 -55.5h-114zM528 467q0 -68 30 -99.5t89 -31.5q60 0 89.5 31.5t29.5 99.5v205q0 68 -29.5 99.5t-89.5 31.5q-59 0 -89 -32t-30 -99v-205z" />
<glyph unicode="&#xf6;" d="M29 569q0 293 163.5 445.5t454.5 152.5q295 0 457 -154.5t162 -443.5q0 -293 -164 -445.5t-455 -152.5t-454.5 152.5t-163.5 445.5zM215 1282v342h342v-342h-342zM528 467q0 -68 30 -99.5t89 -31.5q60 0 89.5 31.5t29.5 99.5v205q0 68 -29.5 99.5t-89.5 31.5 q-59 0 -89 -32t-30 -99v-205zM739 1282v342h340v-342h-340z" />
<glyph unicode="&#xf7;" horiz-adv-x="1067" d="M82 532v295h903v-295h-903zM367 106v312h319v-312h-319zM367 934v311h319v-311h-319z" />
<glyph unicode="&#xf8;" d="M29 569q0 293 163.5 445.5t454.5 152.5q244 0 395 -104l60 76h143v-41l-102 -127q123 -152 123 -402q0 -293 -164 -445.5t-455 -152.5q-246 0 -401 109l-51 -66h-146v41l96 119q-117 147 -116 395zM516 530l244 234q-31 51 -113 51q-65 0 -98 -31.5t-33 -99.5v-154z M537 369q33 -45 110 -45q70 0 100.5 30.5t30.5 100.5v145z" />
<glyph unicode="&#xf9;" horiz-adv-x="1404" d="M25 803v336h561v-672q0 -68 29.5 -99.5t89.5 -31.5q59 0 88.5 31.5t29.5 99.5v336h-110v336h581v-803h90v-336h-561v160q-147 -188 -368 -189q-170 0 -255 106.5t-85 293.5v432h-90zM155 1548v56h439l223 -312v-30h-328z" />
<glyph unicode="&#xfa;" horiz-adv-x="1404" d="M25 803v336h561v-672q0 -68 29.5 -99.5t89.5 -31.5q59 0 88.5 31.5t29.5 99.5v336h-110v336h581v-803h90v-336h-561v160q-147 -188 -368 -189q-170 0 -255 106.5t-85 293.5v432h-90zM471 1262v30l223 312h438v-56l-333 -286h-328z" />
<glyph unicode="&#xfb;" horiz-adv-x="1404" d="M25 803v336h561v-672q0 -68 29.5 -99.5t89.5 -31.5q59 0 88.5 31.5t29.5 99.5v336h-110v336h581v-803h90v-336h-561v160q-147 -188 -368 -189q-170 0 -255 106.5t-85 293.5v432h-90zM205 1262v30l241 312h406l241 -312v-30h-307l-127 133h-20l-127 -133h-307z" />
<glyph unicode="&#xfc;" horiz-adv-x="1404" d="M25 803v336h561v-672q0 -68 29.5 -99.5t89.5 -31.5q59 0 88.5 31.5t29.5 99.5v336h-110v336h581v-803h90v-336h-561v160q-147 -188 -368 -189q-170 0 -255 106.5t-85 293.5v432h-90zM217 1282v342h342v-342h-342zM741 1282v342h340v-342h-340z" />
<glyph unicode="&#xfd;" d="M20 -8h283v-21q0 -51 53 -51q47 0 72 45l-324 838h-77v336h608v-336h-70l107 -320l98 320h-70v336h570v-336h-78l-268 -711q-100 -268 -229.5 -402t-340.5 -134q-86 0 -174 17t-160 48v371zM490 1262v30l223 312h438v-56l-333 -286h-328z" />
<glyph unicode="&#xfe;" horiz-adv-x="1335" d="M12 -119h90v1376h-90v336h561v-594q51 66 132 117t186 51q209 0 314.5 -155.5t105.5 -442.5t-105.5 -442.5t-314.5 -155.5q-104 0 -185 51.5t-133 116.5v-258h142v-336h-703v336zM573 467q0 -68 30 -99.5t89 -31.5t89 31.5t30 99.5v205q0 68 -29.5 99.5t-89.5 31.5 q-59 0 -89 -32t-30 -99v-205z" />
<glyph unicode="&#xff;" d="M20 -8h283v-21q0 -51 53 -51q47 0 72 45l-324 838h-77v336h608v-336h-70l107 -320l98 320h-70v336h570v-336h-78l-268 -711q-100 -268 -229.5 -402t-340.5 -134q-86 0 -174 17t-160 48v371zM236 1282v342h342v-342h-342zM760 1282v342h340v-342h-340z" />
<glyph unicode="&#x152;" horiz-adv-x="2267" d="M29 797q0 432 203.5 628.5t578.5 196.5q152 0 266 -29h1153v-618h-458v282h-248v-323h180v-234h-180v-364h248v323h458v-659h-1151q-115 -29 -268 -29q-375 0 -578.5 197t-203.5 629zM672 487q0 -77 41 -114t125 -37q57 0 112 20v881q-55 20 -112 20q-84 0 -125 -35.5 t-41 -115.5v-619z" />
<glyph unicode="&#x153;" horiz-adv-x="1941" d="M29 569q0 293 163.5 445.5t454.5 152.5q221 0 363 -104q145 104 362 104q289 0 417 -150.5t128 -373.5v-147h-664v-13q0 -76 45 -111.5t150 -35.5q125 0 237.5 18.5t196.5 46.5v-327q-72 -39 -210 -71t-300 -32q-217 0 -362 109q-145 -109 -363 -109q-291 0 -454.5 152.5 t-163.5 445.5zM528 467q0 -68 30 -99.5t89 -31.5t89 31.5t30 99.5v205q0 68 -29.5 99.5t-89.5 31.5q-59 0 -89 -32t-30 -99v-205zM1253 721h238v24q0 70 -29.5 101t-89.5 31q-59 0 -89 -32t-30 -100v-24z" />
<glyph unicode="&#x178;" horiz-adv-x="1589" d="M25 1257v336h792v-336h-72l121 -317h21l121 317h-72v336h629v-336h-82l-396 -708v-213h103v-336h-778v336h102v213l-408 708h-81zM445 1716v260h377v-260h-377zM932 1716v260h377v-260h-377z" />
<glyph unicode="&#x2c6;" horiz-adv-x="1052" d="M82 1251v31l242 311h405l242 -311v-31h-307l-127 133h-21l-127 -133h-307z" />
<glyph unicode="&#x2dc;" horiz-adv-x="1036" d="M82 1274q0 176 52 263t194 87q63 0 115.5 -13.5t123.5 -37.5q61 -23 102.5 -33t84.5 -10q45 0 65.5 21.5t20.5 50.5h114q0 -178 -46 -264.5t-185 -86.5q-64 0 -121 14.5t-133 41.5q-63 23 -105 33t-81 10t-62.5 -20.5t-23.5 -55.5h-115z" />
<glyph unicode="&#x2000;" horiz-adv-x="1104" />
<glyph unicode="&#x2001;" horiz-adv-x="2208" />
<glyph unicode="&#x2002;" horiz-adv-x="1104" />
<glyph unicode="&#x2003;" horiz-adv-x="2208" />
<glyph unicode="&#x2004;" horiz-adv-x="736" />
<glyph unicode="&#x2005;" horiz-adv-x="552" />
<glyph unicode="&#x2006;" horiz-adv-x="368" />
<glyph unicode="&#x2007;" horiz-adv-x="368" />
<glyph unicode="&#x2008;" horiz-adv-x="276" />
<glyph unicode="&#x2009;" horiz-adv-x="441" />
<glyph unicode="&#x200a;" horiz-adv-x="122" />
<glyph unicode="&#x2010;" horiz-adv-x="796" d="M70 408v335h657v-335h-657z" />
<glyph unicode="&#x2011;" horiz-adv-x="796" d="M70 408v335h657v-335h-657z" />
<glyph unicode="&#x2012;" horiz-adv-x="796" d="M70 408v335h657v-335h-657z" />
<glyph unicode="&#x2013;" horiz-adv-x="1132" d="M0 408v335h1133v-335h-1133z" />
<glyph unicode="&#x2014;" horiz-adv-x="1923" d="M0 408v335h1923v-335h-1923z" />
<glyph unicode="&#x2018;" horiz-adv-x="430" d="M82 1122v262l137 209h137l-88 -209h101v-262h-287z" />
<glyph unicode="&#x2019;" horiz-adv-x="430" d="M61 1331v262h287v-262l-137 -209h-137l88 209h-101z" />
<glyph unicode="&#x201a;" horiz-adv-x="430" d="M61 0v262h287v-262l-137 -209h-137l88 209h-101z" />
<glyph unicode="&#x201c;" horiz-adv-x="790" d="M82 1122v262l137 209h137l-88 -209h101v-262h-287zM442 1122v262l138 209h137l-88 -209h100v-262h-287z" />
<glyph unicode="&#x201d;" horiz-adv-x="790" d="M61 1331v262h287v-262l-137 -209h-137l88 209h-101zM422 1331v262h287v-262l-138 -209h-137l88 209h-100z" />
<glyph unicode="&#x201e;" horiz-adv-x="790" d="M61 0v262h287v-262l-137 -209h-137l88 209h-101zM422 0v262h287v-262l-138 -209h-137l88 209h-100z" />
<glyph unicode="&#x2022;" horiz-adv-x="702" d="M72 786q0 119 79.5 199t200.5 80t200 -79t79 -200q0 -119 -80 -197.5t-199 -78.5q-121 0 -200.5 79t-79.5 197z" />
<glyph unicode="&#x2026;" horiz-adv-x="1417" d="M82 0v336h319v-336h-319zM541 0v336h319v-336h-319zM1000 0v336h319v-336h-319z" />
<glyph unicode="&#x202f;" horiz-adv-x="441" />
<glyph unicode="&#x2039;" horiz-adv-x="612" d="M86 518v96l238 394h268l-162 -426v-31l162 -426h-268z" />
<glyph unicode="&#x203a;" horiz-adv-x="612" d="M20 125l162 426v31l-162 426h269l237 -394v-96l-237 -393h-269z" />
<glyph unicode="&#x205f;" horiz-adv-x="552" />
<glyph unicode="&#x20ac;" horiz-adv-x="1476" d="M25 565v162h131q-2 23 -2 70q0 57 2 86h-131v161h149q111 578 789 578q147 0 281 -31.5t208 -70.5l-55 -314q-178 51 -318 51q-123 0 -190.5 -52t-85.5 -161h565l-29 -161h-542v-156h516l-29 -162h-481q16 -116 83.5 -172.5t192.5 -56.5q154 0 332 72v-314 q-72 -47 -207 -85t-284 -38q-315 0 -507 142.5t-243 451.5h-145z" />
<glyph unicode="&#x2122;" horiz-adv-x="1937" d="M31 1354v239h741v-239h-170v78h-63v-445h69v-162h-413v162h67v445h-63v-78h-168zM817 825v162h51v445h-51v161h453l102 -305l101 305h434v-161h-49v-445h49v-162h-373v162h47v344l-168 -506h-145l-174 504v-342h49v-162h-326z" />
<glyph unicode="&#x25fc;" horiz-adv-x="1136" d="M0 0v1137h1137v-1137h-1137z" />
<glyph unicode="&#xfb03;" horiz-adv-x="2281" d="M37 0v336h90v467h-90v336h94q0 250 122 366.5t355 116.5q113 0 202 -16.5t130 -36.5v-242q82 295 455 295q100 0 182 -13.5t131 -31.5v16h418v-342h-400v-4q-109 10 -200 10q-80 0 -111 -26.5t-31 -91.5h160v-336h-160v-467h160v-336h-721v336h90v467h-90v336h95 q0 59 6 110q-90 8 -185 8q-80 0 -110.5 -26.5t-30.5 -91.5h160v-336h-160v-467h160v-336h-721zM1610 0v336h90v467h-90v336h561v-803h90v-336h-651z" />
<glyph unicode="&#xfb04;" horiz-adv-x="2289" d="M37 0v336h90v467h-90v336h94q0 250 122 366.5t355 116.5q113 0 202 -16.5t130 -36.5v-242q82 295 455 295q150 0 260 -29h516v-1257h90v-338h-651v338h90v913q-90 8 -174 8q-80 0 -111 -26.5t-31 -91.5h160v-336h-160v-467h160v-336h-721v336h90v467h-90v336h95 q0 59 6 110q-90 8 -185 8q-80 0 -110.5 -26.5t-30.5 -91.5h160v-336h-160v-467h160v-336h-721z" />
</font>
</defs>
</svg>
